  0
SECTION
  2
HEADER
  9
$ACADVER
  1
AC1018
  9
$ACADMAINTVER
 70
     0
  9
$DWGCODEPAGE
  3
ANSI_936
  9
$INSBASE
 10
0.0
 20
0.0
 30
0.0
  9
$EXTMIN
 10
-8895.297870776541
 20
-4940.601072828311
 30
0.0
  9
$EXTMAX
 10
10332.70212922151
 20
9047.398927171981
 30
0.0000000000000288
  9
$LIMMIN
 10
0.0
 20
0.0
  9
$LIMMAX
 10
12.0
 20
9.0
  9
$ORTHOMODE
 70
     0
  9
$REGENMODE
 70
     1
  9
$FILLMODE
 70
     1
  9
$QTEXTMODE
 70
     0
  9
$MIRRTEXT
 70
     0
  9
$LTSCALE
 40
1.0
  9
$ATTMODE
 70
     1
  9
$TEXTSIZE
 40
0.2
  9
$TRACEWID
 40
0.05
  9
$TEXTSTYLE
  7
Standard
  9
$CLAYER
  8
0
  9
$CELTYPE
  6
ByLayer
  9
$CECOLOR
 62
   256
  9
$CELTSCALE
 40
1.0
  9
$DISPSILH
 70
     0
  9
$DIMSCALE
 40
1.0
  9
$DIMASZ
 40
0.18
  9
$DIMEXO
 40
0.0625
  9
$DIMDLI
 40
0.38
  9
$DIMRND
 40
0.0
  9
$DIMDLE
 40
0.0
  9
$DIMEXE
 40
0.18
  9
$DIMTP
 40
0.0
  9
$DIMTM
 40
0.0
  9
$DIMTXT
 40
0.18
  9
$DIMCEN
 40
0.09
  9
$DIMTSZ
 40
0.0
  9
$DIMTOL
 70
     0
  9
$DIMLIM
 70
     0
  9
$DIMTIH
 70
     1
  9
$DIMTOH
 70
     1
  9
$DIMSE1
 70
     0
  9
$DIMSE2
 70
     0
  9
$DIMTAD
 70
     0
  9
$DIMZIN
 70
     0
  9
$DIMBLK
  1

  9
$DIMASO
 70
     1
  9
$DIMSHO
 70
     1
  9
$DIMPOST
  1

  9
$DIMAPOST
  1

  9
$DIMALT
 70
     0
  9
$DIMALTD
 70
     2
  9
$DIMALTF
 40
25.4
  9
$DIMLFAC
 40
1.0
  9
$DIMTOFL
 70
     0
  9
$DIMTVP
 40
0.0
  9
$DIMTIX
 70
     0
  9
$DIMSOXD
 70
     0
  9
$DIMSAH
 70
     0
  9
$DIMBLK1
  1

  9
$DIMBLK2
  1

  9
$DIMSTYLE
  2
Standard
  9
$DIMCLRD
 70
     0
  9
$DIMCLRE
 70
     0
  9
$DIMCLRT
 70
     0
  9
$DIMTFAC
 40
1.0
  9
$DIMGAP
 40
0.09
  9
$DIMJUST
 70
     0
  9
$DIMSD1
 70
     0
  9
$DIMSD2
 70
     0
  9
$DIMTOLJ
 70
     1
  9
$DIMTZIN
 70
     0
  9
$DIMALTZ
 70
     0
  9
$DIMALTTZ
 70
     0
  9
$DIMUPT
 70
     0
  9
$DIMDEC
 70
     4
  9
$DIMTDEC
 70
     4
  9
$DIMALTU
 70
     2
  9
$DIMALTTD
 70
     2
  9
$DIMTXSTY
  7
Standard
  9
$DIMAUNIT
 70
     0
  9
$DIMADEC
 70
     0
  9
$DIMALTRND
 40
0.0
  9
$DIMAZIN
 70
     0
  9
$DIMDSEP
 70
    46
  9
$DIMATFIT
 70
     3
  9
$DIMFRAC
 70
     0
  9
$DIMLDRBLK
  1

  9
$DIMLUNIT
 70
     2
  9
$DIMLWD
 70
    -2
  9
$DIMLWE
 70
    -2
  9
$DIMTMOVE
 70
     0
  9
$LUNITS
 70
     2
  9
$LUPREC
 70
     4
  9
$SKETCHINC
 40
0.1
  9
$FILLETRAD
 40
0.0
  9
$AUNITS
 70
     0
  9
$AUPREC
 70
     0
  9
$MENU
  1
.
  9
$ELEVATION
 40
0.0
  9
$PELEVATION
 40
0.0
  9
$THICKNESS
 40
0.0
  9
$LIMCHECK
 70
     0
  9
$CHAMFERA
 40
0.0
  9
$CHAMFERB
 40
0.0
  9
$CHAMFERC
 40
0.0
  9
$CHAMFERD
 40
0.0
  9
$SKPOLY
 70
     0
  9
$TDCREATE
 40
2457893.443910764
  9
$TDUCREATE
 40
2457893.110577431
  9
$TDUPDATE
 40
2457910.648888287
  9
$TDUUPDATE
 40
2457910.315554954
  9
$TDINDWG
 40
0.0028187963
  9
$TDUSRTIMER
 40
0.0028186227
  9
$USRTIMER
 70
     1
  9
$ANGBASE
 50
0.0
  9
$ANGDIR
 70
     0
  9
$PDMODE
 70
     0
  9
$PDSIZE
 40
0.0
  9
$PLINEWID
 40
0.0
  9
$SPLFRAME
 70
     0
  9
$SPLINETYPE
 70
     6
  9
$SPLINESEGS
 70
     8
  9
$HANDSEED
  5
126A
  9
$SURFTAB1
 70
     6
  9
$SURFTAB2
 70
     6
  9
$SURFTYPE
 70
     6
  9
$SURFU
 70
     6
  9
$SURFV
 70
     6
  9
$UCSBASE
  2

  9
$UCSNAME
  2

  9
$UCSORG
 10
0.0
 20
0.0
 30
0.0
  9
$UCSXDIR
 10
1.0
 20
0.0
 30
0.0
  9
$UCSYDIR
 10
0.0
 20
1.0
 30
0.0
  9
$UCSORTHOREF
  2

  9
$UCSORTHOVIEW
 70
     0
  9
$UCSORGTOP
 10
0.0
 20
0.0
 30
0.0
  9
$UCSORGBOTTOM
 10
0.0
 20
0.0
 30
0.0
  9
$UCSORGLEFT
 10
0.0
 20
0.0
 30
0.0
  9
$UCSORGRIGHT
 10
0.0
 20
0.0
 30
0.0
  9
$UCSORGFRONT
 10
0.0
 20
0.0
 30
0.0
  9
$UCSORGBACK
 10
0.0
 20
0.0
 30
0.0
  9
$PUCSBASE
  2

  9
$PUCSNAME
  2

  9
$PUCSORG
 10
0.0
 20
0.0
 30
0.0
  9
$PUCSXDIR
 10
1.0
 20
0.0
 30
0.0
  9
$PUCSYDIR
 10
0.0
 20
1.0
 30
0.0
  9
$PUCSORTHOREF
  2

  9
$PUCSORTHOVIEW
 70
     0
  9
$PUCSORGTOP
 10
0.0
 20
0.0
 30
0.0
  9
$PUCSORGBOTTOM
 10
0.0
 20
0.0
 30
0.0
  9
$PUCSORGLEFT
 10
0.0
 20
0.0
 30
0.0
  9
$PUCSORGRIGHT
 10
0.0
 20
0.0
 30
0.0
  9
$PUCSORGFRONT
 10
0.0
 20
0.0
 30
0.0
  9
$PUCSORGBACK
 10
0.0
 20
0.0
 30
0.0
  9
$USERI1
 70
     0
  9
$USERI2
 70
     0
  9
$USERI3
 70
     0
  9
$USERI4
 70
     0
  9
$USERI5
 70
     0
  9
$USERR1
 40
0.0
  9
$USERR2
 40
0.0
  9
$USERR3
 40
0.0
  9
$USERR4
 40
0.0
  9
$USERR5
 40
0.0
  9
$WORLDVIEW
 70
     1
  9
$SHADEDGE
 70
     3
  9
$SHADEDIF
 70
    70
  9
$TILEMODE
 70
     1
  9
$MAXACTVP
 70
    64
  9
$PINSBASE
 10
0.0
 20
0.0
 30
0.0
  9
$PLIMCHECK
 70
     0
  9
$PEXTMIN
 10
0.0
 20
0.0
 30
0.0
  9
$PEXTMAX
 10
0.0
 20
0.0
 30
0.0
  9
$PLIMMIN
 10
0.0
 20
0.0
  9
$PLIMMAX
 10
12.0
 20
9.0
  9
$UNITMODE
 70
     0
  9
$VISRETAIN
 70
     1
  9
$PLINEGEN
 70
     0
  9
$PSLTSCALE
 70
     1
  9
$TREEDEPTH
 70
  3020
  9
$CMLSTYLE
  2
Standard
  9
$CMLJUST
 70
     0
  9
$CMLSCALE
 40
1.0
  9
$PROXYGRAPHICS
 70
     1
  9
$MEASUREMENT
 70
     0
  9
$CELWEIGHT
370
    -1
  9
$ENDCAPS
280
     0
  9
$JOINSTYLE
280
     0
  9
$LWDISPLAY
290
     0
  9
$INSUNITS
 70
     1
  9
$HYPERLINKBASE
  1

  9
$STYLESHEET
  1

  9
$XEDIT
290
     1
  9
$CEPSNTYPE
380
     0
  9
$PSTYLEMODE
290
     1
  9
$FINGERPRINTGUID
  2
{FDEAD576-A652-11D2-9A35-0060089B3A3F}
  9
$VERSIONGUID
  2
{029E9715-9B15-4C87-A22A-5BED9989E9A8}
  9
$EXTNAMES
290
     1
  9
$PSVPSCALE
 40
0.0
  9
$OLESTARTUP
290
     0
  9
$SORTENTS
280
   127
  9
$INDEXCTL
280
     0
  9
$HIDETEXT
280
     1
  9
$XCLIPFRAME
290
     0
  9
$HALOGAP
280
     0
  9
$OBSCOLOR
 70
   257
  9
$OBSLTYPE
280
     0
  9
$INTERSECTIONDISPLAY
280
     0
  9
$INTERSECTIONCOLOR
 70
   257
  9
$DIMASSOC
280
     2
  9
$PROJECTNAME
  1

  0
ENDSEC
  0
SECTION
  2
CLASSES
  0
CLASS
  1
ACDBDICTIONARYWDFLT
  2
AcDbDictionaryWithDefault
  3
ObjectDBX Classes
 90
        0
 91
        1
280
     0
281
     0
  0
CLASS
  1
DICTIONARYVAR
  2
AcDbDictionaryVar
  3
ObjectDBX Classes
 90
        0
 91
        2
280
     0
281
     0
  0
ENDSEC
  0
SECTION
  2
TABLES
  0
TABLE
  2
VPORT
  5
8
330
0
100
AcDbSymbolTable
 70
     5
  0
VPORT
  5
1269
330
8
100
AcDbSymbolTableRecord
100
AcDbViewportTableRecord
  2
*Active
 70
     0
 10
0.0
 20
0.0
 11
1.0
 21
1.0
 12
1104.829420704113
 22
2158.485008968244
 13
0.0
 23
0.0
 14
0.5
 24
0.5
 15
0.5
 25
0.5
 16
0.0
 26
0.0
 36
1.0
 17
0.0
 27
0.0
 37
0.0
 40
928.2458311489463
 41
2.59437751004016
 42
50.0
 43
0.0
 44
0.0
 50
0.0
 51
0.0
 71
     0
 72
  1000
 73
     1
 74
     3
 75
     0
 76
     0
 77
     0
 78
     0
281
     0
 65
     1
110
0.0
120
0.0
130
0.0
111
1.0
121
0.0
131
0.0
112
0.0
122
1.0
132
0.0
 79
     0
146
0.0
  0
ENDTAB
  0
TABLE
  2
LTYPE
  5
5
330
0
100
AcDbSymbolTable
 70
     4
  0
LTYPE
  5
14
330
5
100
AcDbSymbolTableRecord
100
AcDbLinetypeTableRecord
  2
ByBlock
 70
     0
  3

 72
    65
 73
     0
 40
0.0
  0
LTYPE
  5
15
330
5
100
AcDbSymbolTableRecord
100
AcDbLinetypeTableRecord
  2
ByLayer
 70
     0
  3

 72
    65
 73
     0
 40
0.0
  0
LTYPE
  5
16
330
5
100
AcDbSymbolTableRecord
100
AcDbLinetypeTableRecord
  2
Continuous
 70
     0
  3
Solid line
 72
    65
 73
     0
 40
0.0
  0
LTYPE
  5
E4
330
5
100
AcDbSymbolTableRecord
100
AcDbLinetypeTableRecord
  2
DASHED2
 70
     0
  3
_ _ _ _ _ _ _ _ _ _ _ _ _ _ _ _ _ _ _ _ _ _ _ _
 72
    65
 73
     2
 40
0.375
 49
0.25
 74
     0
 49
-0.125
 74
     0
  0
LTYPE
  5
E5
330
5
100
AcDbSymbolTableRecord
100
AcDbLinetypeTableRecord
  2
CENTER
 70
     0
  3
Center ____ _ ____ _ ____ _ ____ _ ____ _ ____
 72
    65
 73
     4
 40
50.8
 49
31.75
 74
     0
 49
-6.349999999999999
 74
     0
 49
6.349999999999999
 74
     0
 49
-6.349999999999999
 74
     0
  0
LTYPE
  5
C0E
330
5
100
AcDbSymbolTableRecord
100
AcDbLinetypeTableRecord
  2
solid
 70
     0
  3

 72
    65
 73
     0
 40
0.0
  0
ENDTAB
  0
TABLE
  2
LAYER
  5
2
102
{ACAD_XDICTIONARY
360
F2
102
}
330
0
100
AcDbSymbolTable
 70
    11
  0
LAYER
  5
10
330
2
100
AcDbSymbolTableRecord
100
AcDbLayerTableRecord
  2
0
 70
     0
 62
     7
  6
Continuous
370
    -3
390
F
  0
LAYER
  5
E6
330
2
100
AcDbSymbolTableRecord
100
AcDbLayerTableRecord
  2
DIM
 70
     0
 62
     1
  6
Continuous
370
    -3
390
F
  0
LAYER
  5
E7
330
2
100
AcDbSymbolTableRecord
100
AcDbLayerTableRecord
  2
HATCH
 70
     0
 62
     3
  6
Continuous
370
    -3
390
F
  0
LAYER
  5
E8
330
2
100
AcDbSymbolTableRecord
100
AcDbLayerTableRecord
  2
DRAW
 70
     0
 62
     5
  6
Continuous
370
    -3
390
F
  0
LAYER
  5
E9
330
2
100
AcDbSymbolTableRecord
100
AcDbLayerTableRecord
  2
DEFPOINTS
 70
     0
 62
     7
  6
Continuous
290
     0
370
    -3
390
F
  0
LAYER
  5
EA
330
2
100
AcDbSymbolTableRecord
100
AcDbLayerTableRecord
  2
DESHED
 70
     0
 62
   190
  6
DASHED2
370
    -3
390
F
  0
LAYER
  5
EB
330
2
100
AcDbSymbolTableRecord
100
AcDbLayerTableRecord
  2
图框
 70
     0
 62
    80
  6
Continuous
370
    -3
390
F
  0
LAYER
  5
EC
330
2
100
AcDbSymbolTableRecord
100
AcDbLayerTableRecord
  2
粗实线
 70
     0
 62
     7
  6
Continuous
370
    60
390
F
  0
LAYER
  5
ED
330
2
100
AcDbSymbolTableRecord
100
AcDbLayerTableRecord
  2
文字层
 70
     0
 62
     3
  6
Continuous
370
    -3
390
F
  0
LAYER
  5
EE
330
2
100
AcDbSymbolTableRecord
100
AcDbLayerTableRecord
  2
图框_标题栏文字
 70
     0
 62
     7
  6
Continuous
370
    25
390
F
  0
LAYER
  5
C0F
330
2
100
AcDbSymbolTableRecord
100
AcDbLayerTableRecord
  2
5
 70
     0
 62
     0
  6
solid
370
    -3
390
F
  0
ENDTAB
  0
TABLE
  2
STYLE
  5
3
330
0
100
AcDbSymbolTable
 70
     3
  0
STYLE
  5
11
330
3
100
AcDbSymbolTableRecord
100
AcDbTextStyleTableRecord
  2
Standard
 70
     0
 40
0.0
 41
1.0
 50
0.0
 71
     0
 42
0.2
  3
txt
  4

  0
STYLE
  5
EF
330
3
100
AcDbSymbolTableRecord
100
AcDbTextStyleTableRecord
  2
SANSSERIFBOLDOBLIQUE
 70
     0
 40
0.0
 41
1.0
 50
0.0
 71
     0
 42
0.2
  3
sasbo___.pfb
  4

  0
STYLE
  5
F0
330
3
100
AcDbSymbolTableRecord
100
AcDbTextStyleTableRecord
  2
TFWZ
 70
     0
 40
0.0
 41
0.8
 50
0.0
 71
     0
 42
2.5
  3
gbenor.shx
  4
gbcbig.shx
  0
ENDTAB
  0
TABLE
  2
VIEW
  5
6
330
0
100
AcDbSymbolTable
 70
     0
  0
ENDTAB
  0
TABLE
  2
UCS
  5
7
330
0
100
AcDbSymbolTable
 70
     0
  0
ENDTAB
  0
TABLE
  2
APPID
  5
9
330
0
100
AcDbSymbolTable
 70
     1
  0
APPID
  5
12
330
9
100
AcDbSymbolTableRecord
100
AcDbRegAppTableRecord
  2
ACAD
 70
     0
  0
ENDTAB
  0
TABLE
  2
DIMSTYLE
  5
A
330
0
100
AcDbSymbolTable
 70
     3
100
AcDbDimStyleTable
 71
     0
  0
DIMSTYLE
105
27
102
{ACAD_REACTORS
330
D32
330
D33
330
DFB
330
DFC
102
}
330
A
100
AcDbSymbolTableRecord
100
AcDbDimStyleTableRecord
  2
Standard
 70
     0
340
11
  0
DIMSTYLE
105
F1
102
{ACAD_REACTORS
330
E00
330
E03
330
E07
330
E0A
330
E0D
330
E0E
330
E0F
330
E10
330
E11
330
E12
102
}
330
A
100
AcDbSymbolTableRecord
100
AcDbDimStyleTableRecord
  2
B
 70
     0
 40
7.62
 41
1.5
 42
0.3125
 43
0.7
 44
1.0
 73
     0
 74
     0
 77
     1
140
1.5
141
0.045
147
0.3
271
     1
289
     2
340
11
  0
DIMSTYLE
105
424
330
A
100
AcDbSymbolTableRecord
100
AcDbDimStyleTableRecord
  2
B$0
 70
     0
 40
1.679999999999999
 41
1.0
 42
0.0
 43
0.0
 44
1.5
 73
     0
 74
     0
 77
     1
 78
     8
 79
     2
140
1.9
141
0.1
147
0.6
172
     1
179
     2
271
     2
272
     2
288
     1
289
     2
340
11
  0
ENDTAB
  0
TABLE
  2
BLOCK_RECORD
  5
1
330
0
100
AcDbSymbolTable
 70
    68
  0
BLOCK_RECORD
  5
1F
330
1
100
AcDbSymbolTableRecord
100
AcDbBlockTableRecord
  2
*Model_Space
340
22
  0
BLOCK_RECORD
  5
58
330
1
100
AcDbSymbolTableRecord
100
AcDbBlockTableRecord
  2
*Paper_Space
340
59
  0
BLOCK_RECORD
  5
5D
330
1
100
AcDbSymbolTableRecord
100
AcDbBlockTableRecord
  2
*Paper_Space0
340
5E
  0
BLOCK_RECORD
  5
8F
330
1
100
AcDbSymbolTableRecord
100
AcDbBlockTableRecord
  2
_Dot
340
0
  0
BLOCK_RECORD
  5
E50
330
1
100
AcDbSymbolTableRecord
100
AcDbBlockTableRecord
  2
*D45
340
0
  0
BLOCK_RECORD
  5
E5C
330
1
100
AcDbSymbolTableRecord
100
AcDbBlockTableRecord
  2
*D46
340
0
  0
BLOCK_RECORD
  5
E68
330
1
100
AcDbSymbolTableRecord
100
AcDbBlockTableRecord
  2
*D47
340
0
  0
BLOCK_RECORD
  5
E74
330
1
100
AcDbSymbolTableRecord
100
AcDbBlockTableRecord
  2
*D48
340
0
  0
BLOCK_RECORD
  5
E80
330
1
100
AcDbSymbolTableRecord
100
AcDbBlockTableRecord
  2
*D49
340
0
  0
BLOCK_RECORD
  5
E88
330
1
100
AcDbSymbolTableRecord
100
AcDbBlockTableRecord
  2
*D50
340
0
  0
BLOCK_RECORD
  5
E90
330
1
100
AcDbSymbolTableRecord
100
AcDbBlockTableRecord
  2
*D51
340
0
  0
BLOCK_RECORD
  5
E98
330
1
100
AcDbSymbolTableRecord
100
AcDbBlockTableRecord
  2
*D52
340
0
  0
BLOCK_RECORD
  5
EA0
330
1
100
AcDbSymbolTableRecord
100
AcDbBlockTableRecord
  2
*D53
340
0
  0
BLOCK_RECORD
  5
EA8
330
1
100
AcDbSymbolTableRecord
100
AcDbBlockTableRecord
  2
*D54
340
0
  0
BLOCK_RECORD
  5
EB0
330
1
100
AcDbSymbolTableRecord
100
AcDbBlockTableRecord
  2
*D55
340
0
  0
BLOCK_RECORD
  5
EB8
330
1
100
AcDbSymbolTableRecord
100
AcDbBlockTableRecord
  2
*D56
340
0
  0
BLOCK_RECORD
  5
EC0
330
1
100
AcDbSymbolTableRecord
100
AcDbBlockTableRecord
  2
*D57
340
0
  0
BLOCK_RECORD
  5
EC8
330
1
100
AcDbSymbolTableRecord
100
AcDbBlockTableRecord
  2
*D58
340
0
  0
ENDTAB
  0
ENDSEC
  0
SECTION
  2
BLOCKS
  0
BLOCK
  5
20
330
1F
100
AcDbEntity
  8
0
100
AcDbBlockBegin
  2
*Model_Space
 70
     0
 10
0.0
 20
0.0
 30
0.0
  3
*Model_Space
  1

  0
ENDBLK
  5
21
330
1F
100
AcDbEntity
  8
0
100
AcDbBlockEnd
  0
BLOCK
  5
5A
330
58
100
AcDbEntity
 67
     1
  8
0
100
AcDbBlockBegin
  2
*Paper_Space
 70
     0
 10
0.0
 20
0.0
 30
0.0
  3
*Paper_Space
  1

  0
ENDBLK
  5
5B
330
58
100
AcDbEntity
 67
     1
  8
0
100
AcDbBlockEnd
  0
BLOCK
  5
5F
330
5D
100
AcDbEntity
  8
0
100
AcDbBlockBegin
  2
*Paper_Space0
 70
     0
 10
0.0
 20
0.0
 30
0.0
  3
*Paper_Space0
  1

  0
ENDBLK
  5
60
330
5D
100
AcDbEntity
  8
0
100
AcDbBlockEnd
  0
BLOCK
  5
90
330
8F
100
AcDbEntity
  8
0
100
AcDbBlockBegin
  2
_Dot
 70
     0
 10
0.0
 20
0.0
 30
0.0
  3
_Dot
  1

  0
LWPOLYLINE
  5
91
330
8F
100
AcDbEntity
  8
0
  6
ByBlock
 62
     0
100
AcDbPolyline
 90
        2
 70
     1
 43
0.5
 10
-0.25
 20
0.0
 42
1.0
 10
0.25
 20
0.0
 42
1.0
  0
LINE
  5
92
330
8F
100
AcDbEntity
  8
0
  6
ByBlock
 62
     0
370
    -2
100
AcDbLine
 10
-0.5
 20
0.0
 30
0.0
 11
-1.0
 21
0.0
 31
0.0
  0
ENDBLK
  5
93
330
8F
100
AcDbEntity
  8
0
100
AcDbBlockEnd
  0
BLOCK
  5
E5A
330
E50
100
AcDbEntity
  8
0
100
AcDbBlockBegin
  2
*D45
 70
     1
 10
0.0
 20
0.0
 30
0.0
  3
*D45
  1

  0
LINE
  5
F73
330
E50
100
AcDbEntity
  8
0
 62
     0
370
    -2
100
AcDbLine
 10
196.3707244274555
 20
1840.548927171989
 30
0.0
 11
191.3707244274554
 21
1840.548927171989
 31
0.0
  0
LINE
  5
F74
330
E50
100
AcDbEntity
  8
0
 62
     0
370
    -2
100
AcDbLine
 10
196.3707244274555
 20
2266.248927171671
 30
0.0
 11
191.3707244274555
 21
2266.248927171671
 31
0.0
  0
LINE
  5
F75
330
E50
100
AcDbEntity
  8
0
 62
     0
370
    -2
100
AcDbLine
 10
201.3707244274555
 20
1860.548927171989
 30
0.0
 11
201.3707244274556
 21
2246.248927171671
 31
0.0
  0
SOLID
  5
F76
330
E50
100
AcDbEntity
  8
0
 62
     0
100
AcDbTrace
 10
198.0373910941221
 20
1860.548927171989
 30
0.0
 11
204.7040577607888
 21
1860.548927171989
 31
0.0
 12
201.3707244274554
 22
1840.548927171989
 32
0.0
 13
201.3707244274554
 23
1840.548927171989
 33
0.0
  0
SOLID
  5
F77
330
E50
100
AcDbEntity
  8
0
 62
     0
100
AcDbTrace
 10
198.0373910941222
 20
2246.248927171671
 30
0.0
 11
204.7040577607889
 21
2246.248927171671
 31
0.0
 12
201.3707244274556
 22
2266.248927171671
 32
0.0
 13
201.3707244274556
 23
2266.248927171671
 33
0.0
  0
MTEXT
  5
F78
330
E50
100
AcDbEntity
  8
0
 62
     0
100
AcDbMText
 10
186.3707244274552
 20
2053.39892717183
 30
0.0
 40
20.0
 41
0.0
 71
     5
 72
     1
  1
\A1;425.7
 11
0.0000000000000001
 21
1.0
 31
0.0
 73
     1
 44
1.0
  0
POINT
  5
F79
330
E50
100
AcDbEntity
  8
DEFPOINTS
 62
     0
100
AcDbPoint
 10
201.3707244274556
 20
1840.548927171989
 30
0.0
  0
POINT
  5
F7A
330
E50
100
AcDbEntity
  8
DEFPOINTS
 62
     0
100
AcDbPoint
 10
201.3707244274556
 20
2266.248927171671
 30
0.0
  0
POINT
  5
F7B
330
E50
100
AcDbEntity
  8
DEFPOINTS
 62
     0
100
AcDbPoint
 10
201.3707244274556
 20
2266.248927171671
 30
0.0
  0
ENDBLK
  5
E5B
330
E50
100
AcDbEntity
  8
0
100
AcDbBlockEnd
  0
BLOCK
  5
E66
330
E5C
100
AcDbEntity
  8
0
100
AcDbBlockBegin
  2
*D46
 70
     1
 10
0.0
 20
0.0
 30
0.0
  3
*D46
  1

  0
LINE
  5
F6A
330
E5C
100
AcDbEntity
  8
0
 62
     0
370
    -2
100
AcDbLine
 10
324.8521292215301
 20
1715.566838573832
 30
0.0
 11
324.8521292215301
 21
1720.566838573831
 31
0.0
  0
LINE
  5
F6B
330
E5C
100
AcDbEntity
  8
0
 62
     0
370
    -2
100
AcDbLine
 10
1112.552129223459
 20
1715.566838573832
 30
0.0
 11
1112.552129223459
 21
1720.566838573831
 31
0.0
  0
LINE
  5
F6C
330
E5C
100
AcDbEntity
  8
0
 62
     0
370
    -2
100
AcDbLine
 10
344.85212922153
 20
1710.566838573832
 30
0.0
 11
1092.552129223459
 21
1710.566838573832
 31
0.0
  0
SOLID
  5
F6D
330
E5C
100
AcDbEntity
  8
0
 62
     0
100
AcDbTrace
 10
344.85212922153
 20
1713.900171907165
 30
0.0
 11
344.85212922153
 21
1707.233505240498
 31
0.0
 12
324.8521292215301
 22
1710.566838573832
 32
0.0
 13
324.8521292215301
 23
1710.566838573832
 33
0.0
  0
SOLID
  5
F6E
330
E5C
100
AcDbEntity
  8
0
 62
     0
100
AcDbTrace
 10
1092.552129223459
 20
1713.900171907165
 30
0.0
 11
1092.552129223459
 21
1707.233505240498
 31
0.0
 12
1112.552129223459
 22
1710.566838573832
 32
0.0
 13
1112.552129223459
 23
1710.566838573832
 33
0.0
  0
MTEXT
  5
F6F
330
E5C
100
AcDbEntity
  8
0
 62
     0
100
AcDbMText
 10
718.7021292224945
 20
1725.566838573832
 30
0.0
 40
20.0
 41
0.0
 71
     5
 72
     1
  1
\A1;787.7
 73
     1
 44
1.0
  0
POINT
  5
F70
330
E5C
100
AcDbEntity
  8
DEFPOINTS
 62
     0
100
AcDbPoint
 10
324.8521292215301
 20
1710.566838573832
 30
0.0
  0
POINT
  5
F71
330
E5C
100
AcDbEntity
  8
DEFPOINTS
 62
     0
100
AcDbPoint
 10
1112.552129223459
 20
1710.566838573832
 30
0.0
  0
POINT
  5
F72
330
E5C
100
AcDbEntity
  8
DEFPOINTS
 62
     0
100
AcDbPoint
 10
1112.552129223459
 20
1710.566838573832
 30
0.0
  0
ENDBLK
  5
E67
330
E5C
100
AcDbEntity
  8
0
100
AcDbBlockEnd
  0
BLOCK
  5
E72
330
E68
100
AcDbEntity
  8
0
100
AcDbBlockBegin
  2
*D47
 70
     1
 10
0.0
 20
0.0
 30
0.0
  3
*D47
  1

  0
LINE
  5
F61
330
E68
100
AcDbEntity
  8
0
 62
     0
370
    -2
100
AcDbLine
 10
257.9939844850305
 20
1846.898927171989
 30
0.0
 11
252.9939844850304
 21
1846.898927171989
 31
0.0
  0
LINE
  5
F62
330
E68
100
AcDbEntity
  8
0
 62
     0
370
    -2
100
AcDbLine
 10
257.9939844850305
 20
2259.898927171673
 30
0.0
 11
252.9939844850305
 21
2259.898927171673
 31
0.0
  0
LINE
  5
F63
330
E68
100
AcDbEntity
  8
0
 62
     0
370
    -2
100
AcDbLine
 10
262.9939844850304
 20
1866.898927171989
 30
0.0
 11
262.9939844850305
 21
2239.898927171673
 31
0.0
  0
SOLID
  5
F64
330
E68
100
AcDbEntity
  8
0
 62
     0
100
AcDbTrace
 10
259.6606511516971
 20
1866.898927171989
 30
0.0
 11
266.3273178183637
 21
1866.898927171989
 31
0.0
 12
262.9939844850304
 22
1846.898927171989
 32
0.0
 13
262.9939844850304
 23
1846.898927171989
 33
0.0
  0
SOLID
  5
F65
330
E68
100
AcDbEntity
  8
0
 62
     0
100
AcDbTrace
 10
259.6606511516972
 20
2239.898927171673
 30
0.0
 11
266.3273178183638
 21
2239.898927171673
 31
0.0
 12
262.9939844850305
 22
2259.898927171673
 32
0.0
 13
262.9939844850305
 23
2259.898927171673
 33
0.0
  0
MTEXT
  5
F66
330
E68
100
AcDbEntity
  8
0
 62
     0
100
AcDbMText
 10
247.9939844850301
 20
2053.398927171831
 30
0.0
 40
20.0
 41
0.0
 71
     5
 72
     1
  1
\A1;413
 11
0.0000000000000001
 21
1.0
 31
0.0
 73
     1
 44
1.0
  0
POINT
  5
F67
330
E68
100
AcDbEntity
  8
DEFPOINTS
 62
     0
100
AcDbPoint
 10
262.9939844850305
 20
1846.898927171989
 30
0.0
  0
POINT
  5
F68
330
E68
100
AcDbEntity
  8
DEFPOINTS
 62
     0
100
AcDbPoint
 10
262.9939844850305
 20
2259.898927171673
 30
0.0
  0
POINT
  5
F69
330
E68
100
AcDbEntity
  8
DEFPOINTS
 62
     0
100
AcDbPoint
 10
262.9939844850305
 20
2259.898927171673
 30
0.0
  0
ENDBLK
  5
E73
330
E68
100
AcDbEntity
  8
0
100
AcDbBlockEnd
  0
BLOCK
  5
E7E
330
E74
100
AcDbEntity
  8
0
100
AcDbBlockBegin
  2
*D48
 70
     1
 10
0.0
 20
0.0
 30
0.0
  3
*D48
  1

  0
LINE
  5
F58
330
E74
100
AcDbEntity
  8
0
 62
     0
370
    -2
100
AcDbLine
 10
331.2021292215322
 20
1781.237214667839
 30
0.0
 11
331.2021292215322
 21
1786.237214667839
 31
0.0
  0
LINE
  5
F59
330
E74
100
AcDbEntity
  8
0
 62
     0
370
    -2
100
AcDbLine
 10
1106.20212922346
 20
1781.237214667839
 30
0.0
 11
1106.20212922346
 21
1786.237214667839
 31
0.0
  0
LINE
  5
F5A
330
E74
100
AcDbEntity
  8
0
 62
     0
370
    -2
100
AcDbLine
 10
351.2021292215322
 20
1776.237214667839
 30
0.0
 11
1086.20212922346
 21
1776.237214667839
 31
0.0
  0
SOLID
  5
F5B
330
E74
100
AcDbEntity
  8
0
 62
     0
100
AcDbTrace
 10
351.2021292215322
 20
1779.570548001172
 30
0.0
 11
351.2021292215322
 21
1772.903881334505
 31
0.0
 12
331.2021292215322
 22
1776.237214667839
 32
0.0
 13
331.2021292215322
 23
1776.237214667839
 33
0.0
  0
SOLID
  5
F5C
330
E74
100
AcDbEntity
  8
0
 62
     0
100
AcDbTrace
 10
1086.20212922346
 20
1779.570548001172
 30
0.0
 11
1086.20212922346
 21
1772.903881334505
 31
0.0
 12
1106.20212922346
 22
1776.237214667839
 32
0.0
 13
1106.20212922346
 23
1776.237214667839
 33
0.0
  0
MTEXT
  5
F5D
330
E74
100
AcDbEntity
  8
0
 62
     0
100
AcDbMText
 10
718.7021292224962
 20
1791.237214667839
 30
0.0
 40
20.0
 41
0.0
 71
     5
 72
     1
  1
\A1;775
 73
     1
 44
1.0
  0
POINT
  5
F5E
330
E74
100
AcDbEntity
  8
DEFPOINTS
 62
     0
100
AcDbPoint
 10
331.2021292215322
 20
1776.237214667839
 30
0.0
  0
POINT
  5
F5F
330
E74
100
AcDbEntity
  8
DEFPOINTS
 62
     0
100
AcDbPoint
 10
1106.20212922346
 20
1776.237214667839
 30
0.0
  0
POINT
  5
F60
330
E74
100
AcDbEntity
  8
DEFPOINTS
 62
     0
100
AcDbPoint
 10
1106.20212922346
 20
1776.237214667839
 30
0.0
  0
ENDBLK
  5
E7F
330
E74
100
AcDbEntity
  8
0
100
AcDbBlockEnd
  0
BLOCK
  5
E86
330
E80
100
AcDbEntity
  8
0
100
AcDbBlockBegin
  2
*D49
 70
     1
 10
0.0
 20
0.0
 30
0.0
  3
*D49
  1

  0
LINE
  5
F53
330
E80
100
AcDbEntity
  8
DIM
370
    -3
100
AcDbLine
 10
406.3713037678921
 20
1927.583685127404
 30
0.0
 11
356.241255878189
 21
1899.615890888739
 31
0.0
  0
MTEXT
  5
F54
330
E80
100
AcDbEntity
  8
DIM
 62
     0
100
AcDbMText
 10
383.8769179947898
 20
1924.632201315683
 30
0.0
 40
15.24
 41
0.0
 71
     5
 72
     1
  1
\A1;R87
 11
0.8732849259581422
 21
0.4872098501613879
 31
0.0
 73
     1
 44
1.0
  0
SOLID
  5
F55
330
E80
100
AcDbEntity
  8
DIM
100
AcDbTrace
 10
355.0037428587791
 20
1901.834034600672
 30
0.0
 11
357.4787688975989
 21
1897.397747176805
 31
0.0
 12
342.9323936065868
 22
1892.190812772279
 32
0.0
 13
342.9323936065868
 23
1892.190812772279
 33
0.0
  0
POINT
  5
F56
330
E80
100
AcDbEntity
  8
DEFPOINTS
 62
     0
100
AcDbPoint
 10
342.9323936065868
 20
1892.190812772279
 30
0.0
  0
POINT
  5
F57
330
E80
100
AcDbEntity
  8
DEFPOINTS
 62
     0
100
AcDbPoint
 10
418.9081821649433
 20
1934.578069736319
 30
0.0
  0
ENDBLK
  5
E87
330
E80
100
AcDbEntity
  8
0
100
AcDbBlockEnd
  0
BLOCK
  5
E8E
330
E88
100
AcDbEntity
  8
0
100
AcDbBlockBegin
  2
*D50
 70
     1
 10
0.0
 20
0.0
 30
0.0
  3
*D50
  1

  0
LINE
  5
F4E
330
E88
100
AcDbEntity
  8
DIM
370
    -3
100
AcDbLine
 10
422.6623124773164
 20
2167.866202858689
 30
0.0
 11
372.0457692201122
 21
2226.565086639695
 31
0.0
  0
MTEXT
  5
F4F
330
E88
100
AcDbEntity
  8
DIM
 62
     0
100
AcDbMText
 10
415.2427045053562
 20
2189.305840578167
 30
0.0
 40
15.24
 41
0.0
 71
     5
 72
     1
  1
\A1;R87
 11
0.6530436586515607
 21
-0.7573202624352421
 31
0.0
 73
     1
 44
1.0
  0
SOLID
  5
F50
330
E88
100
AcDbEntity
  8
DIM
100
AcDbTrace
 10
373.9693626866978
 20
2228.22381753267
 30
0.0
 11
370.1221757535267
 21
2224.906355746721
 31
0.0
 12
362.0933838622624
 22
2238.106647439208
 32
0.0
 13
362.0933838622624
 23
2238.106647439208
 33
0.0
  0
POINT
  5
F51
330
E88
100
AcDbEntity
  8
DEFPOINTS
 62
     0
100
AcDbPoint
 10
362.0933838622624
 20
2238.106647439208
 30
0.0
  0
POINT
  5
F52
330
E88
100
AcDbEntity
  8
DEFPOINTS
 62
     0
100
AcDbPoint
 10
418.9081821649489
 20
2172.219784607341
 30
0.0
  0
ENDBLK
  5
E8F
330
E88
100
AcDbEntity
  8
0
100
AcDbBlockEnd
  0
BLOCK
  5
E96
330
E90
100
AcDbEntity
  8
0
100
AcDbBlockBegin
  2
*D51
 70
     1
 10
0.0
 20
0.0
 30
0.0
  3
*D51
  1

  0
LINE
  5
F49
330
E90
100
AcDbEntity
  8
DIM
370
    -3
100
AcDbLine
 10
1028.399846154191
 20
2182.612574332911
 30
0.0
 11
1068.001128256169
 21
2224.169254564612
 31
0.0
  0
MTEXT
  5
F4A
330
E90
100
AcDbEntity
  8
DIM
 62
     0
100
AcDbMText
 10
1036.875669016217
 20
2203.657029061213
 30
0.0
 40
15.24
 41
0.0
 71
     5
 72
     1
  1
\A1;R87
 11
0.6898697321088454
 21
0.7239335278325421
 31
0.0
 73
     1
 44
1.0
  0
SOLID
  5
F4B
330
E90
100
AcDbEntity
  8
DIM
100
AcDbTrace
 10
1066.162337095475
 20
2225.921523684169
 30
0.0
 11
1069.839919416864
 21
2222.416985445056
 31
0.0
 12
1078.514742973508
 22
2235.20200152878
 32
0.0
 13
1078.514742973508
 23
2235.20200152878
 33
0.0
  0
POINT
  5
F4C
330
E90
100
AcDbEntity
  8
DEFPOINTS
 62
     0
100
AcDbPoint
 10
1078.514742973508
 20
2235.20200152878
 30
0.0
  0
POINT
  5
F4D
330
E90
100
AcDbEntity
  8
DEFPOINTS
 62
     0
100
AcDbPoint
 10
1018.49607628004
 20
2172.219784607351
 30
0.0
  0
ENDBLK
  5
E97
330
E90
100
AcDbEntity
  8
0
100
AcDbBlockEnd
  0
BLOCK
  5
E9E
330
E98
100
AcDbEntity
  8
0
100
AcDbBlockBegin
  2
*D52
 70
     1
 10
0.0
 20
0.0
 30
0.0
  3
*D52
  1

  0
LINE
  5
F44
330
E98
100
AcDbEntity
  8
DIM
370
    -3
100
AcDbLine
 10
1028.133863433771
 20
1923.938154568445
 30
0.0
 11
1066.671585206746
 21
1881.393316849288
 31
0.0
  0
MTEXT
  5
F45
330
E98
100
AcDbEntity
  8
DIM
 62
     0
100
AcDbMText
 10
1048.499396849208
 20
1913.94047000127
 30
0.0
 40
15.24
 41
0.0
 71
     5
 72
     1
  1
\A1;R87
 11
0.6713420976407713
 21
-0.7411476154824282
 31
0.0
 73
     1
 44
1.0
  0
SOLID
  5
F46
330
E98
100
AcDbEntity
  8
DIM
100
AcDbTrace
 10
1068.554100150071
 20
1883.098525777296
 30
0.0
 11
1064.789070263421
 21
1879.688107921281
 31
0.0
 12
1076.902838774791
 22
1870.098227189336
 32
0.0
 13
1076.902838774791
 23
1870.098227189336
 33
0.0
  0
POINT
  5
F47
330
E98
100
AcDbEntity
  8
DEFPOINTS
 62
     0
100
AcDbPoint
 10
1076.902838774791
 20
1870.098227189336
 30
0.0
  0
POINT
  5
F48
330
E98
100
AcDbEntity
  8
DEFPOINTS
 62
     0
100
AcDbPoint
 10
1018.496076280043
 20
1934.578069736308
 30
0.0
  0
ENDBLK
  5
E9F
330
E98
100
AcDbEntity
  8
0
100
AcDbBlockEnd
  0
BLOCK
  5
EA6
330
EA0
100
AcDbEntity
  8
0
100
AcDbBlockBegin
  2
*D53
 70
     1
 10
0.0
 20
0.0
 30
0.0
  3
*D53
  1

  0
LINE
  5
F3F
330
EA0
100
AcDbEntity
  8
DIM
370
    -3
100
AcDbLine
 10
452.1831798921765
 20
2092.919526341317
 30
0.0
 11
346.5200038791166
 21
2093.33681620831
 31
0.0
  0
MTEXT
  5
F40
330
EA0
100
AcDbEntity
  8
DIM
 62
     0
100
AcDbMText
 10
407.0046347846911
 20
2101.48001289121
 30
0.0
 40
15.24
 41
0.0
 71
     5
 72
     1
  1
\A1;R10001.5
 11
0.9999922018195414
 21
-0.0039492151252303
 31
0.0
 73
     1
 44
1.0
  0
SOLID
  5
F41
330
EA0
100
AcDbEntity
  8
DIM
100
AcDbTrace
 10
346.5300348855346
 20
2095.876796400931
 30
0.0
 11
346.5099728726985
 21
2090.796836015688
 31
0.0
 12
331.2801227233868
 22
2093.397002246818
 32
0.0
 13
331.2801227233868
 23
2093.397002246818
 33
0.0
  0
POINT
  5
F42
330
EA0
100
AcDbEntity
  8
DEFPOINTS
 62
     0
100
AcDbPoint
 10
331.2801227233868
 20
2093.397002246818
 30
0.0
  0
POINT
  5
F43
330
EA0
100
AcDbEntity
  8
DEFPOINTS
 62
     0
100
AcDbPoint
 10
10332.70212922151
 20
2053.898927171829
 30
0.0
  0
ENDBLK
  5
EA7
330
EA0
100
AcDbEntity
  8
0
100
AcDbBlockEnd
  0
BLOCK
  5
EAE
330
EA8
100
AcDbEntity
  8
0
100
AcDbBlockBegin
  2
*D54
 70
     1
 10
0.0
 20
0.0
 30
0.0
  3
*D54
  1

  0
LINE
  5
F3A
330
EA8
100
AcDbEntity
  8
DIM
370
    -3
100
AcDbLine
 10
985.2732992772816
 20
2076.049970425993
 30
0.0
 11
1090.937033743559
 21
2076.286855714533
 31
0.0
  0
MTEXT
  5
F3B
330
EA8
100
AcDbEntity
  8
DIM
 62
     0
100
AcDbMText
 10
1030.466394278425
 20
2084.533308932597
 30
0.0
 40
15.24
 41
0.0
 71
     5
 72
     1
  1
\A1;R10001.5
 11
0.9999974869991469
 21
0.00224187318803
 31
0.0
 73
     1
 44
1.0
  0
SOLID
  5
F3C
330
EA8
100
AcDbEntity
  8
DIM
100
AcDbTrace
 10
1090.931339385662
 20
2078.826849331511
 30
0.0
 11
1090.942728101457
 21
2073.746862097555
 31
0.0
 12
1106.176995445426
 22
2076.321021861919
 32
0.0
 13
1106.176995445426
 23
2076.321021861919
 33
0.0
  0
POINT
  5
F3D
330
EA8
100
AcDbEntity
  8
DEFPOINTS
 62
     0
100
AcDbPoint
 10
1106.176995445426
 20
2076.321021861919
 30
0.0
  0
POINT
  5
F3E
330
EA8
100
AcDbEntity
  8
DEFPOINTS
 62
     0
100
AcDbPoint
 10
-8895.297870776541
 20
2053.89892717184
 30
0.0
  0
ENDBLK
  5
EAF
330
EA8
100
AcDbEntity
  8
0
100
AcDbBlockEnd
  0
BLOCK
  5
EB6
330
EB0
100
AcDbEntity
  8
0
100
AcDbBlockBegin
  2
*D55
 70
     1
 10
0.0
 20
0.0
 30
0.0
  3
*D55
  1

  0
LINE
  5
F35
330
EB0
100
AcDbEntity
  8
DIM
370
    -3
100
AcDbLine
 10
956.7504242084245
 20
1965.357233943281
 30
0.0
 11
957.2826091837029
 21
1862.23460715773
 31
0.0
  0
MTEXT
  5
F36
330
EB0
100
AcDbEntity
  8
DIM
 62
     0
100
AcDbMText
 10
965.3590810671591
 20
1921.459075495705
 30
0.0
 40
15.24
 41
0.0
 71
     5
 72
     1
  1
\A1;R7200.5
 11
0.0051606316209471
 21
-0.9999866838519764
 31
0.0
 73
     1
 44
1.0
  0
SOLID
  5
F37
330
EB0
100
AcDbEntity
  8
DIM
100
AcDbTrace
 10
959.822575360687
 20
1862.247715162047
 30
0.0
 11
954.742643006719
 21
1862.221499153413
 31
0.0
 12
957.3612572096063
 22
1846.994810095826
 32
0.0
 13
957.3612572096063
 23
1846.994810095826
 33
0.0
  0
POINT
  5
F38
330
EB0
100
AcDbEntity
  8
DEFPOINTS
 62
     0
100
AcDbPoint
 10
957.3612572096063
 20
1846.994810095826
 30
0.0
  0
POINT
  5
F39
330
EB0
100
AcDbEntity
  8
DEFPOINTS
 62
     0
100
AcDbPoint
 10
920.2021292229765
 20
9047.398927171961
 30
0.0
  0
ENDBLK
  5
EB7
330
EB0
100
AcDbEntity
  8
0
100
AcDbBlockEnd
  0
BLOCK
  5
EBE
330
EB8
100
AcDbEntity
  8
0
100
AcDbBlockBegin
  2
*D56
 70
     1
 10
0.0
 20
0.0
 30
0.0
  3
*D56
  1

  0
LINE
  5
F30
330
EB8
100
AcDbEntity
  8
DIM
370
    -3
100
AcDbLine
 10
970.2165199494356
 20
2141.358322933294
 30
0.0
 11
970.9447866798788
 21
2244.479751373608
 31
0.0
  0
MTEXT
  5
F31
330
EB8
100
AcDbEntity
  8
DIM
 62
     0
100
AcDbMText
 10
962.1450495204618
 20
2185.358421264027
 30
0.0
 40
15.24
 41
0.0
 71
     5
 72
     1
  1
\A1;R7200.5
 11
0.0070620488968929
 21
0.9999750634217726
 31
0.0
 73
     1
 44
1.0
  0
SOLID
  5
F32
330
EB8
100
AcDbEntity
  8
DIM
100
AcDbTrace
 10
968.4048500187875
 20
2244.497688977807
 30
0.0
 11
973.4847233409702
 21
2244.46181376941
 31
0.0
 12
971.0524123050674
 22
2259.719371340156
 32
0.0
 13
971.0524123050674
 23
2259.719371340156
 33
0.0
  0
POINT
  5
F33
330
EB8
100
AcDbEntity
  8
DEFPOINTS
 62
     0
100
AcDbPoint
 10
971.0524123050674
 20
2259.719371340156
 30
0.0
  0
POINT
  5
F34
330
EB8
100
AcDbEntity
  8
DEFPOINTS
 62
     0
100
AcDbPoint
 10
920.2021292229893
 20
-4940.601072828311
 30
0.0
  0
ENDBLK
  5
EBF
330
EB8
100
AcDbEntity
  8
0
100
AcDbBlockEnd
  0
BLOCK
  5
EC6
330
EC0
100
AcDbEntity
  8
0
100
AcDbBlockBegin
  2
*D57
 70
     1
 10
0.0
 20
0.0
 30
0.0
  3
*D57
  1

  0
LINE
  5
F2B
330
EC0
100
AcDbEntity
  8
DIM
370
    -3
100
AcDbLine
 10
476.7341503126318
 20
2141.419307344186
 30
0.0
 11
476.1448902564776
 21
2244.541623787266
 31
0.0
  0
MTEXT
  5
F2C
330
EC0
100
AcDbEntity
  8
DIM
 62
     0
100
AcDbMText
 10
484.8649248271811
 20
2185.408485488289
 30
0.0
 40
15.24
 41
0.0
 71
     5
 72
     1
  1
\A1;R7200.5
 11
0.0057140923175417
 21
-0.9999836744412313
 31
0.0
 73
     1
 44
1.0
  0
SOLID
  5
F2D
330
EC0
100
AcDbEntity
  8
DIM
100
AcDbTrace
 10
478.6848487895584
 20
2244.556137581753
 30
0.0
 11
473.6049317233969
 21
2244.527109992779
 31
0.0
 12
476.0578074895582
 22
2259.78137498575
 32
0.0
 13
476.0578074895582
 23
2259.78137498575
 33
0.0
  0
POINT
  5
F2E
330
EC0
100
AcDbEntity
  8
DEFPOINTS
 62
     0
100
AcDbPoint
 10
476.0578074895582
 20
2259.78137498575
 30
0.0
  0
POINT
  5
F2F
330
EC0
100
AcDbEntity
  8
DEFPOINTS
 62
     0
100
AcDbPoint
 10
517.2021292220141
 20
-4940.601072828306
 30
0.0
  0
ENDBLK
  5
EC7
330
EC0
100
AcDbEntity
  8
0
100
AcDbBlockEnd
  0
BLOCK
  5
ECE
330
EC8
100
AcDbEntity
  8
0
100
AcDbBlockBegin
  2
*D58
 70
     1
 10
0.0
 20
0.0
 30
0.0
  3
*D58
  1

  0
LINE
  5
F26
330
EC8
100
AcDbEntity
  8
DIM
370
    -3
100
AcDbLine
 10
456.2377564563169
 20
1965.525328487163
 30
0.0
 11
455.3500454638858
 21
1862.405149350417
 31
0.0
  0
MTEXT
  5
F27
330
EC8
100
AcDbEntity
  8
DIM
 62
     0
100
AcDbMText
 10
447.4778059311861
 20
1921.657110438133
 30
0.0
 40
15.24
 41
0.0
 71
     5
 72
     1
  1
\A1;R7200.5
 11
0.0086081900666285
 21
0.9999629488454944
 31
0.0
 73
     1
 44
1.0
  0
SOLID
  5
F28
330
EC8
100
AcDbEntity
  8
DIM
100
AcDbTrace
 10
452.8101395738183
 20
1862.427014153186
 30
0.0
 11
457.8899513539535
 21
1862.383284547648
 31
0.0
 12
455.2188566472704
 22
1847.165714010012
 32
0.0
 13
455.2188566472704
 23
1847.165714010012
 33
0.0
  0
POINT
  5
F29
330
EC8
100
AcDbEntity
  8
DEFPOINTS
 62
     0
100
AcDbPoint
 10
455.2188566472704
 20
1847.165714010012
 30
0.0
  0
POINT
  5
F2A
330
EC8
100
AcDbEntity
  8
DEFPOINTS
 62
     0
100
AcDbPoint
 10
517.2021292220287
 20
9047.398927171981
 30
0.0
  0
ENDBLK
  5
ECF
330
EC8
100
AcDbEntity
  8
0
100
AcDbBlockEnd
  0
ENDSEC
  0
SECTION
  2
ENTITIES
  0
DIMENSION
  5
D32
330
1F
100
AcDbEntity
  8
0
 62
     1
100
AcDbDimension
  2
*D45
 10
201.3707244274556
 20
2266.248927171671
 30
0.0
 11
186.3707244274552
 21
2053.39892717183
 31
0.0
 70
    32
 71
     5
 42
425.6999999996824
  3
Standard
100
AcDbAlignedDimension
 13
201.3707244274556
 23
1840.548927171989
 33
0.0
 14
201.3707244274556
 24
2266.248927171671
 34
0.0
 50
90.0
100
AcDbRotatedDimension
1001
ACAD
1000
DSTYLE
1002
{
1070
    40
1040
8.0
1070
    41
1040
2.5
1070
    42
1040
0.625
1070
    43
1040
3.75
1070
    44
1040
1.25
1070
    73
1070
     0
1070
    74
1070
     0
1070
    77
1070
     1
1070
    78
1070
     8
1070
   140
1040
2.5
1070
   141
1040
2.5
1070
   143
1040
0.0394
1070
   147
1040
0.625
1070
   171
1070
     4
1070
   172
1070
     1
1070
   271
1070
     1
1070
   272
1070
     1
1070
   273
1070
     8
1070
   274
1070
     4
1002
}
  0
DIMENSION
  5
D33
330
1F
100
AcDbEntity
  8
0
 62
     1
100
AcDbDimension
  2
*D46
 10
1112.552129223459
 20
1710.566838573832
 30
0.0
 11
718.7021292224945
 21
1725.566838573832
 31
0.0
 70
    32
 71
     5
 42
787.7000000019288
  3
Standard
100
AcDbAlignedDimension
 13
324.8521292215301
 23
1710.566838573832
 33
0.0
 14
1112.552129223459
 24
1710.566838573832
 34
0.0
100
AcDbRotatedDimension
1001
ACAD
1000
DSTYLE
1002
{
1070
    40
1040
8.0
1070
    41
1040
2.5
1070
    42
1040
0.625
1070
    43
1040
3.75
1070
    44
1040
1.25
1070
    73
1070
     0
1070
    74
1070
     0
1070
    77
1070
     1
1070
    78
1070
     8
1070
   140
1040
2.5
1070
   141
1040
2.5
1070
   143
1040
0.0394
1070
   147
1040
0.625
1070
   171
1070
     4
1070
   172
1070
     1
1070
   271
1070
     1
1070
   272
1070
     1
1070
   273
1070
     8
1070
   274
1070
     4
1002
}
  0
ARC
  5
D34
330
1F
100
AcDbEntity
  8
5
  6
solid
 62
     5
370
     0
100
AcDbCircle
 10
517.202129222027
 20
-4940.601072828332
 30
0.0
 40
7206.85
100
AcDbArc
 50
90.0
 51
90.79173508861764
  0
ARC
  5
D35
330
1F
100
AcDbEntity
  8
5
  6
solid
 62
     5
370
     0
100
AcDbCircle
 10
418.9081821649487
 20
2172.21978460734
 30
0.0
 40
93.34999999999999
100
AcDbArc
 50
90.79173508861764
 51
179.3162089171319
  0
ARC
  5
D36
330
1F
100
AcDbEntity
  8
5
  6
solid
 62
     5
370
     0
100
AcDbCircle
 10
10416.66787613995
 20
2053.39892717176
 30
0.0
 40
10091.81574691842
100
AcDbArc
 50
179.3190595257244
 51
180.6809404742756
  0
ARC
  5
D37
330
1F
100
AcDbEntity
  8
5
  6
solid
 62
     5
370
     0
100
AcDbCircle
 10
418.9081821649487
 20
1934.578069736321
 30
0.0
 40
93.34999999999999
100
AcDbArc
 50
180.683791082868
 51
269.2082649113824
  0
ARC
  5
D38
330
1F
100
AcDbEntity
  8
5
  6
solid
 62
     5
370
     0
100
AcDbCircle
 10
517.202129222027
 20
9047.398927171993
 30
0.0
 40
7206.85
100
AcDbArc
 50
269.2082649113824
 51
270.0
  0
LINE
  5
D39
330
1F
100
AcDbEntity
  8
5
  6
solid
 62
     5
370
     0
100
AcDbLine
 10
920.2021292229838
 20
1840.548927171983
 30
0.0
 11
517.2021292220233
 21
1840.548927171994
 31
0.0
  0
ARC
  5
D3A
330
1F
100
AcDbEntity
  8
5
  6
solid
 62
     5
370
     0
100
AcDbCircle
 10
920.2021292229874
 20
9047.398927171981
 30
0.0
 40
7206.85
100
AcDbArc
 50
270.0
 51
270.7917350886177
  0
ARC
  5
D3B
330
1F
100
AcDbEntity
  8
5
  6
solid
 62
     5
370
     0
100
AcDbCircle
 10
1018.49607628004
 20
1934.57806973631
 30
0.0
 40
93.34999999999999
100
AcDbArc
 50
270.7917350886177
 51
359.316208917132
  0
ARC
  5
D3C
330
1F
100
AcDbEntity
  8
5
  6
solid
 62
     5
370
     0
100
AcDbCircle
 10
-8979.263617695155
 20
2053.398927171906
 30
0.0
 40
10091.81574691861
100
AcDbArc
 50
359.3190595257244
 51
0.6809404742756186
  0
ARC
  5
D3D
330
1F
100
AcDbEntity
  8
5
  6
solid
 62
     5
370
     0
100
AcDbCircle
 10
1018.49607628004
 20
2172.219784607351
 30
0.0
 40
93.34999999999999
100
AcDbArc
 50
0.6837910828680361
 51
89.20826491138234
  0
ARC
  5
D3E
330
1F
100
AcDbEntity
  8
5
  6
solid
 62
     5
370
     0
100
AcDbCircle
 10
920.2021292229874
 20
-4940.601072828322
 30
0.0
 40
7206.85
100
AcDbArc
 50
89.20826491138234
 51
90.0
  0
LINE
  5
D3F
330
1F
100
AcDbEntity
  8
5
  6
solid
 62
     5
370
     0
100
AcDbLine
 10
517.202129222027
 20
2266.248927171666
 30
0.0
 11
920.2021292227836
 21
2266.248927171677
 31
0.0
  0
LINE
  5
D40
330
1F
100
AcDbEntity
  8
DIM
 62
     0
100
AcDbLine
 10
959.6406793054883
 20
2100.623970845074
 30
0.0
 11
959.8990207145034
 21
2099.519356146815
 31
0.0
  0
LEADER
  5
D41
330
1F
100
AcDbEntity
  8
DIM
 62
     0
100
AcDbLeader
  3
B
 73
     0
 74
     0
 75
     1
 40
3.0
 41
9.142857142857142
 76
     3
 10
967.5427187721398
 20
2096.930004938473
 30
0.0
 10
975.7222458770961
 20
2106.26763973061
 30
0.0
 10
987.1522458770961
 20
2106.26763973061
 30
0.0
340
D42
213
0.0
223
-1.5
233
0.0
1001
ACAD
1000
DSTYLE
1002
{
1070
   147
1040
0.3
1070
    77
1070
     0
1002
}
  0
MTEXT
  5
D42
102
{ACAD_REACTORS
330
D41
102
}
330
1F
100
AcDbEntity
  8
DIM
 62
     0
100
AcDbMText
 10
989.4382458770961
 20
2107.76763973061
 30
0.0
 40
3.0
 41
42.17142857142856
 71
     1
 72
     1
  1
{\fBatang|b0|i0|c0|p18;SINK}
 73
     1
 44
1.0
  0
LINE
  5
D43
330
1F
100
AcDbEntity
  8
DIM
 62
     0
370
     0
100
AcDbLine
 10
954.9355200084356
 20
2092.507518038205
 30
0.0
 11
957.1419460821307
 21
2097.381305662224
 31
0.0
  0
LINE
  5
D44
330
1F
100
AcDbEntity
  8
DIM
 62
     0
370
     0
100
AcDbLine
 10
955.2288579276938
 20
2098.247385169754
 30
0.0
 11
953.6000139276438
 21
2094.64942200953
 31
0.0
  0
LINE
  5
D45
330
1F
100
AcDbEntity
  8
DIM
 62
     0
370
     0
100
AcDbLine
 10
957.1419460821307
 20
2097.381305662224
 30
0.0
 11
955.2288579276938
 21
2098.247385169754
 31
0.0
  0
ARC
  5
D46
330
1F
100
AcDbEntity
  8
DIM
 62
     0
370
     0
100
AcDbCircle
 10
964.0797359727949
 20
2095.983231513015
 30
0.0
 40
3.59999999999999
100
AcDbArc
 50
1.839441251969636
 51
90.8811635037197
  0
LINE
  5
D47
330
1F
100
AcDbEntity
  8
DIM
 62
     0
370
     0
100
AcDbLine
 10
968.6145544202044
 20
2066.533900525376
 30
0.0
 11
967.67788089647
 21
2096.098787162831
 31
0.0
  0
LINE
  5
D48
330
1F
100
AcDbEntity
  8
DIM
 62
     0
370
     0
100
AcDbLine
 10
967.4407559527827
 20
2066.097743569544
 30
0.0
 11
968.6145544202044
 21
2066.533900525376
 31
0.0
  0
LINE
  5
D49
330
1F
100
AcDbEntity
  8
DIM
 62
     0
370
     0
100
AcDbLine
 10
966.478499255245
 20
2096.060268612893
 30
0.0
 11
967.4407559527827
 21
2066.097743569544
 31
0.0
  0
ARC
  5
D4A
330
1F
100
AcDbEntity
  8
DIM
 62
     0
370
     0
100
AcDbCircle
 10
964.0797359727949
 20
2095.983231513015
 30
0.0
 40
2.399999999999972
100
AcDbArc
 50
1.839441251969636
 51
90.8811635037197
  0
ARC
  5
D4B
102
{ACAD_REACTORS
330
D73
102
}
330
1F
100
AcDbEntity
  8
DIM
 62
     0
370
     0
100
AcDbCircle
 10
955.7033355334787
 20
2117.607798857682
 30
0.0
 40
3.0
100
AcDbArc
 50
0.0
 51
90.0
  0
LINE
  5
D4C
102
{ACAD_REACTORS
330
D73
102
}
330
1F
100
AcDbEntity
  8
DIM
 62
     0
370
     0
100
AcDbLine
 10
958.7033355334789
 20
2100.623970845074
 30
0.0
 11
958.7033355334789
 21
2117.607798857682
 31
0.0
  0
LINE
  5
D4D
330
1F
100
AcDbEntity
  8
DIM
 62
     0
100
AcDbLine
 10
955.2288579276938
 20
2098.247385169754
 30
0.0
 11
957.1419460821307
 21
2097.381305662224
 31
0.0
  0
LINE
  5
D4E
330
1F
100
AcDbEntity
  8
DIM
 62
     0
100
AcDbLine
 10
957.1419460821307
 20
2097.381305662224
 30
0.0
 11
954.9355200084356
 21
2092.507518038205
 31
0.0
  0
LINE
  5
D4F
330
1F
100
AcDbEntity
  8
DIM
 62
     0
100
AcDbLine
 10
955.2288579276938
 20
2098.247385169754
 30
0.0
 11
953.6000139276438
 21
2094.64942200953
 31
0.0
  0
LINE
  5
D50
330
1F
100
AcDbEntity
  8
DIM
 62
     0
100
AcDbLine
 10
968.5718160228862
 20
2068.263643296416
 30
0.0
 11
967.4407559527827
 21
2066.097743569544
 31
0.0
  0
LINE
  5
D51
330
1F
100
AcDbEntity
  8
DIM
 62
     0
100
AcDbLine
 10
966.478499255245
 20
2096.060268612893
 30
0.0
 11
967.4407559527827
 21
2066.097743569544
 31
0.0
  0
ARC
  5
D52
330
1F
100
AcDbEntity
  8
DIM
 62
     0
100
AcDbCircle
 10
964.0797359727949
 20
2095.983231513015
 30
0.0
 40
2.4
100
AcDbArc
 50
1.839441251969636
 51
90.8811635037197
  0
ARC
  5
D53
330
1F
100
AcDbEntity
  8
DIM
 62
     0
100
AcDbCircle
 10
964.0797359727949
 20
2095.983231513015
 30
0.0
 40
3.6
100
AcDbArc
 50
1.839441251969636
 51
90.8811635037197
  0
LINE
  5
D54
330
1F
100
AcDbEntity
  8
DIM
 62
     0
100
AcDbLine
 10
967.67788089647
 20
2096.098787162831
 30
0.0
 11
968.6145544202044
 21
2066.533900525376
 31
0.0
  0
LINE
  5
D55
330
1F
100
AcDbEntity
  8
DIM
 62
     0
100
AcDbLine
 10
958.7033355334789
 20
2117.607798857682
 30
0.0
 11
958.7033355334789
 21
2100.623970845074
 31
0.0
  0
ARC
  5
D56
330
1F
100
AcDbEntity
  8
DIM
 62
     0
100
AcDbCircle
 10
955.7033355334787
 20
2117.607798857682
 30
0.0
 40
3.0
100
AcDbArc
 50
0.0
 51
90.0
  0
ARC
  5
D57
330
1F
100
AcDbEntity
  8
0
100
AcDbCircle
 10
506.2922754142091
 20
1543.137115006049
 30
0.0
 40
612.5632095510479
100
AcDbArc
 50
88.18531579444464
 51
91.81468420555537
  0
LINE
  5
D58
330
1F
100
AcDbEntity
  8
0
100
AcDbLine
 10
608.0922754142739
 20
2160.700324557161
 30
0.0
 11
485.09227541387
 21
2160.70032455717
 31
0.0
  0
ARC
  5
D59
330
1F
100
AcDbEntity
  8
0
100
AcDbCircle
 10
506.2922754142091
 20
2686.263534108141
 30
0.0
 40
612.5632095510439
100
AcDbArc
 50
268.1853157944447
 51
271.8146842055554
  0
LINE
  5
D5A
330
1F
100
AcDbEntity
  8
0
100
AcDbLine
 10
608.0922754142739
 20
2068.700324557029
 30
0.0
 11
485.09227541387
 21
2068.700324557029
 31
0.0
  0
ARC
  5
D5B
330
1F
100
AcDbEntity
  8
0
100
AcDbCircle
 10
487.4702253740543
 20
2091.998322452668
 30
0.0
 40
18.0
100
AcDbArc
 50
181.9075795295497
 51
268.1664140646422
  0
ARC
  5
D5C
330
1F
100
AcDbEntity
  8
0
100
AcDbCircle
 10
485.09227541387
 20
2089.700324557028
 30
0.0
 40
21.0
100
AcDbArc
 50
180.0
 51
270.0
  0
ARC
  5
D5D
330
1F
100
AcDbEntity
  8
0
100
AcDbCircle
 10
485.09227541387
 20
2139.700324557171
 30
0.0
 40
21.0
100
AcDbArc
 50
90.0
 51
180.0
  0
ARC
  5
D5E
330
1F
100
AcDbEntity
  8
0
100
AcDbCircle
 10
487.4702253740543
 20
2137.402326661528
 30
0.0
 40
18.0
100
AcDbArc
 50
91.83358593535782
 51
178.0924204704502
  0
ARC
  5
D5F
330
1F
100
AcDbEntity
  8
0
100
AcDbCircle
 10
1169.092275413848
 20
2114.700324557098
 30
0.0
 40
700.0
100
AcDbArc
 50
178.0924204704502
 51
181.9075795295497
  0
LINE
  5
D60
330
1F
100
AcDbEntity
  8
0
100
AcDbLine
 10
464.09227541387
 20
2089.700324557028
 30
0.0
 11
464.09227541387
 21
2139.700324557171
 31
0.0
  0
CIRCLE
  5
D61
330
1F
100
AcDbEntity
  8
0
100
AcDbCircle
 10
506.2922754142091
 20
2114.700324556847
 30
0.0
 40
9.200000000000001
  0
CIRCLE
  5
D62
330
1F
100
AcDbEntity
  8
0
100
AcDbCircle
 10
506.2922754142091
 20
2114.700324556847
 30
0.0
 40
11.599999999808
  0
ARC
  5
D63
330
1F
100
AcDbEntity
  8
0
100
AcDbCircle
 10
608.0922754142739
 20
2089.700324557028
 30
0.0
 40
21.0
100
AcDbArc
 50
270.0
 51
0.0
  0
ARC
  5
D64
330
1F
100
AcDbEntity
  8
0
100
AcDbCircle
 10
605.7143254545735
 20
2091.998322452668
 30
0.0
 40
18.0
100
AcDbArc
 50
271.8335859353578
 51
358.0924204704502
  0
ARC
  5
D65
330
1F
100
AcDbEntity
  8
0
100
AcDbCircle
 10
525.1143254543603
 20
2091.998322452668
 30
0.0
 40
18.0
100
AcDbArc
 50
271.8335859353578
 51
358.0924204704502
  0
ARC
  5
D66
330
1F
100
AcDbEntity
  8
0
100
AcDbCircle
 10
568.0702253742675
 20
2091.998322452668
 30
0.0
 40
18.0
100
AcDbArc
 50
181.9075795295497
 51
268.1664140646422
  0
CIRCLE
  5
D67
330
1F
100
AcDbEntity
  8
0
100
AcDbCircle
 10
586.8922754144186
 20
2114.700324556847
 30
0.0
 40
9.200000000000001
  0
CIRCLE
  5
D68
330
1F
100
AcDbEntity
  8
0
100
AcDbCircle
 10
586.8922754144186
 20
2114.700324556847
 30
0.0
 40
11.599999999808
  0
ARC
  5
D69
330
1F
100
AcDbEntity
  8
0
100
AcDbCircle
 10
586.8922754144186
 20
1543.137115006049
 30
0.0
 40
612.5632095510479
100
AcDbArc
 50
88.18531579444464
 51
91.81468420555537
  0
ARC
  5
D6A
330
1F
100
AcDbEntity
  8
0
100
AcDbCircle
 10
586.8922754144186
 20
2686.263534108141
 30
0.0
 40
612.5632095510439
100
AcDbArc
 50
268.1853157944447
 51
271.8146842055554
  0
ARC
  5
D6B
330
1F
100
AcDbEntity
  8
0
100
AcDbCircle
 10
568.0702253742675
 20
2137.402326661528
 30
0.0
 40
18.0
100
AcDbArc
 50
91.83358593535782
 51
178.0924204704502
  0
ARC
  5
D6C
330
1F
100
AcDbEntity
  8
0
100
AcDbCircle
 10
525.1143254543603
 20
2137.402326661528
 30
0.0
 40
18.0
100
AcDbArc
 50
1.907579529549771
 51
88.16641406464219
  0
ARC
  5
D6D
330
1F
100
AcDbEntity
  8
0
100
AcDbCircle
 10
1249.692275414061
 20
2114.700324557098
 30
0.0
 40
700.0
100
AcDbArc
 50
178.0924204704502
 51
181.9075795295497
  0
ARC
  5
D6E
330
1F
100
AcDbEntity
  8
0
100
AcDbCircle
 10
-156.5077245854336
 20
2114.700324557098
 30
0.0
 40
700.0
100
AcDbArc
 50
358.0924204704502
 51
1.907579529549771
  0
ARC
  5
D6F
330
1F
100
AcDbEntity
  8
0
100
AcDbCircle
 10
608.0922754142739
 20
2139.700324557161
 30
0.0
 40
21.0
100
AcDbArc
 50
0.0
 51
90.0
  0
ARC
  5
D70
330
1F
100
AcDbEntity
  8
0
100
AcDbCircle
 10
605.7143254545735
 20
2137.402326661528
 30
0.0
 40
18.0
100
AcDbArc
 50
1.907579529549771
 51
88.16641406464219
  0
ARC
  5
D71
330
1F
100
AcDbEntity
  8
0
100
AcDbCircle
 10
-75.90772458522042
 20
2114.700324557098
 30
0.0
 40
700.0
100
AcDbArc
 50
358.0924204704502
 51
1.907579529549771
  0
LINE
  5
D72
330
1F
100
AcDbEntity
  8
0
100
AcDbLine
 10
629.0922754142739
 20
2089.700324557028
 30
0.0
 11
629.0922754142739
 21
2139.700324557161
 31
0.0
  0
HATCH
  5
D73
330
1F
100
AcDbEntity
  8
0
  6
ByBlock
 62
     0
100
AcDbHatch
 10
0.0
 20
0.0
 30
0.0
210
0.0
220
0.0
230
1.0
  2
ANSI31
 70
     0
 71
     1
 91
        1
 92
        5
 93
        9
 72
     4
 94
        3
 73
     0
 74
     0
 95
       10
 96
        6
 40
168.1890314628042
 40
168.1890314628042
 40
168.1890314628042
 40
168.1890314628042
 40
240.3970488653276
 40
404.4385438063731
 40
531.2097876496541
 40
531.2097876496541
 40
531.2097876496541
 40
531.2097876496541
 10
868.8557716109389
 20
2120.607798857682
 10
869.815555341418
 20
2119.631029090386
 10
872.1741917956569
 20
2116.053382893544
 10
870.1821983095978
 20
2107.811990457996
 10
872.7250734268674
 20
2102.706391032203
 10
874.2296321221111
 20
2100.623970845074
 72
     1
 10
874.2296321221111
 20
2100.623970845074
 11
916.8259592620742
 21
2100.623970845074
 72
     1
 10
916.8259592620742
 20
2100.623970845074
 11
916.8259592620744
 21
2108.879430110641
 72
     1
 10
916.8259592620744
 20
2108.879430110641
 11
923.4259592620729
 21
2108.879430110641
 72
     1
 10
923.4259592620729
 20
2108.879430110641
 11
923.4259592620729
 21
2100.623970845075
 72
     1
 10
923.4259592620729
 20
2100.623970845075
 11
958.7033355334789
 21
2100.623970845075
 72
     1
 10
958.7033355334789
 20
2100.623970845075
 11
958.7033355334789
 21
2117.607798857682
 72
     2
 10
955.7033355334787
 20
2117.607798857682
 40
2.999999999999999
 50
0.0
 51
90.0
 73
     1
 72
     1
 10
955.7033355334787
 20
2120.607798857682
 11
868.8557716109393
 21
2120.607798857682
 97
        9
330
D4B
330
DAF
330
DB2
330
DAE
330
DF2
330
D75
330
D74
330
DB0
330
D4C
 75
     0
 76
     1
 52
0.0
 41
0.6000000000000001
 77
     0
 78
     1
 53
45.0
 43
532.9158591941014
 44
2079.987472437011
 45
-1.347038418160372
 46
1.347038418160373
 79
     0
 47
2.847268091439218
 98
        1
 10
890.9528070730376
 20
2112.496030002551
  0
LINE
  5
D74
102
{ACAD_REACTORS
330
D73
102
}
330
1F
100
AcDbEntity
  8
0
  6
ByBlock
 62
     0
100
AcDbLine
 10
923.4259592620729
 20
2100.623970845074
 30
0.0
 11
923.4259592620729
 21
2108.879430110641
 31
0.0
  0
LINE
  5
D75
102
{ACAD_REACTORS
330
D73
102
}
330
1F
100
AcDbEntity
  8
0
  6
ByBlock
 62
     0
100
AcDbLine
 10
916.8259592620742
 20
2108.879430110641
 30
0.0
 11
923.4259592620729
 21
2108.879430110641
 31
0.0
  0
HATCH
  5
D76
330
1F
100
AcDbEntity
  8
DESHED
  6
ByBlock
 62
     0
100
AcDbHatch
 10
0.0
 20
0.0
 30
0.0
210
0.0
220
0.0
230
1.0
  2
ANSI31
 70
     0
 71
     0
 91
        2
 92
        7
 72
     0
 73
     1
 93
       12
 10
918.7746155678505
 20
2106.961025096273
 10
918.3259592620743
 20
2107.280672685785
 10
918.7557957517201
 20
2107.619122561082
 10
918.3259592620743
 20
2107.957573018457
 10
918.7640745665522
 20
2108.279430110641
 10
917.4259592620728
 20
2108.279430110641
 10
917.4259592620728
 20
2105.622327447531
 10
918.7063798779927
 20
2105.622327447531
 10
918.8310761124013
 20
2105.701237606087
 10
918.3259592620743
 20
2106.020885195599
 10
918.8122562962671
 20
2106.26532131366
 10
918.3259592620743
 20
2106.678983242486
 97
        0
 92
        7
 72
     0
 73
     1
 93
       13
 10
922.8259592620743
 20
2108.279430110641
 10
921.4878439575914
 20
2108.279430110641
 10
921.9259592620728
 20
2107.957573018457
 10
921.4961227724234
 20
2107.619122561082
 10
921.8945574660102
 20
2107.290069608984
 10
921.9259592620728
 20
2107.280672685785
 10
921.477302956293
 20
2106.961025096273
 10
921.9259592620728
 20
2106.678983242486
 10
921.4396622278764
 20
2106.26532131366
 10
921.9259592620728
 20
2106.020885195599
 10
921.4208424117423
 20
2105.701237606087
 10
921.5455386461508
 20
2105.622327447531
 10
922.8259592620743
 20
2105.622327447531
 97
        0
 75
     0
 76
     1
 52
270.0
 41
0.06
 77
     0
 78
     1
 53
315.0
 43
532.9158591941014
 44
2079.987472437011
 45
0.1347038418160373
 46
0.1347038418160372
 79
     0
 47
0.4906110457808098
 98
        2
 10
918.0319569756175
 20
2106.748783696469
 10
922.4220901037769
 20
2106.424980604217
  0
HATCH
  5
D77
330
1F
100
AcDbEntity
  8
DESHED
  6
ByBlock
 62
     0
100
AcDbHatch
 10
0.0
 20
0.0
 30
0.0
210
0.0
220
0.0
230
1.0
  2
ANSI31
 70
     0
 71
     0
 91
        2
 92
        7
 72
     0
 73
     1
 93
        9
 10
923.4259592620729
 20
2108.879430110641
 10
921.3536693803616
 20
2108.879430110641
 10
921.3536693803616
 20
2108.279430110641
 10
922.8259592620743
 20
2108.279430110641
 10
922.8259592620743
 20
2100.023970845075
 10
922.8496968541403
 20
2100.023970845075
 10
924.0259592620715
 20
2100.023970845075
 10
924.0259592620715
 20
2100.623970845074
 10
923.4259592620729
 20
2100.623970845074
 97
        0
 92
        7
 72
     0
 73
     1
 93
        8
 10
918.8858799486297
 20
2108.879430110641
 10
916.8259592620742
 20
2108.879430110641
 10
916.8259592620742
 20
2100.623970845074
 10
916.2259592620721
 20
2100.623970845074
 10
916.2259592620721
 20
2100.023970845075
 10
917.4259592620728
 20
2100.023970845075
 10
917.4259592620728
 20
2108.279430110641
 10
918.8858799486297
 20
2108.279430110641
 97
        0
 75
     0
 76
     1
 52
0.0
 41
0.12
 77
     0
 78
     1
 53
45.0
 43
532.9158591941014
 44
2079.987472437011
 45
-0.2694076836320746
 46
0.2694076836320747
 79
     0
 47
0.9928036230062964
 98
        2
 10
922.5748823682733
 20
2108.579039095612
 10
917.2683915028429
 20
2108.459902699844
  0
LINE
  5
D78
330
1F
100
AcDbEntity
  8
DESHED
  6
ByBlock
 62
     0
100
AcDbLine
 10
918.3259592620743
 20
2100.948234895752
 30
0.0
 11
918.8979495456916
 21
2100.355138551424
 31
0.0
  0
LINE
  5
D79
330
1F
100
AcDbEntity
  8
DESHED
  6
ByBlock
 62
     0
100
AcDbLine
 10
918.8979495456916
 20
2100.355138551424
 30
0.0
 11
918.3259592620743
 21
2099.84199901809
 31
0.0
  0
LINE
  5
D7A
330
1F
100
AcDbEntity
  8
DESHED
  6
ByBlock
 62
     0
100
AcDbLine
 10
918.3259592620743
 20
2099.84199901809
 30
0.0
 11
918.8979495456916
 21
2099.29146257775
 31
0.0
  0
LINE
  5
D7B
330
1F
100
AcDbEntity
  8
DESHED
  6
ByBlock
 62
     0
100
AcDbLine
 10
918.8979495456916
 20
2099.29146257775
 30
0.0
 11
918.3259592620743
 21
2098.644008165154
 31
0.0
  0
LINE
  5
D7C
330
1F
100
AcDbEntity
  8
DESHED
  6
ByBlock
 62
     0
100
AcDbLine
 10
918.3259592620743
 20
2098.644008165154
 30
0.0
 11
918.8979495456916
 21
2098.042800171092
 31
0.0
  0
LINE
  5
D7D
330
1F
100
AcDbEntity
  8
DESHED
  6
ByBlock
 62
     0
100
AcDbLine
 10
918.8979495456916
 20
2098.042800171092
 30
0.0
 11
918.3259592620743
 21
2097.510961804825
 31
0.0
  0
LINE
  5
D7E
330
1F
100
AcDbEntity
  8
DESHED
  6
ByBlock
 62
     0
100
AcDbLine
 10
918.3259592620743
 20
2097.510961804825
 30
0.0
 11
918.8979495456916
 21
2096.979124197418
 31
0.0
  0
LINE
  5
D7F
330
1F
100
AcDbEntity
  8
DESHED
  6
ByBlock
 62
     0
100
AcDbLine
 10
918.8979495456916
 20
2096.979124197418
 30
0.0
 11
918.3259592620743
 21
2096.562902636341
 31
0.0
  0
LINE
  5
D80
330
1F
100
AcDbEntity
  8
DESHED
  6
ByBlock
 62
     0
100
AcDbLine
 10
921.353968978452
 20
2096.979124197418
 30
0.0
 11
921.9259592620728
 21
2096.562902636341
 31
0.0
  0
LINE
  5
D81
330
1F
100
AcDbEntity
  8
DESHED
  6
ByBlock
 62
     0
100
AcDbLine
 10
921.9259592620728
 20
2097.510961804825
 30
0.0
 11
921.353968978452
 21
2096.979124197418
 31
0.0
  0
LINE
  5
D82
330
1F
100
AcDbEntity
  8
DESHED
  6
ByBlock
 62
     0
100
AcDbLine
 10
921.353968978452
 20
2098.042800171092
 30
0.0
 11
921.9259592620728
 21
2097.510961804825
 31
0.0
  0
LINE
  5
D83
330
1F
100
AcDbEntity
  8
DESHED
  6
ByBlock
 62
     0
100
AcDbLine
 10
921.9259592620728
 20
2098.644008165154
 30
0.0
 11
921.353968978452
 21
2098.042800171092
 31
0.0
  0
LINE
  5
D84
330
1F
100
AcDbEntity
  8
DESHED
  6
ByBlock
 62
     0
100
AcDbLine
 10
921.353968978452
 20
2099.29146257775
 30
0.0
 11
921.9259592620728
 21
2098.644008165154
 31
0.0
  0
LINE
  5
D85
330
1F
100
AcDbEntity
  8
DESHED
  6
ByBlock
 62
     0
100
AcDbLine
 10
921.9259592620728
 20
2099.84199901809
 30
0.0
 11
921.353968978452
 21
2099.29146257775
 31
0.0
  0
LINE
  5
D86
330
1F
100
AcDbEntity
  8
DESHED
  6
ByBlock
 62
     0
100
AcDbLine
 10
918.7557957517201
 20
2107.619122561082
 30
0.0
 11
918.3259592620743
 21
2107.280672685785
 31
0.0
  0
LINE
  5
D87
330
1F
100
AcDbEntity
  8
DESHED
  6
ByBlock
 62
     0
100
AcDbLine
 10
921.496122772427
 20
2107.619122561082
 30
0.0
 11
921.8945574660137
 21
2107.290069608984
 31
0.0
  0
LINE
  5
D88
330
1F
100
AcDbEntity
  8
DESHED
  6
ByBlock
 62
     0
100
AcDbLine
 10
918.8858799486297
 20
2108.280756416796
 30
0.0
 11
918.8858799486297
 21
2108.879430110641
 31
0.0
  0
LINE
  5
D89
330
1F
100
AcDbEntity
  8
DESHED
  6
ByBlock
 62
     0
100
AcDbLine
 10
921.3536693803616
 20
2108.289843324155
 30
0.0
 11
921.3536693803616
 21
2108.879430110641
 31
0.0
  0
LINE
  5
D8A
330
1F
100
AcDbEntity
  8
DESHED
  6
ByBlock
 62
     0
100
AcDbLine
 10
917.4259592620728
 20
2100.023970845075
 30
0.0
 11
922.8496968541403
 21
2100.023970845075
 31
0.0
  0
LINE
  5
D8B
330
1F
100
AcDbEntity
  8
DESHED
  6
ByBlock
 62
     0
100
AcDbLine
 10
921.4878439575914
 20
2108.279430110641
 30
0.0
 11
921.9259592620728
 21
2107.957573018457
 31
0.0
  0
LINE
  5
D8C
330
1F
100
AcDbEntity
  8
DESHED
  6
ByBlock
 62
     0
100
AcDbLine
 10
918.7640745665557
 20
2108.279430110641
 30
0.0
 11
918.3259592620743
 21
2107.957573018457
 31
0.0
  0
LINE
  5
D8D
330
1F
100
AcDbEntity
  8
DESHED
  6
ByBlock
 62
     0
100
AcDbLine
 10
916.2259592620758
 20
2100.623970845074
 30
0.0
 11
916.8259592620742
 21
2100.623970845074
 31
0.0
  0
LINE
  5
D8E
330
1F
100
AcDbEntity
  8
DESHED
  6
ByBlock
 62
     0
100
AcDbLine
 10
923.4259592620729
 20
2100.623970845074
 30
0.0
 11
924.0259592620715
 21
2100.623970845074
 31
0.0
  0
LINE
  5
D8F
330
1F
100
AcDbEntity
  8
DESHED
 62
     0
100
AcDbLine
 10
923.4259592620729
 20
2100.653990099618
 30
0.0
 11
924.0259592620715
 21
2100.623970845074
 31
0.0
  0
LINE
  5
D90
330
1F
100
AcDbEntity
  8
DESHED
  6
ByBlock
 62
     0
100
AcDbLine
 10
919.06587994863
 20
2108.879430110641
 30
0.0
 11
923.4259592620729
 21
2108.879430110641
 31
0.0
  0
LINE
  5
D91
330
1F
100
AcDbEntity
  8
DESHED
  6
ByBlock
 62
     0
100
AcDbLine
 10
921.5455386461508
 20
2105.622327447531
 30
0.0
 11
922.8259592620743
 21
2105.622327447531
 31
0.0
  0
LINE
  5
D92
330
1F
100
AcDbEntity
  8
DESHED
  6
ByBlock
 62
     0
100
AcDbLine
 10
921.3536693803616
 20
2108.279430110641
 30
0.0
 11
922.8259592620743
 21
2108.279430110641
 31
0.0
  0
LINE
  5
D93
330
1F
100
AcDbEntity
  8
DESHED
  6
ByBlock
 62
     0
100
AcDbLine
 10
916.8259592620742
 20
2108.879430110641
 30
0.0
 11
919.06587994863
 21
2108.879430110641
 31
0.0
  0
LINE
  5
D94
330
1F
100
AcDbEntity
  8
DESHED
  6
ByBlock
 62
     0
370
     0
100
AcDbLine
 10
922.8259592620743
 20
2108.279430110641
 30
0.0
 11
922.8259592620743
 21
2100.023970845075
 31
0.0
  0
LINE
  5
D95
330
1F
100
AcDbEntity
  8
DESHED
  6
ByBlock
 62
     0
370
     0
100
AcDbLine
 10
917.4259592620728
 20
2100.023970845075
 30
0.0
 11
917.4259592620728
 21
2108.279430110641
 31
0.0
  0
LINE
  5
D96
330
1F
100
AcDbEntity
  8
DIM
 62
     0
100
AcDbLine
 10
922.5259592620714
 20
2095.601498771686
 30
0.0
 11
922.5259592620714
 21
2093.50051331965
 31
0.0
  0
LINE
  5
D97
330
1F
100
AcDbEntity
  8
DIM
 62
     0
100
AcDbLine
 10
917.7259592620757
 20
2095.748565786518
 30
0.0
 11
917.7259592620757
 21
2093.64758033448
 31
0.0
  0
LINE
  5
D98
330
1F
100
AcDbEntity
  8
DESHED
  6
ByBlock
 62
     0
100
AcDbLine
 10
922.8496968541403
 20
2100.023970845075
 30
0.0
 11
924.0259592620715
 21
2100.023970845075
 31
0.0
  0
LINE
  5
D99
330
1F
100
AcDbEntity
  8
DESHED
  6
ByBlock
 62
     0
100
AcDbLine
 10
916.2259592620758
 20
2100.023970845075
 30
0.0
 11
917.4022216700068
 21
2100.023970845075
 31
0.0
  0
LINE
  5
D9A
330
1F
100
AcDbEntity
  8
DESHED
  6
ByBlock
 62
     0
370
     0
100
AcDbLine
 10
916.2259592620758
 20
2100.023970845075
 30
0.0
 11
916.2259592620758
 21
2100.623970845074
 31
0.0
  0
LINE
  5
D9B
330
1F
100
AcDbEntity
  8
DESHED
  6
ByBlock
 62
     0
370
     0
100
AcDbLine
 10
924.0259592620715
 20
2100.623970845074
 30
0.0
 11
924.0259592620715
 21
2100.023970845075
 31
0.0
  0
LINE
  5
D9C
330
1F
100
AcDbEntity
  8
DIM
 62
     0
100
AcDbLine
 10
918.3259592620743
 20
2096.562902636341
 30
0.0
 11
918.3259592620743
 21
2092.771829681673
 31
0.0
  0
LINE
  5
D9D
330
1F
100
AcDbEntity
  8
DIM
 62
     0
100
AcDbLine
 10
921.9259592620728
 20
2096.562902636341
 30
0.0
 11
921.9259592620728
 21
2092.771829681673
 31
0.0
  0
LINE
  5
D9E
330
1F
100
AcDbEntity
  8
DESHED
  6
ByBlock
 62
     0
100
AcDbLine
 10
917.4259592620728
 20
2105.622327447531
 30
0.0
 11
918.7063798779963
 21
2105.622327447531
 31
0.0
  0
LINE
  5
D9F
330
1F
100
AcDbEntity
  8
DESHED
  6
ByBlock
 62
     0
100
AcDbLine
 10
917.4259592620728
 20
2108.279430110641
 30
0.0
 11
918.8858799486297
 21
2108.279430110641
 31
0.0
  0
LINE
  5
DA0
330
1F
100
AcDbEntity
  8
DIM
 62
     0
100
AcDbLine
 10
948.1078275391338
 20
2099.338002678855
 30
0.0
 11
948.1262818569121
 21
2098.138144588013
 31
0.0
  0
LINE
  5
DA1
330
1F
100
AcDbEntity
  8
DIM
 62
     0
100
AcDbLine
 10
948.8390994374313
 20
2100.623970845074
 30
0.0
 11
949.4082186813393
 21
2099.358003236883
 31
0.0
  0
LINE
  5
DA2
330
1F
100
AcDbEntity
  8
DIM
 62
     0
100
AcDbLine
 10
964.0428273372345
 20
2098.382947694696
 30
0.0
 11
948.1262818569121
 21
2098.138144588013
 31
0.0
  0
MTEXT
  5
DA3
102
{ACAD_REACTORS
330
DA4
102
}
330
1F
100
AcDbEntity
  8
DIM
 62
     0
100
AcDbMText
 10
891.8960007699096
 20
2076.185732812079
 30
0.0
 40
3.0
 41
37.45714285714285
 71
     9
 72
     1
  1
{\fBatang|b0|i0|c0|p18;SCREWS}
 73
     1
 44
1.0
  0
LEADER
  5
DA4
330
1F
100
AcDbEntity
  8
DIM
 62
     0
100
AcDbLeader
  3
B
 73
     0
 75
     1
 40
3.0
 41
17.0
 76
     3
 10
917.7109712563906
 20
2091.2998654064
 30
0.0
 10
905.6120007699096
 20
2077.685732812079
 30
0.0
 10
894.1820007699096
 20
2077.685732812079
 30
0.0
340
DA3
213
0.0
223
1.5
233
0.0
1001
ACAD
1000
DSTYLE
1002
{
1070
   147
1040
0.3
1070
    77
1070
     0
1002
}
  0
MTEXT
  5
DA5
102
{ACAD_REACTORS
330
DA6
102
}
330
1F
100
AcDbEntity
  8
DIM
 62
     0
100
AcDbMText
 10
879.7021413358306
 20
2083.506649715242
 30
0.0
 40
3.0
 41
48.17142857142857
 71
     9
 72
     1
  1
{\fBatang|b0|i0|c0|p18;FASTENER}
 73
     1
 44
1.0
  0
LEADER
  5
DA6
330
1F
100
AcDbEntity
  8
DIM
 62
     0
100
AcDbLeader
  3
B
 73
     0
 75
     1
 40
3.0
 41
21.71428571428572
 76
     3
 10
901.5659914357639
 20
2094.142704965308
 30
0.0
 10
893.4181413358306
 20
2085.006649715242
 30
0.0
 10
881.9881413358306
 20
2085.006649715242
 30
0.0
340
DA5
213
0.0
223
1.5
233
0.0
1001
ACAD
1000
DSTYLE
1002
{
1070
   147
1040
0.3
1070
    77
1070
     0
1002
}
  0
LINE
  5
DA7
330
1F
100
AcDbEntity
  8
DIM
 62
     0
370
     0
100
AcDbLine
 10
928.5259592620715
 20
2095.417665003148
 30
0.0
 11
928.5259592620715
 21
2093.316679551112
 31
0.0
  0
LINE
  5
DA8
330
1F
100
AcDbEntity
  8
DIM
 62
     0
100
AcDbLine
 10
911.7259592620758
 20
2095.932399555055
 30
0.0
 11
911.7259592620758
 21
2093.831414103019
 31
0.0
  0
LINE
  5
DA9
330
1F
100
AcDbEntity
  8
DIM
 62
     0
370
     0
100
AcDbLine
 10
922.5259592620714
 20
2093.50051331965
 30
0.0
 11
954.9355200084356
 21
2092.507518038205
 31
0.0
  0
LINE
  5
DAA
330
1F
100
AcDbEntity
  8
DIM
 62
     0
370
     0
100
AcDbLine
 10
953.6000139276438
 20
2094.64942200953
 30
0.0
 11
922.5259592620714
 21
2095.601498771686
 31
0.0
  0
LINE
  5
DAB
330
1F
100
AcDbEntity
  8
DIM
 62
     0
370
     0
100
AcDbLine
 10
948.1262818569121
 20
2098.138144588013
 30
0.0
 11
964.0428273372345
 21
2098.382947694696
 31
0.0
  0
LINE
  5
DAC
330
1F
100
AcDbEntity
  8
DIM
 62
     0
370
     0
100
AcDbLine
 10
964.0243730194598
 20
2099.582805785536
 30
0.0
 11
948.1078275391338
 21
2099.338002678855
 31
0.0
  0
LINE
  5
DAD
330
1F
100
AcDbEntity
  8
DESHED
  6
ByBlock
 62
     0
370
     0
100
AcDbLine
 10
916.8259592620742
 20
2100.623970845074
 30
0.0
 11
916.8259592620742
 21
2108.879430110641
 31
0.0
  0
LINE
  5
DAE
102
{ACAD_REACTORS
330
D73
102
}
330
1F
100
AcDbEntity
  8
DIM
 62
     0
370
     0
100
AcDbLine
 10
874.2296321221001
 20
2100.623970845074
 30
0.0
 11
916.8259592620742
 21
2100.623970845074
 31
0.0
  0
LINE
  5
DAF
102
{ACAD_REACTORS
330
D73
102
}
330
1F
100
AcDbEntity
  8
DIM
 62
     0
370
     0
100
AcDbLine
 10
955.7033355334787
 20
2120.607798857682
 30
0.0
 11
868.8557716109281
 21
2120.607798857682
 31
0.0
  0
LINE
  5
DB0
102
{ACAD_REACTORS
330
D73
102
}
330
1F
100
AcDbEntity
  8
DIM
 62
     0
370
     0
100
AcDbLine
 10
923.4259592620729
 20
2100.623970845074
 30
0.0
 11
958.7033355334789
 21
2100.623970845074
 31
0.0
  0
LINE
  5
DB1
330
1F
100
AcDbEntity
  8
DESHED
  6
ByBlock
 62
     0
370
     0
100
AcDbLine
 10
923.4259592620729
 20
2108.879430110641
 30
0.0
 11
923.4259592620729
 21
2100.623970845074
 31
0.0
  0
SPLINE
  5
DB2
102
{ACAD_REACTORS
330
D73
102
}
330
1F
100
AcDbEntity
  8
DIM
 62
     0
100
AcDbSpline
210
0.0
220
0.0
230
1.0
 70
     8
 71
     3
 72
    10
 73
     6
 74
     0
 42
0.0000000001
 43
0.0000000001
 40
168.1890314628042
 40
168.1890314628042
 40
168.1890314628042
 40
168.1890314628042
 40
240.3970488653276
 40
404.4385438063731
 40
531.2097876496541
 40
531.2097876496541
 40
531.2097876496541
 40
531.2097876496541
 10
868.8557716109389
 20
2120.607798857682
 30
0.0
 10
869.815555341418
 20
2119.631029090386
 30
0.0
 10
872.1741917956569
 20
2116.053382893544
 30
0.0
 10
870.1821983095978
 20
2107.811990457996
 30
0.0
 10
872.7250734268674
 20
2102.706391032203
 30
0.0
 10
874.2296321221111
 20
2100.623970845074
 30
0.0
  0
MTEXT
  5
DB3
102
{ACAD_REACTORS
330
DB4
102
}
330
1F
100
AcDbEntity
  8
DIM
 62
     0
100
AcDbMText
 10
870.9401605478232
 20
2132.737182781739
 30
0.0
 40
3.0
 41
0.0
 71
     9
 72
     1
  1
{\fBatang|b0|i0|c0|p18;COUNTERTOP}
 73
     1
 44
1.0
  0
LEADER
  5
DB4
330
1F
100
AcDbEntity
  8
DIM
 62
     0
100
AcDbLeader
  3
B
 73
     0
 75
     1
 40
50.0
 41
483.3333333333334
 76
     3
 10
890.5224783708181
 20
2120.607798857682
 30
0.0
 10
882.5501605478162
 20
2133.187182781738
 30
0.0
 10
871.1201605478164
 20
2133.187182781738
 30
0.0
213
0.0
223
0.4500000000000001
233
0.0
1001
ACAD
1000
DSTYLE
1002
{
1070
   147
1040
0.3
1070
    77
1070
     0
1002
}
  0
LINE
  5
DB5
330
1F
100
AcDbEntity
  8
DESHED
  6
ByBlock
 62
     0
100
AcDbLine
 10
918.3259592620743
 20
2107.957573018457
 30
0.0
 11
918.7557957517201
 21
2107.619122561082
 31
0.0
  0
LINE
  5
DB6
330
1F
100
AcDbEntity
  8
DESHED
  6
ByBlock
 62
     0
100
AcDbLine
 10
920.1259592620736
 20
2107.81931900159
 30
0.0
 11
918.3259592620743
 21
2107.280672685785
 31
0.0
  0
LINE
  5
DB7
330
1F
100
AcDbEntity
  8
DESHED
  6
ByBlock
 62
     0
100
AcDbLine
 10
918.3259592620743
 20
2107.280672685785
 30
0.0
 11
918.7746155678505
 21
2106.961025096273
 31
0.0
  0
LINE
  5
DB8
330
1F
100
AcDbEntity
  8
DESHED
  6
ByBlock
 62
     0
100
AcDbLine
 10
918.7746155678505
 20
2106.961025096273
 30
0.0
 11
918.3259592620743
 21
2106.678983242486
 31
0.0
  0
LINE
  5
DB9
330
1F
100
AcDbEntity
  8
DESHED
  6
ByBlock
 62
     0
100
AcDbLine
 10
918.3259592620743
 20
2106.678983242486
 30
0.0
 11
918.8122562962671
 21
2106.26532131366
 31
0.0
  0
LINE
  5
DBA
330
1F
100
AcDbEntity
  8
DESHED
  6
ByBlock
 62
     0
100
AcDbLine
 10
918.8122562962671
 20
2106.26532131366
 30
0.0
 11
918.3259592620743
 21
2106.020885195599
 31
0.0
  0
LINE
  5
DBB
330
1F
100
AcDbEntity
  8
DESHED
  6
ByBlock
 62
     0
100
AcDbLine
 10
918.3259592620743
 20
2106.020885195599
 30
0.0
 11
918.8310761124013
 21
2105.701237606087
 31
0.0
  0
LINE
  5
DBC
330
1F
100
AcDbEntity
  8
DESHED
  6
ByBlock
 62
     0
100
AcDbLine
 10
918.8310761124013
 20
2105.701237606087
 30
0.0
 11
918.3259592620743
 21
2105.381590016575
 31
0.0
  0
LINE
  5
DBD
330
1F
100
AcDbEntity
  8
DESHED
  6
ByBlock
 62
     0
100
AcDbLine
 10
918.3259592620743
 20
2105.381590016575
 30
0.0
 11
918.8498959285352
 21
2104.986731537689
 31
0.0
  0
LINE
  5
DBE
330
1F
100
AcDbEntity
  8
DESHED
  6
ByBlock
 62
     0
100
AcDbLine
 10
918.8498959285352
 20
2104.986731537689
 30
0.0
 11
918.3259592620743
 21
2104.648281080315
 31
0.0
  0
LINE
  5
DBF
330
1F
100
AcDbEntity
  8
DESHED
  6
ByBlock
 62
     0
100
AcDbLine
 10
918.3259592620743
 20
2104.648281080315
 30
0.0
 11
918.8310761124013
 21
2104.215816865704
 31
0.0
  0
LINE
  5
DC0
330
1F
100
AcDbEntity
  8
DESHED
  6
ByBlock
 62
     0
100
AcDbLine
 10
918.8310761124013
 20
2104.215816865704
 30
0.0
 11
918.3259592620743
 21
2103.914972144053
 31
0.0
  0
LINE
  5
DC1
330
1F
100
AcDbEntity
  8
DESHED
  6
ByBlock
 62
     0
100
AcDbLine
 10
918.3259592620743
 20
2103.914972144053
 30
0.0
 11
918.8122562962671
 21
2103.407297040071
 31
0.0
  0
LINE
  5
DC2
330
1F
100
AcDbEntity
  8
DESHED
  6
ByBlock
 62
     0
100
AcDbLine
 10
918.8122562962671
 20
2103.407297040071
 30
0.0
 11
918.3259592620743
 21
2103.031240846969
 31
0.0
  0
LINE
  5
DC3
330
1F
100
AcDbEntity
  8
DESHED
  6
ByBlock
 62
     0
100
AcDbLine
 10
918.3259592620743
 20
2103.031240846969
 30
0.0
 11
918.821116484618
 21
2102.391150549303
 31
0.0
  0
LINE
  5
DC4
330
1F
100
AcDbEntity
  8
DESHED
  6
ByBlock
 62
     0
100
AcDbLine
 10
918.821116484618
 20
2102.391150549303
 30
0.0
 11
918.3259592620743
 21
2101.958275969654
 31
0.0
  0
LINE
  5
DC5
330
1F
100
AcDbEntity
  8
DESHED
  6
ByBlock
 62
     0
100
AcDbLine
 10
918.3259592620743
 20
2101.958275969654
 30
0.0
 11
918.8979495456916
 21
2101.303986867277
 31
0.0
  0
LINE
  5
DC6
330
1F
100
AcDbEntity
  8
DESHED
  6
ByBlock
 62
     0
100
AcDbLine
 10
918.8979495456916
 20
2101.303986867277
 30
0.0
 11
918.3259592620743
 21
2100.948234895752
 31
0.0
  0
LINE
  5
DC7
330
1F
100
AcDbEntity
  8
DESHED
  6
ByBlock
 62
     0
100
AcDbLine
 10
921.353968978452
 20
2100.355138551424
 30
0.0
 11
921.9259592620728
 21
2099.84199901809
 31
0.0
  0
LINE
  5
DC8
330
1F
100
AcDbEntity
  8
DESHED
  6
ByBlock
 62
     0
100
AcDbLine
 10
921.9259592620728
 20
2100.948234895752
 30
0.0
 11
921.353968978452
 21
2100.355138551424
 31
0.0
  0
LINE
  5
DC9
330
1F
100
AcDbEntity
  8
DESHED
  6
ByBlock
 62
     0
100
AcDbLine
 10
921.353968978452
 20
2101.303986867277
 30
0.0
 11
921.9259592620728
 21
2100.948234895752
 31
0.0
  0
LINE
  5
DCA
330
1F
100
AcDbEntity
  8
DESHED
  6
ByBlock
 62
     0
100
AcDbLine
 10
921.9259592620728
 20
2101.958275969654
 30
0.0
 11
921.353968978452
 21
2101.303986867277
 31
0.0
  0
LINE
  5
DCB
330
1F
100
AcDbEntity
  8
DESHED
  6
ByBlock
 62
     0
100
AcDbLine
 10
921.4308020395256
 20
2102.391150549303
 30
0.0
 11
921.9259592620728
 21
2101.958275969654
 31
0.0
  0
LINE
  5
DCC
330
1F
100
AcDbEntity
  8
DESHED
  6
ByBlock
 62
     0
100
AcDbLine
 10
921.9259592620728
 20
2103.031240846969
 30
0.0
 11
921.4308020395256
 21
2102.391150549303
 31
0.0
  0
LINE
  5
DCD
330
1F
100
AcDbEntity
  8
DESHED
  6
ByBlock
 62
     0
100
AcDbLine
 10
921.4396622278764
 20
2103.407297040071
 30
0.0
 11
921.9259592620728
 21
2103.031240846969
 31
0.0
  0
LINE
  5
DCE
330
1F
100
AcDbEntity
  8
DESHED
  6
ByBlock
 62
     0
100
AcDbLine
 10
921.9259592620728
 20
2103.914972144053
 30
0.0
 11
921.4396622278764
 21
2103.407297040071
 31
0.0
  0
LINE
  5
DCF
330
1F
100
AcDbEntity
  8
DESHED
  6
ByBlock
 62
     0
100
AcDbLine
 10
921.420842411746
 20
2104.215816865704
 30
0.0
 11
921.9259592620728
 21
2103.914972144053
 31
0.0
  0
LINE
  5
DD0
330
1F
100
AcDbEntity
  8
DESHED
  6
ByBlock
 62
     0
100
AcDbLine
 10
921.9259592620728
 20
2104.648281080315
 30
0.0
 11
921.420842411746
 21
2104.215816865704
 31
0.0
  0
LINE
  5
DD1
330
1F
100
AcDbEntity
  8
DESHED
  6
ByBlock
 62
     0
100
AcDbLine
 10
921.4020225956119
 20
2104.986731537689
 30
0.0
 11
921.9259592620728
 21
2104.648281080315
 31
0.0
  0
LINE
  5
DD2
330
1F
100
AcDbEntity
  8
DESHED
  6
ByBlock
 62
     0
100
AcDbLine
 10
921.9259592620728
 20
2105.381590016575
 30
0.0
 11
921.4020225956119
 21
2104.986731537689
 31
0.0
  0
LINE
  5
DD3
330
1F
100
AcDbEntity
  8
DESHED
  6
ByBlock
 62
     0
100
AcDbLine
 10
921.420842411746
 20
2105.701237606087
 30
0.0
 11
921.9259592620728
 21
2105.381590016575
 31
0.0
  0
LINE
  5
DD4
330
1F
100
AcDbEntity
  8
DESHED
  6
ByBlock
 62
     0
100
AcDbLine
 10
921.9259592620728
 20
2106.020885195599
 30
0.0
 11
921.420842411746
 21
2105.701237606087
 31
0.0
  0
LINE
  5
DD5
330
1F
100
AcDbEntity
  8
DESHED
  6
ByBlock
 62
     0
100
AcDbLine
 10
921.4396622278764
 20
2106.26532131366
 30
0.0
 11
921.9259592620728
 21
2106.020885195599
 31
0.0
  0
LINE
  5
DD6
330
1F
100
AcDbEntity
  8
DESHED
  6
ByBlock
 62
     0
100
AcDbLine
 10
921.9259592620728
 20
2106.678983242486
 30
0.0
 11
921.4396622278764
 21
2106.26532131366
 31
0.0
  0
LINE
  5
DD7
330
1F
100
AcDbEntity
  8
DESHED
  6
ByBlock
 62
     0
100
AcDbLine
 10
921.477302956293
 20
2106.961025096273
 30
0.0
 11
921.9259592620728
 21
2106.678983242486
 31
0.0
  0
LINE
  5
DD8
330
1F
100
AcDbEntity
  8
DESHED
  6
ByBlock
 62
     0
100
AcDbLine
 10
921.9259592620728
 20
2107.280672685785
 30
0.0
 11
921.477302956293
 21
2106.961025096273
 31
0.0
  0
LINE
  5
DD9
330
1F
100
AcDbEntity
  8
DESHED
  6
ByBlock
 62
     0
100
AcDbLine
 10
920.1259592620736
 20
2107.81931900159
 30
0.0
 11
921.9259592620728
 21
2107.280672685785
 31
0.0
  0
LINE
  5
DDA
330
1F
100
AcDbEntity
  8
DESHED
  6
ByBlock
 62
     0
100
AcDbLine
 10
921.9259592620728
 20
2107.957573018457
 30
0.0
 11
921.496122772427
 21
2107.619122561082
 31
0.0
  0
LINE
  5
DDB
330
1F
100
AcDbEntity
  8
DIM
 62
     0
100
AcDbLine
 10
918.3259592620743
 20
2093.371829681673
 30
0.0
 11
913.5259592620714
 21
2093.371829681673
 31
0.0
  0
LINE
  5
DDC
330
1F
100
AcDbEntity
  8
DIM
 62
     0
100
AcDbLine
 10
916.8259592620742
 20
2100.623970845074
 30
0.0
 11
874.2296321221001
 21
2100.623970845074
 31
0.0
  0
LINE
  5
DDD
330
1F
100
AcDbEntity
  8
DIM
 62
     0
100
AcDbLine
 10
918.3259592620743
 20
2095.730182409663
 30
0.0
 11
889.0080559110792
 21
2096.628452519439
 31
0.0
  0
LINE
  5
DDE
330
1F
100
AcDbEntity
  8
DIM
 62
     0
100
AcDbLine
 10
918.3259592620743
 20
2093.629196957627
 30
0.0
 11
887.9135631971948
 21
2094.561001187441
 31
0.0
  0
LINE
  5
DDF
330
1F
100
AcDbEntity
  8
DIM
 62
     0
100
AcDbLine
 10
922.2259592620757
 20
2093.371829681673
 30
0.0
 11
922.2259592620757
 21
2092.771829681673
 31
0.0
  0
LINE
  5
DE0
330
1F
100
AcDbEntity
  8
DIM
 62
     0
100
AcDbLine
 10
918.0259592620714
 20
2093.371829681673
 30
0.0
 11
918.0259592620714
 21
2092.771829681673
 31
0.0
  0
ARC
  5
DE1
330
1F
100
AcDbEntity
  8
DIM
 62
     0
100
AcDbCircle
 10
920.1259592620736
 20
2094.45704520901
 30
0.0
 40
3.974915266213253
100
AcDbArc
 50
279.9111678270088
 51
334.9149811222869
  0
LINE
  5
DE2
330
1F
100
AcDbEntity
  8
DIM
 62
     0
100
AcDbLine
 10
920.1259592620736
 20
2091.203256741778
 30
0.0
 11
920.8101260896219
 21
2090.541452389823
 31
0.0
  0
LINE
  5
DE3
330
1F
100
AcDbEntity
  8
DIM
 62
     0
100
AcDbLine
 10
920.1259592620736
 20
2091.203256741778
 30
0.0
 11
919.4417924345252
 21
2090.541452389823
 31
0.0
  0
LINE
  5
DE4
330
1F
100
AcDbEntity
  8
DIM
 62
     0
100
AcDbLine
 10
926.7259592620758
 20
2092.771829681673
 30
0.0
 11
913.5259592620714
 21
2092.771829681673
 31
0.0
  0
LINE
  5
DE5
330
1F
100
AcDbEntity
  8
DIM
 62
     0
100
AcDbLine
 10
926.7259592620758
 20
2093.371829681673
 30
0.0
 11
921.9259592620728
 21
2093.371829681673
 31
0.0
  0
ARC
  5
DE6
330
1F
100
AcDbEntity
  8
DIM
 62
     0
100
AcDbCircle
 10
920.1259592620736
 20
2094.45704520901
 30
0.0
 40
3.974915266213253
100
AcDbArc
 50
205.0850188777131
 51
260.0888321729912
  0
LINE
  5
DE7
330
1F
100
AcDbEntity
  8
DIM
 62
     0
100
AcDbLine
 10
913.5259592620714
 20
2093.371829681673
 30
0.0
 11
913.5259592620714
 21
2092.771829681673
 31
0.0
  0
LINE
  5
DE8
330
1F
100
AcDbEntity
  8
DIM
 62
     0
100
AcDbLine
 10
926.7259592620758
 20
2093.371829681673
 30
0.0
 11
926.7259592620758
 21
2092.771829681673
 31
0.0
  0
LINE
  5
DE9
330
1F
100
AcDbEntity
  8
DIM
 62
     0
100
AcDbLine
 10
884.9776234168384
 20
2099.615086406924
 30
0.0
 11
886.8194030427622
 21
2100.623970845074
 31
0.0
  0
LINE
  5
DEA
330
1F
100
AcDbEntity
  8
DIM
 62
     0
100
AcDbLine
 10
887.7432768671242
 20
2094.566218583739
 30
0.0
 11
884.9776234168384
 21
2099.615086406924
 31
0.0
  0
LINE
  5
DEB
330
1F
100
AcDbEntity
  8
DIM
 62
     0
100
AcDbLine
 10
954.9355200084356
 20
2092.507518038205
 30
0.0
 11
921.9259592620728
 21
2093.518896696503
 31
0.0
  0
LINE
  5
DEC
330
1F
100
AcDbEntity
  8
DIM
 62
     0
100
AcDbLine
 10
889.0080559110792
 20
2096.628452519439
 30
0.0
 11
886.8194030427622
 21
2100.623970845074
 31
0.0
  0
LINE
  5
DED
330
1F
100
AcDbEntity
  8
DIM
 62
     0
100
AcDbLine
 10
953.6000139276438
 20
2094.64942200953
 30
0.0
 11
921.9259592620728
 21
2095.619882148541
 31
0.0
  0
LINE
  5
DEE
330
1F
100
AcDbEntity
  8
DIM
 62
     0
100
AcDbLine
 10
964.0243730194598
 20
2099.582805785536
 30
0.0
 11
948.1078275391338
 21
2099.338002678855
 31
0.0
  0
LINE
  5
DEF
330
1F
100
AcDbEntity
  8
DIM
 62
     0
100
AcDbLine
 10
945.0625861360022
 20
2100.623970845074
 30
0.0
 11
959.6406793054883
 21
2100.623970845074
 31
0.0
  0
LINE
  5
DF0
330
1F
100
AcDbEntity
  8
DIM
 62
     0
100
AcDbLine
 10
958.7033355334789
 20
2100.623970845074
 30
0.0
 11
923.4259592620729
 21
2100.623970845074
 31
0.0
  0
LINE
  5
DF1
330
1F
100
AcDbEntity
  8
DIM
 62
     0
100
AcDbLine
 10
868.8557716109281
 20
2120.607798857682
 30
0.0
 11
955.7033355334787
 21
2120.607798857682
 31
0.0
  0
LINE
  5
DF2
102
{ACAD_REACTORS
330
D73
102
}
330
1F
100
AcDbEntity
  8
DIM
  6
ByBlock
 62
     0
100
AcDbLine
 10
916.8259592620742
 20
2108.879430110641
 30
0.0
 11
916.8259592620742
 21
2100.623970845074
 31
0.0
  0
LINE
  5
DF3
330
1F
100
AcDbEntity
  8
DIM
 62
     0
100
AcDbLine
 10
920.1259592620736
 20
2112.623970845074
 30
0.0
 11
920.1259592620736
 21
2089.815771800659
 31
0.0
  0
SPLINE
  5
DF4
330
1F
100
AcDbEntity
  8
DIM
 62
     0
100
AcDbSpline
210
0.0
220
0.0
230
1.0
 70
     8
 71
     3
 72
    10
 73
     6
 74
     0
 42
0.0000000001
 43
0.0000000001
 40
168.1890314628042
 40
168.1890314628042
 40
168.1890314628042
 40
168.1890314628042
 40
240.3970488653276
 40
404.4385438063731
 40
531.2097876496541
 40
531.2097876496541
 40
531.2097876496541
 40
531.2097876496541
 10
868.8557716109389
 20
2120.607798857682
 30
0.0
 10
869.815555341418
 20
2119.631029090386
 30
0.0
 10
872.1741917956569
 20
2116.053382893544
 30
0.0
 10
870.1821983095978
 20
2107.811990457996
 30
0.0
 10
872.7250734268674
 20
2102.706391032203
 30
0.0
 10
874.2296321221111
 20
2100.623970845074
 30
0.0
  0
LWPOLYLINE
  5
DF5
330
1F
100
AcDbEntity
  8
0
 62
     0
100
AcDbPolyline
 90
        2
 70
     0
 43
0.8128
 10
923.6509113406283
 20
1866.059804162156
 10
930.8351162374856
 20
1858.8755992653
  0
MTEXT
  5
DF6
330
1F
100
AcDbEntity
  8
0
 62
     0
100
AcDbMText
 10
784.7583029399575
 20
1872.73630179815
 30
0.0
 40
6.0
 41
315.6503843244575
 71
     1
 72
     5
  1
{\fBatang|b0|i0|c0|p18;\H0.9259x;Use this line for FLUSH MOUNT CUT\H1.08x;}
 73
     1
 44
1.0
  0
LWPOLYLINE
  5
DF7
330
1F
100
AcDbEntity
  8
0
 62
     0
100
AcDbPolyline
 90
        2
 70
     0
 10
930.7880382881267
 20
1858.922677214659
 40
3.0084784128
 41
0.5014130687999999
 10
936.1063270049854
 20
1853.604388497801
 40
0.5014130687999999
 41
0.5014130687999999
  0
MTEXT
  5
DF8
330
1F
100
AcDbEntity
  8
0
 62
     0
100
AcDbMText
 10
467.7181250734393
 20
1933.922188399421
 30
0.0
 40
6.0
 41
315.6503843244575
 71
     1
 72
     5
  1
{\fBatang|b0|i0|c0|p18;Please check actual template against physical sink unit for most accurate cut!}
 73
     1
 44
1.0
  0
MTEXT
  5
DF9
330
1F
100
AcDbEntity
  8
0
 62
     0
100
AcDbMText
 10
467.7181250734393
 20
1958.26427144367
 30
0.0
 40
6.0
 41
315.6503843244575
 71
     1
 72
     5
  1
{\fBatang|b1|i0|c0|p18;Use inside line for flush mount cut:\fBatang|b0|i0|c0|p18;\PSink wall is flush to the edge of countertop opening.}
 73
     1
 44
1.0
  0
MTEXT
  5
DFA
330
1F
100
AcDbEntity
  8
0
 62
     0
100
AcDbMText
 10
467.7181250734393
 20
1986.532496679294
 30
0.0
 40
6.0
 41
315.6503843244575
 71
     1
 72
     5
  1
{\fBatang|b1|i0|c0|p18;Use outside line for reveal mount cut:\fBatang|b0|i0|c0|p18;\PSink rim is 1/4" revealed from the coutnertop opening.}
 73
     1
 44
1.0
  0
DIMENSION
  5
DFB
330
1F
100
AcDbEntity
  8
0
 62
     1
100
AcDbDimension
  2
*D47
 10
262.9939844850305
 20
2259.898927171673
 30
0.0
 11
247.9939844850301
 21
2053.398927171831
 31
0.0
 70
    32
 71
     5
 42
412.9999999996835
  3
Standard
100
AcDbAlignedDimension
 13
262.9939844850305
 23
1846.898927171989
 33
0.0
 14
262.9939844850305
 24
2259.898927171673
 34
0.0
 50
90.0
100
AcDbRotatedDimension
1001
ACAD
1000
DSTYLE
1002
{
1070
    40
1040
8.0
1070
    41
1040
2.5
1070
    42
1040
0.625
1070
    43
1040
3.75
1070
    44
1040
1.25
1070
    73
1070
     0
1070
    74
1070
     0
1070
    77
1070
     1
1070
    78
1070
     8
1070
   140
1040
2.5
1070
   141
1040
2.5
1070
   143
1040
0.0394
1070
   147
1040
0.625
1070
   171
1070
     4
1070
   172
1070
     1
1070
   271
1070
     1
1070
   272
1070
     1
1070
   273
1070
     8
1070
   274
1070
     4
1002
}
  0
DIMENSION
  5
DFC
330
1F
100
AcDbEntity
  8
0
 62
     1
100
AcDbDimension
  2
*D48
 10
1106.20212922346
 20
1776.237214667839
 30
0.0
 11
718.7021292224962
 21
1791.237214667839
 31
0.0
 70
    32
 71
     5
 42
775.0000000019281
  3
Standard
100
AcDbAlignedDimension
 13
331.2021292215322
 23
1776.237214667839
 33
0.0
 14
1106.20212922346
 24
1776.237214667839
 34
0.0
100
AcDbRotatedDimension
1001
ACAD
1000
DSTYLE
1002
{
1070
    40
1040
8.0
1070
    41
1040
2.5
1070
    42
1040
0.625
1070
    43
1040
3.75
1070
    44
1040
1.25
1070
    73
1070
     0
1070
    74
1070
     0
1070
    77
1070
     1
1070
    78
1070
     8
1070
   140
1040
2.5
1070
   141
1040
2.5
1070
   143
1040
0.0394
1070
   147
1040
0.625
1070
   171
1070
     4
1070
   172
1070
     1
1070
   271
1070
     1
1070
   272
1070
     1
1070
   273
1070
     8
1070
   274
1070
     4
1002
}
  0
ARC
  5
DFD
330
1F
100
AcDbEntity
  8
DESHED
100
AcDbCircle
 10
517.202129222027
 20
-4940.601072828332
 30
0.0
 40
7200.499999999999
100
AcDbArc
 50
90.0
 51
90.79173508861764
  0
LINE
  5
DFE
330
1F
100
AcDbEntity
  8
DESHED
100
AcDbLine
 10
920.2021292229838
 20
1846.898927171984
 30
0.0
 11
517.2021292220233
 21
1846.898927171995
 31
0.0
  0
ARC
  5
DFF
330
1F
100
AcDbEntity
  8
DESHED
100
AcDbCircle
 10
517.202129222027
 20
9047.398927171993
 30
0.0
 40
7200.499999999999
100
AcDbArc
 50
269.2082649113824
 51
270.0
  0
DIMENSION
  5
E00
330
1F
100
AcDbEntity
  8
DIM
100
AcDbDimension
  2
*D49
 10
418.9081821649433
 20
1934.578069736319
 30
0.0
 11
387.9607109588425
 21
1917.312327066301
 31
0.0
 70
   164
 71
     5
 42
86.99999999999795
  3
B
100
AcDbRadialDimension
 15
342.9323936065868
 25
1892.190812772279
 35
0.0
 40
0.0
1001
ACAD
1000
DSTYLE
1002
{
1070
    41
1040
2.0
1070
    42
1040
0.0
1070
    44
1040
0.4
1070
    78
1070
     8
1070
   140
1040
2.0
1070
   141
1040
0.0
1070
   147
1040
0.1
1070
   175
1070
     1
1070
   176
1070
   256
1070
   177
1070
   256
1070
   179
1070
     1
1070
   271
1070
     2
1070
   272
1070
     2
1070
   289
1070
     3
1070
   371
1070
    -3
1070
   372
1070
    -3
1002
}
  0
ARC
  5
E01
330
1F
100
AcDbEntity
  8
DESHED
100
AcDbCircle
 10
418.9081821649487
 20
1934.578069736321
 30
0.0
 40
87.0
100
AcDbArc
 50
180.683791082868
 51
269.2082649113824
  0
ARC
  5
E02
330
1F
100
AcDbEntity
  8
DESHED
100
AcDbCircle
 10
10416.66798749538
 20
2053.398927171837
 30
0.0
 40
10085.46585827385
100
AcDbArc
 50
179.3190613280311
 51
180.6809386719689
  0
DIMENSION
  5
E03
330
1F
100
AcDbEntity
  8
DIM
100
AcDbDimension
  2
*D50
 10
418.9081821649489
 20
2172.219784607341
 30
0.0
 11
408.8948460656241
 21
2183.83202863135
 31
0.0
 70
   164
 71
     5
 42
87.00000000000114
  3
B
100
AcDbRadialDimension
 15
362.0933838622624
 25
2238.106647439208
 35
0.0
 40
0.0
1001
ACAD
1000
DSTYLE
1002
{
1070
    41
1040
2.0
1070
    42
1040
0.0
1070
    44
1040
0.4
1070
    78
1070
     8
1070
   140
1040
2.0
1070
   141
1040
0.0
1070
   147
1040
0.1
1070
   175
1070
     1
1070
   176
1070
   256
1070
   177
1070
   256
1070
   179
1070
     1
1070
   271
1070
     2
1070
   272
1070
     2
1070
   289
1070
     3
1070
   371
1070
    -3
1070
   372
1070
    -3
1002
}
  0
ARC
  5
E04
330
1F
100
AcDbEntity
  8
DESHED
100
AcDbCircle
 10
418.9081821649487
 20
2172.21978460734
 30
0.0
 40
87.0
100
AcDbArc
 50
90.79173508861764
 51
179.3162089171319
  0
LINE
  5
E05
330
1F
100
AcDbEntity
  8
DESHED
100
AcDbLine
 10
517.202129222027
 20
2259.898927171665
 30
0.0
 11
920.2021292227836
 21
2259.898927171676
 31
0.0
  0
ARC
  5
E06
330
1F
100
AcDbEntity
  8
DESHED
100
AcDbCircle
 10
920.2021292229874
 20
-4940.601072828322
 30
0.0
 40
7200.499999999999
100
AcDbArc
 50
89.20826491138234
 51
90.0
  0
DIMENSION
  5
E07
330
1F
100
AcDbEntity
  8
DIM
100
AcDbDimension
  2
*D51
 10
1018.49607628004
 20
2172.219784607351
 30
0.0
 11
1042.943679846509
 21
2197.874540966676
 31
0.0
 70
   164
 71
     5
 42
86.99999999999773
  3
B
100
AcDbRadialDimension
 15
1078.514742973508
 25
2235.20200152878
 35
0.0
 40
0.0
1001
ACAD
1000
DSTYLE
1002
{
1070
    41
1040
2.0
1070
    42
1040
0.0
1070
    44
1040
0.4
1070
    78
1070
     8
1070
   140
1040
2.0
1070
   141
1040
0.0
1070
   147
1040
0.1
1070
   175
1070
     1
1070
   176
1070
   256
1070
   177
1070
   256
1070
   179
1070
     1
1070
   271
1070
     2
1070
   272
1070
     2
1070
   289
1070
     3
1070
   371
1070
    -3
1070
   372
1070
    -3
1002
}
  0
ARC
  5
E08
330
1F
100
AcDbEntity
  8
DESHED
100
AcDbCircle
 10
1018.49607628004
 20
2172.219784607351
 30
0.0
 40
87.0
100
AcDbArc
 50
0.6837910828680361
 51
89.20826491138234
  0
ARC
  5
E09
330
1F
100
AcDbEntity
  8
DESHED
100
AcDbCircle
 10
-8979.263729050577
 20
2053.39892717183
 30
0.0
 40
10085.46585827404
100
AcDbArc
 50
359.3190613280311
 51
0.6809386719688915
  0
DIMENSION
  5
E0A
330
1F
100
AcDbEntity
  8
DIM
100
AcDbDimension
  2
*D52
 10
1018.496076280043
 20
1934.578069736308
 30
0.0
 11
1042.287097536234
 21
1908.313280538845
 31
0.0
 70
   164
 71
     5
 42
87.00000000000068
  3
B
100
AcDbRadialDimension
 15
1076.902838774791
 25
1870.098227189336
 35
0.0
 40
0.0
1001
ACAD
1000
DSTYLE
1002
{
1070
    41
1040
2.0
1070
    42
1040
0.0
1070
    44
1040
0.4
1070
    78
1070
     8
1070
   140
1040
2.0
1070
   141
1040
0.0
1070
   147
1040
0.1
1070
   175
1070
     1
1070
   176
1070
   256
1070
   177
1070
   256
1070
   179
1070
     1
1070
   271
1070
     2
1070
   272
1070
     2
1070
   289
1070
     3
1070
   371
1070
    -3
1070
   372
1070
    -3
1002
}
  0
ARC
  5
E0B
330
1F
100
AcDbEntity
  8
DESHED
100
AcDbCircle
 10
920.2021292229874
 20
9047.398927171981
 30
0.0
 40
7200.499999999999
100
AcDbArc
 50
270.0
 51
270.7917350886177
  0
ARC
  5
E0C
330
1F
100
AcDbEntity
  8
DESHED
100
AcDbCircle
 10
1018.49607628004
 20
1934.57806973631
 30
0.0
 40
87.0
100
AcDbArc
 50
270.7917350886177
 51
359.316208917132
  0
DIMENSION
  5
E0D
330
1F
100
AcDbEntity
  8
DIM
100
AcDbDimension
  2
*D53
 10
10332.70212922151
 20
2053.898927171829
 30
0.0
 11
406.9715324635114
 21
2093.098078255559
 31
0.0
 70
   164
 71
     5
 42
10001.49999999998
  3
B
100
AcDbRadialDimension
 15
331.2801227233868
 25
2093.397002246818
 35
0.0
 40
0.0
1001
ACAD
1000
DSTYLE
1002
{
1070
    41
1040
2.0
1070
    42
1040
0.0
1070
    44
1040
0.4
1070
    78
1070
     8
1070
   140
1040
2.0
1070
   141
1040
0.0
1070
   147
1040
0.1
1070
   175
1070
     1
1070
   176
1070
   256
1070
   177
1070
   256
1070
   179
1070
     1
1070
   271
1070
     2
1070
   272
1070
     2
1070
   289
1070
     3
1070
   371
1070
    -3
1070
   372
1070
    -3
1002
}
  0
DIMENSION
  5
E0E
330
1F
100
AcDbEntity
  8
DIM
100
AcDbDimension
  2
*D54
 10
-8895.297870776541
 20
2053.89892717184
 30
0.0
 11
1030.485185659487
 21
2076.151329996571
 31
0.0
 70
   164
 71
     5
 42
10001.5
  3
B
100
AcDbRadialDimension
 15
1106.176995445426
 25
2076.321021861919
 35
0.0
 40
0.0
1001
ACAD
1000
DSTYLE
1002
{
1070
    41
1040
2.0
1070
    42
1040
0.0
1070
    44
1040
0.4
1070
    78
1070
     8
1070
   140
1040
2.0
1070
   141
1040
0.0
1070
   147
1040
0.1
1070
   175
1070
     1
1070
   176
1070
   256
1070
   177
1070
   256
1070
   179
1070
     1
1070
   271
1070
     2
1070
   272
1070
     2
1070
   289
1070
     3
1070
   371
1070
    -3
1070
   372
1070
    -3
1002
}
  0
DIMENSION
  5
E0F
330
1F
100
AcDbEntity
  8
DIM
100
AcDbDimension
  2
*D55
 10
920.2021292229765
 20
9047.398927171961
 30
0.0
 11
956.9771926831119
 21
1921.415819081458
 31
0.0
 70
   164
 71
     5
 42
7200.499999999978
  3
B
100
AcDbRadialDimension
 15
957.3612572096063
 25
1846.994810095826
 35
0.0
 40
0.0
1001
ACAD
1000
DSTYLE
1002
{
1070
    41
1040
2.0
1070
    42
1040
0.0
1070
    44
1040
0.4
1070
    78
1070
     8
1070
   140
1040
2.0
1070
   141
1040
0.0
1070
   147
1040
0.1
1070
   175
1070
     1
1070
   176
1070
   256
1070
   177
1070
   256
1070
   179
1070
     1
1070
   271
1070
     2
1070
   272
1070
     2
1070
   289
1070
     3
1070
   371
1070
    -3
1070
   372
1070
    -3
1002
}
  0
DIMENSION
  5
E10
330
1F
100
AcDbEntity
  8
DIM
100
AcDbDimension
  2
*D56
 10
920.2021292229893
 20
-4940.601072828311
 30
0.0
 11
970.526840502063
 21
2185.299227170173
 31
0.0
 70
   164
 71
     5
 42
7200.499999999995
  3
B
100
AcDbRadialDimension
 15
971.0524123050674
 25
2259.719371340156
 35
0.0
 40
0.0
1001
ACAD
1000
DSTYLE
1002
{
1070
    41
1040
2.0
1070
    42
1040
0.0
1070
    44
1040
0.4
1070
    78
1070
     8
1070
   140
1040
2.0
1070
   141
1040
0.0
1070
   147
1040
0.1
1070
   175
1070
     1
1070
   176
1070
   256
1070
   177
1070
   256
1070
   179
1070
     1
1070
   271
1070
     2
1070
   272
1070
     2
1070
   289
1070
     3
1070
   371
1070
    -3
1070
   372
1070
    -3
1002
}
  0
DIMENSION
  5
E11
330
1F
100
AcDbEntity
  8
DIM
100
AcDbDimension
  2
*D57
 10
517.2021292220141
 20
-4940.601072828306
 30
0.0
 11
476.4830616680146
 21
2185.360589966483
 31
0.0
 70
   164
 71
     5
 42
7200.499999999971
  3
B
100
AcDbRadialDimension
 15
476.0578074895582
 25
2259.78137498575
 35
0.0
 40
0.0
1001
ACAD
1000
DSTYLE
1002
{
1070
    41
1040
2.0
1070
    42
1040
0.0
1070
    44
1040
0.4
1070
    78
1070
     8
1070
   140
1040
2.0
1070
   141
1040
0.0
1070
   147
1040
0.1
1070
   175
1070
     1
1070
   176
1070
   256
1070
   177
1070
   256
1070
   179
1070
     1
1070
   271
1070
     2
1070
   272
1070
     2
1070
   289
1070
     3
1070
   371
1070
    -3
1070
   372
1070
    -3
1002
}
  0
DIMENSION
  5
E12
330
1F
100
AcDbEntity
  8
DIM
100
AcDbDimension
  2
*D58
 10
517.2021292220287
 20
9047.398927171981
 30
0.0
 11
455.8594953684091
 21
1921.584956588995
 31
0.0
 70
   164
 71
     5
 42
7200.499999999988
  3
B
100
AcDbRadialDimension
 15
455.2188566472704
 25
1847.165714010012
 35
0.0
 40
0.0
1001
ACAD
1000
DSTYLE
1002
{
1070
    41
1040
2.0
1070
    42
1040
0.0
1070
    44
1040
0.4
1070
    78
1070
     8
1070
   140
1040
2.0
1070
   141
1040
0.0
1070
   147
1040
0.1
1070
   175
1070
     1
1070
   176
1070
   256
1070
   177
1070
   256
1070
   179
1070
     1
1070
   271
1070
     2
1070
   272
1070
     2
1070
   289
1070
     3
1070
   371
1070
    -3
1070
   372
1070
    -3
1002
}
  0
MTEXT
  5
1266
330
1F
100
AcDbEntity
  8
0
100
AcDbMText
 10
357.9645766409376
 20
2352.882610592635
 30
0.0
 40
40.0
 41
1197.27456798742
 71
     1
 72
     5
  1
KK-T502A
 73
     1
 44
1.0
  0
ENDSEC
  0
SECTION
  2
OBJECTS
  0
DICTIONARY
  5
C
330
0
100
AcDbDictionary
281
     1
  3
ACAD_COLOR
350
73
  3
ACAD_GROUP
350
D
  3
ACAD_LAYOUT
350
1A
  3
ACAD_MATERIAL
350
72
  3
ACAD_MLINESTYLE
350
17
  3
ACAD_PLOTSETTINGS
350
19
  3
ACAD_PLOTSTYLENAME
350
E
  3
AcDbVariableDictionary
350
66
  0
DICTIONARY
  5
F2
330
2
100
AcDbDictionary
280
     1
281
     1
  3
ACAD_LAYERSTATES
360
F3
  0
DICTIONARY
  5
73
102
{ACAD_REACTORS
330
C
102
}
330
C
100
AcDbDictionary
281
     1
  0
DICTIONARY
  5
D
102
{ACAD_REACTORS
330
C
102
}
330
C
100
AcDbDictionary
281
     1
  0
DICTIONARY
  5
1A
102
{ACAD_REACTORS
330
C
102
}
330
C
100
AcDbDictionary
281
     1
  3
Model
350
22
  3
布局1
350
59
  3
布局2
350
5E
  0
DICTIONARY
  5
72
102
{ACAD_REACTORS
330
C
102
}
330
C
100
AcDbDictionary
281
     1
  0
DICTIONARY
  5
17
102
{ACAD_REACTORS
330
C
102
}
330
C
100
AcDbDictionary
281
     1
  3
Standard
350
18
  0
DICTIONARY
  5
19
102
{ACAD_REACTORS
330
C
102
}
330
C
100
AcDbDictionary
281
     1
  0
ACDBDICTIONARYWDFLT
  5
E
102
{ACAD_REACTORS
330
C
102
}
330
C
100
AcDbDictionary
281
     1
  3
Normal
350
F
100
AcDbDictionaryWithDefault
340
F
  0
DICTIONARY
  5
66
102
{ACAD_REACTORS
330
C
102
}
330
C
100
AcDbDictionary
281
     1
  3
DIMASSOC
350
67
  3
HIDETEXT
350
6B
  0
DICTIONARY
  5
F3
102
{ACAD_REACTORS
330
F2
102
}
330
F2
100
AcDbDictionary
281
     1
  0
LAYOUT
  5
22
102
{ACAD_REACTORS
330
1A
102
}
330
1A
100
AcDbPlotSettings
  1

  2
none_device
  4
ANSI_A_(8.50_x_11.00_Inches)
  6

 40
6.349999904632568
 41
19.04999923706055
 42
6.350006103515625
 43
19.04998779296875
 44
215.8999938964844
 45
279.3999938964844
 46
0.0
 47
0.0
 48
0.0
 49
0.0
140
0.0
141
0.0
142
1.0
143
2.584895464708373
 70
 11952
 72
     0
 73
     1
 74
     0
  7

 75
     0
147
0.3868628397755418
 76
     0
 77
     2
 78
   300
148
0.0
149
0.0
100
AcDbLayout
  1
Model
 70
     1
 71
     0
 10
0.0
 20
0.0
 11
12.0
 21
9.0
 12
0.0
 22
0.0
 32
0.0
 14
0.0
 24
0.0
 34
0.0
 15
0.0
 25
0.0
 35
0.0
146
0.0
 13
0.0
 23
0.0
 33
0.0
 16
1.0
 26
0.0
 36
0.0
 17
0.0
 27
1.0
 37
0.0
 76
     0
330
1F
  0
LAYOUT
  5
59
102
{ACAD_REACTORS
330
1A
102
}
330
1A
100
AcDbPlotSettings
  1

  2
None
  4

  6

 40
0.0
 41
0.0
 42
0.0
 43
0.0
 44
0.0
 45
0.0
 46
0.0
 47
0.0
 48
0.0
 49
0.0
140
0.0
141
0.0
142
1.0
143
1.0
 70
   688
 72
     0
 73
     0
 74
     5
  7

 75
    16
147
1.0
 76
     0
 77
     2
 78
   300
148
0.0
149
0.0
100
AcDbLayout
  1
布局1
 70
     1
 71
     1
 10
0.0
 20
0.0
 11
12.0
 21
9.0
 12
0.0
 22
0.0
 32
0.0
 14
0.0
 24
0.0
 34
0.0
 15
0.0
 25
0.0
 35
0.0
146
0.0
 13
0.0
 23
0.0
 33
0.0
 16
1.0
 26
0.0
 36
0.0
 17
0.0
 27
1.0
 37
0.0
 76
     0
330
58
  0
LAYOUT
  5
5E
102
{ACAD_REACTORS
330
1A
102
}
330
1A
100
AcDbPlotSettings
  1

  2
None
  4

  6

 40
0.0
 41
0.0
 42
0.0
 43
0.0
 44
0.0
 45
0.0
 46
0.0
 47
0.0
 48
0.0
 49
0.0
140
0.0
141
0.0
142
1.0
143
1.0
 70
   688
 72
     0
 73
     0
 74
     5
  7

 75
    16
147
1.0
 76
     0
 77
     2
 78
   300
148
0.0
149
0.0
100
AcDbLayout
  1
布局2
 70
     1
 71
     2
 10
0.0
 20
0.0
 11
12.0
 21
9.0
 12
0.0
 22
0.0
 32
0.0
 14
0.0
 24
0.0
 34
0.0
 15
0.0
 25
0.0
 35
0.0
146
0.0
 13
0.0
 23
0.0
 33
0.0
 16
1.0
 26
0.0
 36
0.0
 17
0.0
 27
1.0
 37
0.0
 76
     0
330
5D
  0
MLINESTYLE
  5
18
102
{ACAD_REACTORS
330
17
102
}
330
17
100
AcDbMlineStyle
  2
STANDARD
 70
     0
  3

 62
   256
 51
90.0
 52
90.0
 71
     2
 49
0.5
 62
   256
  6
BYLAYER
 49
-0.5
 62
   256
  6
BYLAYER
  0
ACDBPLACEHOLDER
  5
F
102
{ACAD_REACTORS
330
E
102
}
330
E
  0
DICTIONARYVAR
  5
67
102
{ACAD_REACTORS
330
66
102
}
330
66
100
DictionaryVariables
280
     0
  1
2
  0
DICTIONARYVAR
  5
6B
102
{ACAD_REACTORS
330
66
102
}
330
66
100
DictionaryVariables
280
     0
  1
1
  0
ENDSEC
  0
EOF
