  0
SECTION
  2
HEADER
  9
$ACADVER
  1
AC1018
  9
$ACADMAINTVER
 70
     0
  9
$DWGCODEPAGE
  3
ANSI_936
  9
$INSBASE
 10
0.0
 20
0.0
 30
0.0
  9
$EXTMIN
 10
8489.316251843886
 20
692.1779249827682
 30
-0.1397720809402661
  9
$EXTMAX
 10
10197.3257052083
 20
1347.909368684871
 30
33.2221105335446
  9
$LIMMIN
 10
0.0
 20
0.0
  9
$LIMMAX
 10
420.0
 20
297.0
  9
$ORTHOMODE
 70
     0
  9
$REGENMODE
 70
     1
  9
$FILLMODE
 70
     1
  9
$QTEXTMODE
 70
     0
  9
$MIRRTEXT
 70
     1
  9
$LTSCALE
 40
25.4
  9
$ATTMODE
 70
     1
  9
$TEXTSIZE
 40
2.5
  9
$TRACEWID
 40
1.0
  9
$TEXTSTYLE
  7
STANDARD
  9
$CLAYER
  8
0
  9
$CELTYPE
  6
BYLAYER
  9
$CECOLOR
 62
   256
  9
$CELTSCALE
 40
1.0
  9
$DISPSILH
 70
     0
  9
$DIMSCALE
 40
7.62
  9
$DIMASZ
 40
1.5
  9
$DIMEXO
 40
0.3125
  9
$DIMDLI
 40
0.7
  9
$DIMRND
 40
0.0
  9
$DIMDLE
 40
0.0
  9
$DIMEXE
 40
1.0
  9
$DIMTP
 40
0.0
  9
$DIMTM
 40
2.0
  9
$DIMTXT
 40
2.0
  9
$DIMCEN
 40
0.045
  9
$DIMTSZ
 40
0.0
  9
$DIMTOL
 70
     1
  9
$DIMLIM
 70
     0
  9
$DIMTIH
 70
     0
  9
$DIMTOH
 70
     0
  9
$DIMSE1
 70
     0
  9
$DIMSE2
 70
     0
  9
$DIMTAD
 70
     1
  9
$DIMZIN
 70
     0
  9
$DIMBLK
  1

  9
$DIMASO
 70
     1
  9
$DIMSHO
 70
     1
  9
$DIMPOST
  1

  9
$DIMAPOST
  1
"
  9
$DIMALT
 70
     1
  9
$DIMALTD
 70
     2
  9
$DIMALTF
 40
0.03937
  9
$DIMLFAC
 40
1.0
  9
$DIMTOFL
 70
     0
  9
$DIMTVP
 40
0.0
  9
$DIMTIX
 70
     0
  9
$DIMSOXD
 70
     0
  9
$DIMSAH
 70
     0
  9
$DIMBLK1
  1

  9
$DIMBLK2
  1

  9
$DIMSTYLE
  2
B1
  9
$DIMCLRD
 70
     0
  9
$DIMCLRE
 70
     0
  9
$DIMCLRT
 70
     0
  9
$DIMTFAC
 40
0.7
  9
$DIMGAP
 40
0.3
  9
$DIMJUST
 70
     0
  9
$DIMSD1
 70
     0
  9
$DIMSD2
 70
     0
  9
$DIMTOLJ
 70
     1
  9
$DIMTZIN
 70
     8
  9
$DIMALTZ
 70
     0
  9
$DIMALTTZ
 70
     8
  9
$DIMUPT
 70
     0
  9
$DIMDEC
 70
     1
  9
$DIMTDEC
 70
     1
  9
$DIMALTU
 70
     5
  9
$DIMALTTD
 70
     2
  9
$DIMTXSTY
  7
STANDARD
  9
$DIMAUNIT
 70
     0
  9
$DIMADEC
 70
     0
  9
$DIMALTRND
 40
0.0
  9
$DIMAZIN
 70
     0
  9
$DIMDSEP
 70
    46
  9
$DIMATFIT
 70
     3
  9
$DIMFRAC
 70
     0
  9
$DIMLDRBLK
  1

  9
$DIMLUNIT
 70
     2
  9
$DIMLWD
 70
    -2
  9
$DIMLWE
 70
    -2
  9
$DIMTMOVE
 70
     1
  9
$LUNITS
 70
     2
  9
$LUPREC
 70
     4
  9
$SKETCHINC
 40
1.0
  9
$FILLETRAD
 40
80.0
  9
$AUNITS
 70
     0
  9
$AUPREC
 70
     0
  9
$MENU
  1
.
  9
$ELEVATION
 40
0.0
  9
$PELEVATION
 40
0.0
  9
$THICKNESS
 40
0.0
  9
$LIMCHECK
 70
     0
  9
$CHAMFERA
 40
60.0
  9
$CHAMFERB
 40
60.0
  9
$CHAMFERC
 40
20.0
  9
$CHAMFERD
 40
0.0
  9
$SKPOLY
 70
     0
  9
$TDCREATE
 40
2452017.718715278
  9
$TDUCREATE
 40
2452017.385381945
  9
$TDUPDATE
 40
2456993.405310509
  9
$TDUUPDATE
 40
2456993.071977176
  9
$TDINDWG
 40
0.5625473958
  9
$TDUSRTIMER
 40
0.5625473958
  9
$USRTIMER
 70
     1
  9
$ANGBASE
 50
0.0
  9
$ANGDIR
 70
     0
  9
$PDMODE
 70
     0
  9
$PDSIZE
 40
0.0
  9
$PLINEWID
 40
0.0
  9
$SPLFRAME
 70
     0
  9
$SPLINETYPE
 70
     6
  9
$SPLINESEGS
 70
     8
  9
$HANDSEED
  5
4E7B
  9
$SURFTAB1
 70
     6
  9
$SURFTAB2
 70
     6
  9
$SURFTYPE
 70
     6
  9
$SURFU
 70
     6
  9
$SURFV
 70
     6
  9
$UCSBASE
  2

  9
$UCSNAME
  2

  9
$UCSORG
 10
0.0
 20
0.0
 30
0.0
  9
$UCSXDIR
 10
1.0
 20
0.0
 30
0.0
  9
$UCSYDIR
 10
0.0
 20
1.0
 30
0.0
  9
$UCSORTHOREF
  2

  9
$UCSORTHOVIEW
 70
     1
  9
$UCSORGTOP
 10
0.0
 20
0.0
 30
0.0
  9
$UCSORGBOTTOM
 10
0.0
 20
0.0
 30
0.0
  9
$UCSORGLEFT
 10
0.0
 20
0.0
 30
0.0
  9
$UCSORGRIGHT
 10
0.0
 20
0.0
 30
0.0
  9
$UCSORGFRONT
 10
0.0
 20
0.0
 30
0.0
  9
$UCSORGBACK
 10
0.0
 20
0.0
 30
0.0
  9
$PUCSBASE
  2

  9
$PUCSNAME
  2

  9
$PUCSORG
 10
0.0
 20
0.0
 30
0.0
  9
$PUCSXDIR
 10
1.0
 20
0.0
 30
0.0
  9
$PUCSYDIR
 10
0.0
 20
1.0
 30
0.0
  9
$PUCSORTHOREF
  2

  9
$PUCSORTHOVIEW
 70
     0
  9
$PUCSORGTOP
 10
0.0
 20
0.0
 30
0.0
  9
$PUCSORGBOTTOM
 10
0.0
 20
0.0
 30
0.0
  9
$PUCSORGLEFT
 10
0.0
 20
0.0
 30
0.0
  9
$PUCSORGRIGHT
 10
0.0
 20
0.0
 30
0.0
  9
$PUCSORGFRONT
 10
0.0
 20
0.0
 30
0.0
  9
$PUCSORGBACK
 10
0.0
 20
0.0
 30
0.0
  9
$USERI1
 70
     0
  9
$USERI2
 70
     0
  9
$USERI3
 70
     0
  9
$USERI4
 70
     0
  9
$USERI5
 70
     0
  9
$USERR1
 40
0.0
  9
$USERR2
 40
0.0
  9
$USERR3
 40
0.0
  9
$USERR4
 40
0.0
  9
$USERR5
 40
0.0
  9
$WORLDVIEW
 70
     1
  9
$SHADEDGE
 70
     3
  9
$SHADEDIF
 70
    70
  9
$TILEMODE
 70
     1
  9
$MAXACTVP
 70
    48
  9
$PINSBASE
 10
0.0
 20
0.0
 30
0.0
  9
$PLIMCHECK
 70
     0
  9
$PEXTMIN
 10
1.000000000000000E+20
 20
1.000000000000000E+20
 30
1.000000000000000E+20
  9
$PEXTMAX
 10
-1.000000000000000E+20
 20
-1.000000000000000E+20
 30
-1.000000000000000E+20
  9
$PLIMMIN
 10
0.0
 20
0.0
  9
$PLIMMAX
 10
420.0
 20
297.0
  9
$UNITMODE
 70
     0
  9
$VISRETAIN
 70
     1
  9
$PLINEGEN
 70
     0
  9
$PSLTSCALE
 70
     1
  9
$TREEDEPTH
 70
  3020
  9
$CMLSTYLE
  2
STANDARD
  9
$CMLJUST
 70
     0
  9
$CMLSCALE
 40
20.0
  9
$PROXYGRAPHICS
 70
     1
  9
$MEASUREMENT
 70
     1
  9
$CELWEIGHT
370
    -1
  9
$ENDCAPS
280
     0
  9
$JOINSTYLE
280
     0
  9
$LWDISPLAY
290
     0
  9
$INSUNITS
 70
     0
  9
$HYPERLINKBASE
  1

  9
$STYLESHEET
  1

  9
$XEDIT
290
     1
  9
$CEPSNTYPE
380
     0
  9
$PSTYLEMODE
290
     1
  9
$FINGERPRINTGUID
  2
{6B09A065-B01D-4A2D-AB81-90A96371A885}
  9
$VERSIONGUID
  2
{DC976090-420A-4CF5-BEC3-BFFBAAE11DFD}
  9
$EXTNAMES
290
     1
  9
$PSVPSCALE
 40
0.0
  9
$OLESTARTUP
290
     0
  9
$SORTENTS
280
   127
  9
$INDEXCTL
280
     0
  9
$HIDETEXT
280
     0
  9
$XCLIPFRAME
290
     0
  9
$HALOGAP
280
     0
  9
$OBSCOLOR
 70
   257
  9
$OBSLTYPE
280
     0
  9
$INTERSECTIONDISPLAY
280
     0
  9
$INTERSECTIONCOLOR
 70
   257
  9
$DIMASSOC
280
     1
  9
$PROJECTNAME
  1

  0
ENDSEC
  0
SECTION
  2
CLASSES
  0
CLASS
  1
ACDBDICTIONARYWDFLT
  2
AcDbDictionaryWithDefault
  3
ObjectDBX Classes
 90
        0
 91
        1
280
     0
281
     0
  0
ENDSEC
  0
SECTION
  2
TABLES
  0
TABLE
  2
VPORT
  5
8
330
0
100
AcDbSymbolTable
 70
     2
  0
VPORT
  5
4E7A
330
8
100
AcDbSymbolTableRecord
100
AcDbViewportTableRecord
  2
*Active
 70
     0
 10
0.0
 20
0.0
 11
1.0
 21
1.0
 12
2069.267252271445
 22
42.8239164578805
 13
0.0
 23
0.0
 14
10.0
 24
10.0
 15
10.0
 25
10.0
 16
0.0
 26
0.0
 36
1.0
 17
7159.134377461754
 27
921.0187546437435
 37
27.81352473408637
 40
820.3928566234942
 41
2.47011952191235
 42
50.0
 43
0.0
 44
0.0
 50
0.0
 51
0.0
 71
     0
 72
   100
 73
     1
 74
     1
 75
     0
 76
     0
 77
     0
 78
     0
281
     0
 65
     1
110
0.0
120
0.0
130
0.0
111
1.0
121
0.0
131
0.0
112
0.0
122
1.0
132
0.0
 79
     1
146
0.0
  0
ENDTAB
  0
TABLE
  2
LTYPE
  5
5
330
0
100
AcDbSymbolTable
 70
     4
  0
LTYPE
  5
12
330
5
100
AcDbSymbolTableRecord
100
AcDbLinetypeTableRecord
  2
BYBLOCK
 70
     0
  3

 72
    65
 73
     0
 40
0.0
  0
LTYPE
  5
13
330
5
100
AcDbSymbolTableRecord
100
AcDbLinetypeTableRecord
  2
BYLAYER
 70
     0
  3

 72
    65
 73
     0
 40
0.0
  0
LTYPE
  5
14
330
5
100
AcDbSymbolTableRecord
100
AcDbLinetypeTableRecord
  2
CONTINUOUS
 70
     0
  3
Solid line
 72
    65
 73
     0
 40
0.0
  0
LTYPE
  5
54F
330
5
100
AcDbSymbolTableRecord
100
AcDbLinetypeTableRecord
  2
CENTER2
 70
     0
  3
___ _ ___ _ ___ _ ___ _ ___ _ ___ _ ___ _ ___ _
 72
    65
 73
     4
 40
1.125
 49
0.75
 74
     0
 49
-0.125
 74
     0
 49
0.125
 74
     0
 49
-0.125
 74
     0
  0
LTYPE
  5
550
330
5
100
AcDbSymbolTableRecord
100
AcDbLinetypeTableRecord
  2
DASHED2
 70
     0
  3
_ _ _ _ _ _ _ _ _ _ _ _ _ _ _ _ _ _ _ _ _ _ _ _
 72
    65
 73
     2
 40
0.375
 49
0.25
 74
     0
 49
-0.125
 74
     0
  0
LTYPE
  5
77F
330
5
100
AcDbSymbolTableRecord
100
AcDbLinetypeTableRecord
  2
PHANTOM2
 70
     0
  3
___ _ _ ___ _ _ ___ _ _ ___ _ _ ___ _ _ ___ _ _
 72
    65
 73
     6
 40
1.25
 49
0.625
 74
     0
 49
-0.125
 74
     0
 49
0.125
 74
     0
 49
-0.125
 74
     0
 49
0.125
 74
     0
 49
-0.125
 74
     0
  0
ENDTAB
  0
TABLE
  2
LAYER
  5
2
102
{ACAD_XDICTIONARY
360
4A34
102
}
330
0
100
AcDbSymbolTable
 70
     8
  0
LAYER
  5
E
330
2
100
AcDbSymbolTableRecord
100
AcDbLayerTableRecord
  2
0
 70
     0
 62
     5
  6
CONTINUOUS
370
    -3
390
2641
  0
LAYER
  5
551
330
2
100
AcDbSymbolTableRecord
100
AcDbLayerTableRecord
  2
BOM
 70
     0
 62
   126
  6
CONTINUOUS
370
    -3
390
2641
  0
LAYER
  5
552
330
2
100
AcDbSymbolTableRecord
100
AcDbLayerTableRecord
  2
DEFPOINTS
 70
     0
 62
     5
  6
CONTINUOUS
290
     0
370
    -3
390
2641
  0
LAYER
  5
553
330
2
100
AcDbSymbolTableRecord
100
AcDbLayerTableRecord
  2
DESHED
 70
     0
 62
   190
  6
DASHED2
370
    -3
390
2641
  0
LAYER
  5
554
330
2
100
AcDbSymbolTableRecord
100
AcDbLayerTableRecord
  2
CENTER
 70
     0
 62
     1
  6
CENTER2
370
    -3
390
2641
  0
LAYER
  5
555
330
2
100
AcDbSymbolTableRecord
100
AcDbLayerTableRecord
  2
DIM
 70
     0
 62
     1
  6
CONTINUOUS
370
    -3
390
2641
  0
LAYER
  5
556
330
2
100
AcDbSymbolTableRecord
100
AcDbLayerTableRecord
  2
HATCH
 70
     0
 62
     3
  6
CONTINUOUS
370
    -3
390
2641
  0
LAYER
  5
557
330
2
100
AcDbSymbolTableRecord
100
AcDbLayerTableRecord
  2
DRAW
 70
     0
 62
     5
  6
CONTINUOUS
370
    -3
390
2641
  0
ENDTAB
  0
TABLE
  2
STYLE
  5
3
330
0
100
AcDbSymbolTable
 70
     6
  0
STYLE
  5
F
330
3
100
AcDbSymbolTableRecord
100
AcDbTextStyleTableRecord
  2
STANDARD
 70
     0
 40
0.0
 41
1.0
 50
0.0
 71
     0
 42
2.5
  3
txt
  4

  0
STYLE
  5
20
330
3
100
AcDbSymbolTableRecord
100
AcDbTextStyleTableRecord
  2
ROMANS
 70
     0
 40
0.0
 41
1.0
 50
0.0
 71
     0
 42
0.12
  3
romans
  4

  0
STYLE
  5
21
330
3
100
AcDbSymbolTableRecord
100
AcDbTextStyleTableRecord
  2
SANSSERIFBOLDOBLIQUE
 70
     0
 40
0.0
 41
1.0
 50
0.0
 71
     0
 42
0.2
  3
sasbo___.pfb
  4

  0
STYLE
  5
558
330
3
100
AcDbSymbolTableRecord
100
AcDbTextStyleTableRecord
  2
A
 70
     0
 40
11.0
 41
0.7
 50
0.0
 71
     0
 42
0.2
  3

  4

1001
ACAD
1000
FangSong_GB2312
1071
    34353
  0
STYLE
  5
28AA
330
3
100
AcDbSymbolTableRecord
100
AcDbTextStyleTableRecord
  2
ROMANTICITALIC
 70
     0
 40
0.0
 41
1.0
 50
0.0
 71
     0
 42
0.2
  3
romi____.pfb
  4

  0
STYLE
  5
4A33
330
3
100
AcDbSymbolTableRecord
100
AcDbTextStyleTableRecord
  2

 70
     1
 40
0.0
 41
1.0
 50
0.0
 71
     0
 42
2.5
  3
ltypeshp.shx
  4

  0
ENDTAB
  0
TABLE
  2
VIEW
  5
6
330
0
100
AcDbSymbolTable
 70
     0
  0
ENDTAB
  0
TABLE
  2
UCS
  5
7
330
0
100
AcDbSymbolTable
 70
     0
  0
ENDTAB
  0
TABLE
  2
APPID
  5
9
330
0
100
AcDbSymbolTable
 70
     1
  0
APPID
  5
10
330
9
100
AcDbSymbolTableRecord
100
AcDbRegAppTableRecord
  2
ACAD
 70
     0
  0
ENDTAB
  0
TABLE
  2
DIMSTYLE
  5
A
330
0
100
AcDbSymbolTable
 70
    33
100
AcDbDimStyleTable
 71
     5
340
1D
340
376F
340
22
340
55E
340
3708
  0
DIMSTYLE
105
1D
102
{ACAD_REACTORS
330
4D4C
330
4D66
330
4D7C
330
4D73
330
4D97
330
4DA0
330
4D8E
330
4D85
330
4D3F
330
4D59
102
}
330
A
100
AcDbSymbolTableRecord
100
AcDbDimStyleTableRecord
  2
STANDARD
 70
     0
340
F
  0
DIMSTYLE
105
22
330
A
100
AcDbSymbolTableRecord
100
AcDbDimStyleTableRecord
  2
B
 70
     0
 40
7.62
 41
1.5
 42
0.3125
 43
0.7
 44
1.0
 73
     0
 74
     0
 77
     1
140
1.5
141
0.045
147
0.3
271
     1
289
     2
340
F
  0
DIMSTYLE
105
559
330
A
100
AcDbSymbolTableRecord
100
AcDbDimStyleTableRecord
  2
A
 70
     0
 40
7.62
 41
1.5
 42
0.3125
 43
0.7
 44
1.0
 73
     0
 74
     0
 77
     1
140
1.3
141
0.045
147
0.3
271
     2
289
     2
340
F
  0
DIMSTYLE
105
55A
330
A
100
AcDbSymbolTableRecord
100
AcDbDimStyleTableRecord
  2
S
 70
     0
  3
M<> 深30
 40
7.62
 41
1.5
 42
0.3125
 43
0.7
 44
1.0
 73
     0
 74
     0
 77
     1
140
1.3
141
0.045
147
0.3
271
     0
289
     2
340
558
  0
DIMSTYLE
105
55B
330
A
100
AcDbSymbolTableRecord
100
AcDbDimStyleTableRecord
  2
S2
 70
     0
  3
2-M<> 深30
 40
7.62
 41
1.5
 42
0.3125
 43
0.7
 44
1.0
 73
     0
 74
     0
 77
     1
140
1.3
141
0.045
147
0.3
271
     0
289
     2
340
558
  0
DIMSTYLE
105
55C
330
A
100
AcDbSymbolTableRecord
100
AcDbDimStyleTableRecord
  2
D
 70
     0
  3
%%c<>
 40
7.62
 41
1.5
 42
0.3125
 43
0.7
 44
1.0
 73
     0
 74
     0
 77
     1
140
1.3
141
0.045
147
0.3
271
     0
289
     2
340
F
  0
DIMSTYLE
105
55D
330
A
100
AcDbSymbolTableRecord
100
AcDbDimStyleTableRecord
  2
D2
 70
     0
  3
2-%%c<>
 40
7.62
 41
1.5
 42
0.3125
 43
0.7
 44
1.0
 73
     0
 74
     0
 77
     1
140
1.3
141
0.045
147
0.3
271
     0
289
     2
340
F
  0
DIMSTYLE
105
55E
330
A
100
AcDbSymbolTableRecord
100
AcDbDimStyleTableRecord
  2
C
 70
     0
  3
%%c<>
 40
7.62
 41
1.5
 42
0.3125
 43
0.7
 44
1.0
 73
     0
 74
     0
 77
     1
140
1.3
141
0.045
147
0.3
271
     1
289
     2
340
F
  0
DIMSTYLE
105
55F
330
A
100
AcDbSymbolTableRecord
100
AcDbDimStyleTableRecord
  2
T
 70
     0
  3
 TYP.
 40
7.62
 41
1.5
 42
0.3125
 43
0.7
 44
1.0
 73
     0
 74
     0
 77
     1
140
1.3
141
0.045
147
0.3
271
     1
289
     2
340
F
  0
DIMSTYLE
105
560
330
A
100
AcDbSymbolTableRecord
100
AcDbDimStyleTableRecord
  2
SC3
 70
     0
  3
3-M<>
 40
7.62
 41
1.5
 42
0.3125
 43
0.7
 44
1.0
 73
     0
 74
     0
 77
     1
140
1.3
141
0.045
147
0.3
271
     0
289
     2
340
F
  0
DIMSTYLE
105
561
330
A
100
AcDbSymbolTableRecord
100
AcDbDimStyleTableRecord
  2
SC2
 70
     0
  3
2-M<>
 40
7.62
 41
1.5
 42
0.3125
 43
0.7
 44
1.0
 73
     0
 74
     0
 77
     1
140
1.3
141
0.045
147
0.3
271
     0
289
     2
340
F
  0
DIMSTYLE
105
562
330
A
100
AcDbSymbolTableRecord
100
AcDbDimStyleTableRecord
  2
SC4
 70
     0
  3
4-M<>
 40
7.62
 41
1.5
 42
0.3125
 43
0.7
 44
1.0
 73
     0
 74
     0
 77
     1
140
1.3
141
0.045
147
0.3
271
     0
289
     2
340
F
  0
DIMSTYLE
105
563
330
A
100
AcDbSymbolTableRecord
100
AcDbDimStyleTableRecord
  2
SC5
 70
     0
  3
5-M<>
 40
7.62
 41
1.5
 42
0.3125
 43
0.7
 44
1.0
 73
     0
 74
     0
 77
     1
140
1.3
141
0.045
147
0.3
271
     0
289
     2
340
F
  0
DIMSTYLE
105
564
330
A
100
AcDbSymbolTableRecord
100
AcDbDimStyleTableRecord
  2
SC6
 70
     0
  3
6-M<>
 40
7.62
 41
1.5
 42
0.3125
 43
0.7
 44
1.0
 73
     0
 74
     0
 77
     1
140
1.3
141
0.045
147
0.3
271
     0
289
     2
340
F
  0
DIMSTYLE
105
565
330
A
100
AcDbSymbolTableRecord
100
AcDbDimStyleTableRecord
  2
D3
 70
     0
  3
3-%%c<>
 40
7.62
 41
1.5
 42
0.3125
 43
0.7
 44
1.0
 73
     0
 74
     0
 77
     1
140
1.3
141
0.045
147
0.3
271
     0
289
     2
340
F
  0
DIMSTYLE
105
566
330
A
100
AcDbSymbolTableRecord
100
AcDbDimStyleTableRecord
  2
D4
 70
     0
  3
4-%%c<>
 40
7.62
 41
1.5
 42
0.3125
 43
0.7
 44
1.0
 73
     0
 74
     0
 77
     1
140
1.3
141
0.045
147
0.3
271
     0
289
     2
340
F
  0
DIMSTYLE
105
567
330
A
100
AcDbSymbolTableRecord
100
AcDbDimStyleTableRecord
  2
T1
 70
     0
 40
7.62
 41
1.5
 42
0.3125
 43
0.7
 44
1.0
 47
0.1
 71
     1
 73
     0
 74
     0
 77
     1
140
1.3
141
0.045
146
0.8
147
0.3
271
     1
272
     2
284
     8
289
     2
340
F
  0
DIMSTYLE
105
568
330
A
100
AcDbSymbolTableRecord
100
AcDbDimStyleTableRecord
  2
T2
 70
     0
 40
7.62
 41
1.5
 42
0.3125
 43
0.7
 44
1.0
 47
0.2
 71
     1
 73
     0
 74
     0
 77
     1
140
1.3
141
0.045
146
0.8
147
0.3
271
     1
272
     2
284
     8
289
     2
340
F
  0
DIMSTYLE
105
569
330
A
100
AcDbSymbolTableRecord
100
AcDbDimStyleTableRecord
  2
T-1
 70
     0
 40
7.62
 41
1.5
 42
0.3125
 43
0.7
 44
1.0
 48
0.1
 71
     1
 73
     0
 74
     0
 77
     1
140
1.3
141
0.045
146
0.8
147
0.3
271
     1
272
     2
284
     8
289
     2
340
F
  0
DIMSTYLE
105
56A
330
A
100
AcDbSymbolTableRecord
100
AcDbDimStyleTableRecord
  2
T-2
 70
     0
 40
7.62
 41
1.5
 42
0.3125
 43
0.7
 44
1.0
 48
0.2
 71
     1
 73
     0
 74
     0
 77
     1
140
1.3
141
0.045
146
0.8
147
0.3
271
     1
272
     2
284
     8
289
     2
340
F
  0
DIMSTYLE
105
56B
330
A
100
AcDbSymbolTableRecord
100
AcDbDimStyleTableRecord
  2
S4
 70
     0
  3
4-M<> 深30
 40
7.62
 41
1.5
 42
0.3125
 43
0.7
 44
1.0
 73
     0
 74
     0
 77
     1
140
1.3
141
0.045
147
0.3
271
     0
289
     2
340
558
  0
DIMSTYLE
105
56C
330
A
100
AcDbSymbolTableRecord
100
AcDbDimStyleTableRecord
  2
D6
 70
     0
  3
6-%%c<>
 40
7.62
 41
1.5
 42
0.3125
 43
0.7
 44
1.0
 73
     0
 74
     0
 77
     1
140
1.3
141
0.045
147
0.3
271
     0
289
     2
340
F
  0
DIMSTYLE
105
56D
330
A
100
AcDbSymbolTableRecord
100
AcDbDimStyleTableRecord
  2
D8
 70
     0
  3
8-%%c<>
 40
7.62
 41
1.5
 42
0.3125
 43
0.7
 44
1.0
 73
     0
 74
     0
 77
     1
140
1.3
141
0.045
147
0.3
271
     0
289
     2
340
F
  0
DIMSTYLE
105
56E
330
A
100
AcDbSymbolTableRecord
100
AcDbDimStyleTableRecord
  2
SC
 70
     0
  3
M<>
 40
7.62
 41
1.5
 42
0.3125
 43
0.7
 44
1.0
 73
     0
 74
     0
 77
     1
140
1.3
141
0.045
147
0.3
271
     0
289
     2
340
F
  0
DIMSTYLE
105
56F
330
A
100
AcDbSymbolTableRecord
100
AcDbDimStyleTableRecord
  2
ISO-25_WS
 70
     0
 41
2.5
 42
0.625
 43
3.75
 44
1.25
 73
     0
 74
     0
 77
     1
 78
     8
140
2.5
141
2.5
143
0.0394
147
0.625
171
     4
172
     1
273
     8
274
     4
340
F
  0
DIMSTYLE
105
618
330
A
100
AcDbSymbolTableRecord
100
AcDbDimStyleTableRecord
  2
SR
 70
     0
  3
SR<>
 40
7.62
 41
1.5
 42
0.3125
 43
0.7
 44
1.0
 73
     0
 74
     0
 77
     1
140
1.5
141
0.045
147
0.3
271
     1
289
     2
340
F
  0
DIMSTYLE
105
62B
330
A
100
AcDbSymbolTableRecord
100
AcDbDimStyleTableRecord
  2
ADD
 70
     0
  3
*
 40
7.62
 41
1.5
 42
0.3125
 43
0.7
 44
1.0
 73
     0
 74
     0
 77
     1
140
1.5
141
0.045
147
0.3
271
     0
289
     2
340
F
  0
DIMSTYLE
105
62C
330
A
100
AcDbSymbolTableRecord
100
AcDbDimStyleTableRecord
  2
ADD1
 70
     0
  3
**
 40
7.62
 41
1.5
 42
0.3125
 43
0.7
 44
1.0
 73
     0
 74
     0
 77
     1
140
1.5
141
0.045
147
0.3
271
     0
289
     2
340
F
  0
DIMSTYLE
105
636
330
A
100
AcDbSymbolTableRecord
100
AcDbDimStyleTableRecord
  2
A0
 70
     0
 40
7.62
 41
1.5
 42
0.3125
 43
0.7
 44
1.0
 73
     0
 74
     0
 77
     1
140
1.5
141
0.045
147
0.3
271
     0
289
     2
340
F
  0
DIMSTYLE
105
780
330
A
100
AcDbSymbolTableRecord
100
AcDbDimStyleTableRecord
  2
2
 70
     0
  3
(X2)
 40
7.62
 41
1.5
 42
0.3125
 43
0.7
 73
     0
 74
     0
 77
     1
140
1.3
141
0.045
147
0.3
271
     1
289
     2
340
F
  0
DIMSTYLE
105
3707
330
A
100
AcDbSymbolTableRecord
100
AcDbDimStyleTableRecord
  2
D_C2
 70
     0
  3
2-%%C<>
 40
7.62
 41
2.0
 42
0.8
 43
0.7
 44
1.5
 73
     0
 74
     0
 77
     1
140
1.9
141
0.1
147
0.6
271
     1
289
     2
340
F
  0
DIMSTYLE
105
3708
330
A
100
AcDbSymbolTableRecord
100
AcDbDimStyleTableRecord
  2
B11
 70
     0
 40
7.62
 41
2.0
 42
0.8
 43
0.7
 44
1.5
 47
0.1
 71
     1
 73
     0
 74
     0
 77
     1
140
1.9
141
0.1
144
0.25
146
0.7
147
0.6
271
     1
272
     1
340
F
  0
DIMSTYLE
105
376F
330
A
100
AcDbSymbolTableRecord
100
AcDbDimStyleTableRecord
  2
B1
 70
     0
  4
"
 40
7.62
 41
1.5
 42
0.3125
 43
0.7
 44
1.0
 48
2.0
 71
     1
 73
     0
 74
     0
 77
     1
140
2.0
141
0.045
143
0.03937
146
0.7
147
0.3
170
     1
271
     1
272
     1
273
     5
279
     1
284
     8
286
     8
340
F
  0
ENDTAB
  0
TABLE
  2
BLOCK_RECORD
  5
1
330
0
100
AcDbSymbolTable
 70
    16
  0
BLOCK_RECORD
  5
18
330
1
100
AcDbSymbolTableRecord
100
AcDbBlockTableRecord
  2
*MODEL_SPACE
340
2646
  0
BLOCK_RECORD
  5
15
330
1
100
AcDbSymbolTableRecord
100
AcDbBlockTableRecord
  2
*PAPER_SPACE
340
2647
  0
BLOCK_RECORD
  5
54C
330
1
100
AcDbSymbolTableRecord
100
AcDbBlockTableRecord
  2
OREFER1
340
0
102
{BLKREFS
331
572
102
}
  0
BLOCK_RECORD
  5
571
330
1
100
AcDbSymbolTableRecord
100
AcDbBlockTableRecord
  2
OREFER
340
0
102
{BLKREFS
331
576
102
}
  0
BLOCK_RECORD
  5
649
330
1
100
AcDbSymbolTableRecord
100
AcDbBlockTableRecord
  2
A$C38474063
340
0
  0
BLOCK_RECORD
  5
2650
330
1
100
AcDbSymbolTableRecord
100
AcDbBlockTableRecord
  2
A$C0CDF4DE3
340
0
  0
BLOCK_RECORD
  5
4D40
330
1
100
AcDbSymbolTableRecord
100
AcDbBlockTableRecord
  2
*D6
340
0
  0
BLOCK_RECORD
  5
4D4D
330
1
100
AcDbSymbolTableRecord
100
AcDbBlockTableRecord
  2
*D7
340
0
  0
BLOCK_RECORD
  5
4D5A
330
1
100
AcDbSymbolTableRecord
100
AcDbBlockTableRecord
  2
*D8
340
0
  0
BLOCK_RECORD
  5
4D67
330
1
100
AcDbSymbolTableRecord
100
AcDbBlockTableRecord
  2
*D9
340
0
  0
BLOCK_RECORD
  5
4D74
330
1
100
AcDbSymbolTableRecord
100
AcDbBlockTableRecord
  2
*D10
340
0
  0
BLOCK_RECORD
  5
4D7D
330
1
100
AcDbSymbolTableRecord
100
AcDbBlockTableRecord
  2
*D11
340
0
  0
BLOCK_RECORD
  5
4D86
330
1
100
AcDbSymbolTableRecord
100
AcDbBlockTableRecord
  2
*D12
340
0
  0
BLOCK_RECORD
  5
4D8F
330
1
100
AcDbSymbolTableRecord
100
AcDbBlockTableRecord
  2
*D13
340
0
  0
BLOCK_RECORD
  5
4D98
330
1
100
AcDbSymbolTableRecord
100
AcDbBlockTableRecord
  2
*D14
340
0
  0
BLOCK_RECORD
  5
4DA1
330
1
100
AcDbSymbolTableRecord
100
AcDbBlockTableRecord
  2
*D15
340
0
  0
ENDTAB
  0
ENDSEC
  0
SECTION
  2
BLOCKS
  0
BLOCK
  5
19
330
18
100
AcDbEntity
  8
0
100
AcDbBlockBegin
  2
*MODEL_SPACE
 70
     0
 10
0.0
 20
0.0
 30
0.0
  3
*MODEL_SPACE
  1

  0
ENDBLK
  5
1A
330
18
100
AcDbEntity
  8
0
100
AcDbBlockEnd
  0
BLOCK
  5
16
330
15
100
AcDbEntity
 67
     1
  8
0
100
AcDbBlockBegin
  2
*PAPER_SPACE
 70
     0
 10
0.0
 20
0.0
 30
0.0
  3
*PAPER_SPACE
  1

  0
ENDBLK
  5
17
330
15
100
AcDbEntity
 67
     1
  8
0
100
AcDbBlockEnd
  0
BLOCK
  5
54D
330
54C
100
AcDbEntity
  8
0
100
AcDbBlockBegin
  2
OREFER1
 70
     0
 10
0.0
 20
0.0
 30
0.0
  3
OREFER1
  1

  0
ENDBLK
  5
54E
330
54C
100
AcDbEntity
  8
0
100
AcDbBlockEnd
  0
BLOCK
  5
573
330
571
100
AcDbEntity
  8
0
100
AcDbBlockBegin
  2
OREFER
 70
     0
 10
0.0
 20
0.0
 30
0.0
  3
OREFER
  1

  0
INSERT
  5
572
330
571
100
AcDbEntity
  8
0
  6
Continuous
100
AcDbBlockReference
  2
OREFER1
 10
0.0
 20
0.0
 30
0.0
  0
ENDBLK
  5
574
330
571
100
AcDbEntity
  8
0
100
AcDbBlockEnd
  0
BLOCK
  5
64C
330
649
100
AcDbEntity
  8
0
100
AcDbBlockBegin
  2
A$C38474063
 70
     0
 10
0.0
 20
0.0
 30
0.0
  3
A$C38474063
  1

  0
CIRCLE
  5
64A
330
649
100
AcDbEntity
  8
0
  6
Continuous
 62
     0
100
AcDbCircle
 10
13.74999991812274
 20
13.74999978875439
 30
0.0
 40
13.75
  0
CIRCLE
  5
64B
330
649
100
AcDbEntity
  8
0
  6
Continuous
 62
     0
100
AcDbCircle
 10
13.74999991812274
 20
13.74999978875439
 30
0.0
 40
11.0
  0
ENDBLK
  5
64D
330
649
100
AcDbEntity
  8
0
100
AcDbBlockEnd
  0
BLOCK
  5
2651
330
2650
100
AcDbEntity
  8
0
100
AcDbBlockBegin
  2
A$C0CDF4DE3
 70
     0
 10
0.0
 20
0.0
 30
0.0
  3
A$C0CDF4DE3
  1

  0
LINE
  5
2652
330
2650
100
AcDbEntity
  8
0
100
AcDbLine
 10
410.9544394321501
 20
170.9999988045253
 30
-61.15596178328463
 11
416.6269594215123
 21
170.9999988045253
 31
-153.9008437958416
  0
LINE
  5
2653
330
2650
100
AcDbEntity
  8
0
100
AcDbLine
 10
338.5281339363014
 20
13.14007073342537
 30
-61.17287198726
 11
339.1452732263015
 21
7.502252168925366
 31
-153.900845711146
  0
LINE
  5
2654
330
2650
100
AcDbEntity
  8
0
100
AcDbLine
 10
404.7330183385015
 20
77.56214712646539
 30
-62.59327204064
 11
410.2669656351017
 21
76.81137703406538
 31
-153.900845639233
  0
LINE
  5
2655
330
2650
100
AcDbEntity
  8
0
100
AcDbLine
 10
404.7330383703015
 20
264.4378532040154
 30
-62.59327080430999
 11
410.2669644701018
 21
265.1886204167354
 31
-153.900845711144
  0
LINE
  5
2656
330
2650
100
AcDbEntity
  8
0
100
AcDbLine
 10
338.5281318238017
 20
328.8599076085254
 30
-61.17287317239
 11
339.1452733544015
 21
334.4977466089253
 31
-153.900845639232
  0
LINE
  5
2657
330
2650
100
AcDbEntity
  8
0
100
AcDbLine
 10
0.3730401625516606
 20
170.9999988045254
 30
-153.9008439211068
 11
6.797601250540537
 21
170.9999988045254
 31
-48.86019863625591
  0
LINE
  5
2658
330
2650
100
AcDbEntity
  8
0
100
AcDbLine
 10
12.98481523470172
 20
264.3404646163254
 30
-50.7489400159
 11
6.733029978301601
 21
265.1886211152454
 31
-153.900845393699
  0
LINE
  5
2659
330
2650
100
AcDbEntity
  8
0
100
AcDbLine
 10
12.98480472870142
 20
77.65953156598539
 30
-50.7489393675
 11
6.733030930201493
 21
76.81137662308538
 31
-153.900845452454
  0
LINE
  5
265A
330
2650
100
AcDbEntity
  8
0
100
AcDbLine
 10
78.53882194880134
 20
13.75174373562538
 30
-51.1123882614
 11
77.85472579960151
 21
7.502247009625364
 31
-153.900845393698
  0
LINE
  5
265B
330
2650
100
AcDbEntity
  8
0
100
AcDbLine
 10
78.53882080150151
 20
328.2482643410254
 30
-51.1123876173
 11
77.85472590420159
 21
334.4977496445253
 31
-153.900845452455
  0
ARC
  5
265C
330
2650
100
AcDbEntity
  8
0
100
AcDbCircle
 10
208.4999997957015
 20
1200.999998804676
 30
-166.110552667722
 40
1201.0
100
AcDbArc
 50
263.7530354583225
 51
276.2469645416707
  0
ARC
  5
265D
330
2650
100
AcDbEntity
  8
0
100
AcDbCircle
 10
208.4999997957015
 20
1200.999998804676
 30
-153.900844781736
 40
1200.626959686
100
AcDbArc
 50
263.7530354583225
 51
276.2469645416704
  0
ARC
  5
265E
330
2650
100
AcDbEntity
  8
0
100
AcDbCircle
 10
208.4999997957015
 20
-859.000001195625
 30
-166.110552667723
 40
1201.0
100
AcDbArc
 50
83.75303545832259
 51
96.24696454167075
  0
ARC
  5
265F
330
2650
100
AcDbEntity
  8
0
100
AcDbCircle
 10
208.4999997957015
 20
-859.000001195625
 30
-153.900844781736
 40
1200.626959686
100
AcDbArc
 50
83.75303545832259
 51
96.24696454167041
  0
LINE
  5
2660
330
2650
100
AcDbEntity
  8
0
100
AcDbLine
 10
77.81413257180156
 20
334.8685862579253
 30
-166.110552659718
 11
77.81413257100166
 21
334.8685862578254
 31
-210.0
  0
LINE
  5
2661
330
2650
100
AcDbEntity
  8
0
100
AcDbLine
 10
77.81413257100166
 20
7.131411351225381
 30
-166.110552659717
 11
77.81413257100166
 21
7.131411351225381
 31
-210.0
  0
LINE
  5
2662
330
2650
100
AcDbEntity
  8
0
100
AcDbLine
 10
-0.0000002042984306
 20
170.9999988045253
 30
-209.9999999669162
 11
-0.0000002042984306
 21
170.9999988045253
 31
-166.1105530360094
  0
LINE
  5
2663
330
2650
100
AcDbEntity
  8
0
100
AcDbLine
 10
6.363365572301518
 20
265.2387721135154
 30
-166.110552659717
 11
6.363365572301518
 21
265.2387721135054
 31
-210.0
  0
LINE
  5
2664
330
2650
100
AcDbEntity
  8
0
100
AcDbLine
 10
6.363365572201473
 20
76.76122549637537
 30
-166.110552659718
 11
6.363365572301518
 21
76.76122549554538
 31
-210.0
  0
ARC
  5
2665
330
2650
100
AcDbEntity
  8
DIM
100
AcDbCircle
 10
86.62808305393401
 20
254.349556407894
 30
-210.0
 40
80.99999932771433
100
AcDbArc
 50
96.24696416998329
 51
172.27406375336
  0
SPLINE
  5
2666
330
2650
100
AcDbEntity
  8
0
100
AcDbSpline
 70
     0
 71
     3
 72
    15
 73
    11
 74
     0
 42
0.0000000001
 43
0.0000000001
 40
0.0
 40
0.0
 40
0.0
 40
0.0
 40
0.125
 40
0.25
 40
0.375
 40
0.5
 40
0.625
 40
0.75
 40
0.875
 40
1.0
 40
1.0
 40
1.0
 40
1.0
 10
77.81413257180156
 20
334.8685862579253
 30
-166.110552659718
 10
73.42126121220144
 20
334.3875683270254
 30
-166.110585925223
 10
64.67880646830145
 20
332.6995973944254
 30
-166.12926753141
 10
52.08855169010167
 20
328.0308991414254
 30
-166.198677736585
 10
40.28717496210174
 20
321.2458373740254
 30
-166.258178937207
 10
29.82845139310166
 20
312.6222720122254
 30
-166.298816088722
 10
20.9344044639015
 20
302.3809324272254
 30
-166.258075350992
 10
13.85050247210165
 20
290.7543366825254
 30
-166.198534200379
 10
8.865633163801703
 20
278.2950039472254
 30
-166.129193969532
 10
6.9565947796018
 20
269.6103377503554
 30
-166.110584410117
 10
6.363365572301518
 20
265.2387721135154
 30
-166.110552659717
  0
SPLINE
  5
2667
330
2650
100
AcDbEntity
  8
0
100
AcDbSpline
 70
     0
 71
     3
 72
    15
 73
    11
 74
     0
 42
0.0000000001
 43
0.0000000001
 40
0.0
 40
0.0
 40
0.0
 40
0.0
 40
0.125
 40
0.25
 40
0.375
 40
0.5
 40
0.625
 40
0.75
 40
0.875
 40
1.0
 40
1.0
 40
1.0
 40
1.0
 10
77.85472590420159
 20
334.4977496445253
 30
-153.900845452455
 10
73.49640602640147
 20
334.0205176992254
 30
-153.900935771613
 10
64.81213419160167
 20
332.3444491179254
 30
-153.882300392227
 10
52.29104747380143
 20
327.6997068426254
 30
-153.813449710569
 10
40.53984802050172
 20
320.9441942504254
 30
-153.754231297579
 10
30.10471717210157
 20
312.3388478282254
 30
-153.71358295816
 10
21.22940159190148
 20
302.1205286351254
 30
-153.754332437527
 10
14.17642620800143
 20
290.5434967760254
 30
-153.813593366304
 10
9.217222102901359
 20
278.1525752512254
 30
-153.882372602057
 10
7.321587221201752
 20
269.5257760025454
 30
-153.900929560248
 10
6.733029978301601
 20
265.1886211152454
 30
-153.900845393699
  0
ARC
  5
2668
330
2650
100
AcDbEntity
  8
0
100
AcDbCircle
 10
215.5563492038388
 20
-166.1105526597285
 30
76.57608148320014
 40
200.0
210
0.9940621044575054
220
-0.1088142108436006
230
0.0
100
AcDbArc
 50
176.4999999999997
 51
179.9999999999991
  0
ARC
  5
2669
330
2650
100
AcDbEntity
  8
0
100
AcDbCircle
 10
170.648288624785
 20
-166.1105526597278
 30
-263.6865102584255
 40
200.0
210
-0.1344347693403038
220
-0.9909224453974282
230
0.0
100
AcDbArc
 50
176.5000000000006
 51
179.9999999999996
  0
ARC
  5
266A
330
2650
100
AcDbEntity
  8
0
100
AcDbCircle
 10
202.4144444675817
 20
-166.1959454805744
 30
-170.9999988045254
 40
202.4136833036552
210
0.0
220
-1.0
230
0.0
100
AcDbArc
 50
176.5232577767618
 51
179.9701666199747
  0
ARC
  5
266B
330
2650
100
AcDbEntity
  8
0
100
AcDbCircle
 10
216.6249213175861
 20
-166.1108779578457
 30
-75.20828246790182
 40
199.9999189375
210
0.1344344725459019
220
-0.9909224856532144
230
-0.0000042614710845
100
AcDbArc
 50
176.4999980056881
 51
179.9999986252512
  0
ARC
  5
266C
330
2650
100
AcDbEntity
  8
0
100
AcDbCircle
 10
700.9999997957848
 20
170.9999988045253
 30
-166.110552784626
 40
701.0
100
AcDbArc
 50
172.2740633816476
 51
187.7259366183556
  0
SPLINE
  5
266D
330
2650
100
AcDbEntity
  8
0
100
AcDbSpline
 70
     0
 71
     3
 72
    15
 73
    11
 74
     0
 42
0.0000000001
 43
0.0000000001
 40
0.0
 40
0.0
 40
0.0
 40
0.0
 40
0.125
 40
0.25
 40
0.375
 40
0.5
 40
0.625
 40
0.75
 40
0.875
 40
1.0
 40
1.0
 40
1.0
 40
1.0
 10
6.363365572201473
 20
76.76122549637537
 30
-166.110552659718
 10
6.95760355790162
 20
72.38223266138539
 30
-166.110585925223
 10
8.870655500401426
 20
63.68625697812537
 30
-166.12926753141
 10
13.8627537500015
 20
51.22069586662537
 30
-166.198677736584
 10
20.95014948450171
 20
39.59837348372537
 30
-166.25817893721
 10
29.84078237660151
 20
29.36570887372537
 30
-166.298816088723
 10
40.30826614710167
 20
20.73895451372539
 30
-166.258075350991
 10
52.11382463980135
 20
13.95749562072538
 30
-166.198534200376
 10
64.69766653740134
 20
9.295863146125384
 30
-166.129193969531
 10
73.42871197200157
 20
7.611612536125363
 30
-166.110584410117
 10
77.81413257100166
 20
7.131411351225381
 30
-166.110552659717
  0
ARC
  5
266E
330
2650
100
AcDbEntity
  8
0
100
AcDbCircle
 10
700.9999997957848
 20
170.9999988045253
 30
-153.90084493592
 40
700.6269596956
100
AcDbArc
 50
172.2740633816476
 51
187.7259366183572
  0
SPLINE
  5
266F
330
2650
100
AcDbEntity
  8
0
100
AcDbSpline
 70
     0
 71
     3
 72
    15
 73
    11
 74
     0
 42
0.0000000001
 43
0.0000000001
 40
0.0
 40
0.0
 40
0.0
 40
0.0
 40
0.125
 40
0.25
 40
0.375
 40
0.5
 40
0.625
 40
0.75
 40
0.875
 40
1.0
 40
1.0
 40
1.0
 40
1.0
 10
6.733030930201493
 20
76.81137662308538
 30
-153.900845452454
 10
7.322592415701365
 20
72.46682604307537
 30
-153.900935771612
 10
9.222244267201403
 20
63.82870668562538
 30
-153.882300392228
 10
14.18860928750155
 20
51.43167228682537
 30
-153.813449710567
 10
21.24517061180177
 20
39.85874779672537
 30
-153.75423129758
 10
30.11698170400177
 20
29.64919781562537
 30
-153.713582958159
 10
40.56096929430168
 20
21.04057440682538
 30
-153.754332437528
 10
52.31618219510164
 20
14.28875257182537
 30
-153.813593366306
 10
64.83097325170138
 20
9.651011052625364
 30
-153.88237260206
 10
73.50382507040149
 20
7.978665930225389
 30
-153.900929560248
 10
77.85472579960151
 20
7.502247009625364
 30
-153.900845393698
  0
ARC
  5
2670
330
2650
100
AcDbEntity
  8
0
100
AcDbCircle
 10
-124.4129577996045
 20
-166.1110423716861
 30
-113.7897579558093
 40
199.9999189375
210
-0.9940621370395728
220
-0.108813913109297
230
-0.00000426147107
100
AcDbArc
 50
176.4999980056885
 51
179.9999986252518
  0
LINE
  5
2671
330
2650
100
AcDbEntity
  8
0
100
AcDbLine
 10
416.9999997957015
 20
170.9999988045254
 30
-166.1105533568451
 11
416.9999997957015
 21
170.9999988045254
 31
-209.9999990796119
  0
LINE
  5
2672
330
2650
100
AcDbEntity
  8
0
100
AcDbLine
 10
410.6366340193017
 20
265.2387721120454
 30
-166.110552659718
 11
410.6366340191016
 21
265.2387721135054
 31
-210.0
  0
LINE
  5
2673
330
2650
100
AcDbEntity
  8
0
100
AcDbLine
 10
410.6366340191016
 20
76.76122549553537
 30
-166.110552659717
 11
410.6366340191016
 21
76.76122549554538
 31
-210.0
  0
LINE
  5
2674
330
2650
100
AcDbEntity
  8
0
100
AcDbLine
 10
339.1858670204015
 20
334.8685862578254
 30
-166.110552659717
 11
339.1858670204015
 21
334.8685862578254
 31
-210.0
  0
LINE
  5
2675
330
2650
100
AcDbEntity
  8
0
100
AcDbLine
 10
339.1858670189017
 20
7.131411351025377
 30
-166.110552659718
 11
339.1858670204015
 21
7.131411351225381
 31
-210.0
  0
SPLINE
  5
2676
330
2650
100
AcDbEntity
  8
0
100
AcDbSpline
 70
     0
 71
     3
 72
    15
 73
    11
 74
     0
 42
0.0000000001
 43
0.0000000001
 40
0.0
 40
0.0
 40
0.0
 40
0.0
 40
0.125
 40
0.25
 40
0.375
 40
0.5
 40
0.625
 40
0.75
 40
0.875
 40
1.0
 40
1.0
 40
1.0
 40
1.0
 10
410.6366340193017
 20
265.2387721120454
 30
-166.110552659718
 10
410.0384185237016
 20
269.6467381226154
 30
-166.110594451903
 10
408.1121869920016
 20
278.3873147296254
 30
-166.196900584732
 10
403.0653552027015
 20
290.9248044453254
 30
-166.458621538748
 10
395.9878652667017
 20
302.4762748440254
 30
-166.713530092627
 10
387.1621907012013
 20
312.6228700428254
 30
-166.857342857909
 10
376.7901473042016
 20
321.1849808339254
 30
-166.71357691028
 10
365.0632855285016
 20
327.9604729770253
 30
-166.45868791579
 10
352.3997818479015
 20
332.6832040416253
 30
-166.196976628166
 10
343.6097837858015
 20
334.3841215299254
 30
-166.110588636918
 10
339.1858670204015
 20
334.8685862578254
 30
-166.110552659717
  0
SPLINE
  5
2677
330
2650
100
AcDbEntity
  8
0
100
AcDbSpline
 70
     0
 71
     3
 72
    15
 73
    11
 74
     0
 42
0.0000000001
 43
0.0000000001
 40
0.0
 40
0.0
 40
0.0
 40
0.0
 40
0.125
 40
0.25
 40
0.375
 40
0.5
 40
0.625
 40
0.75
 40
0.875
 40
1.0
 40
1.0
 40
1.0
 40
1.0
 10
410.2669644701018
 20
265.1886204167354
 30
-153.900845711144
 10
409.6790103391017
 20
269.5209879184454
 30
-153.900946212576
 10
407.7803681077016
 20
278.1426297974253
 30
-153.817179732178
 10
402.7700089925015
 20
290.5788058493254
 30
-153.557887522697
 10
395.7201953855015
 20
302.0854196225254
 30
-153.304763864465
 10
386.8403721716013
 20
312.2923077963254
 30
-153.157155998921
 10
376.4060952222016
 20
320.9075095414254
 30
-153.304742100376
 10
364.7251038523018
 20
327.6562336198253
 30
-153.557783169609
 10
352.1635595549014
 20
332.3452472408254
 30
-153.817120639281
 10
343.4932805210014
 20
334.0215960583254
 30
-153.90093559616
 10
339.1452733544015
 20
334.4977466089253
 30
-153.900845639232
  0
ARC
  5
2678
330
2650
100
AcDbEntity
  8
0
100
AcDbCircle
 10
-242.5663016697822
 20
-166.1091969027144
 30
207.6284705972846
 40
199.9999073708
210
-0.1344342977632944
220
0.9909225093529583
230
-0.0000065212211332
100
AcDbArc
 50
176.4999999851688
 51
180.0000005068157
  0
ARC
  5
2679
330
2650
100
AcDbEntity
  8
0
100
AcDbCircle
 10
212.3787736062154
 20
-166.23352536766
 30
-170.9999988045254
 40
204.62288835101
210
0.0
220
-1.0
230
0.0
100
AcDbArc
 50
0.0400336853407595
 51
3.449772602871625
  0
ARC
  5
267A
330
2650
100
AcDbEntity
  8
0
100
AcDbCircle
 10
-196.5896799085522
 20
-166.1105526597279
 30
131.2682624587786
 40
200.0
210
0.1344347693385946
220
0.9909224453976602
230
0.0
100
AcDbArc
 50
176.5000000000003
 51
179.9999999999996
  0
ARC
  5
267B
330
2650
100
AcDbEntity
  8
0
100
AcDbCircle
 10
170.1809543763987
 20
-166.1083470545544
 30
337.9488783415582
 40
199.9999073708
210
0.99406215622024
220
0.1088137377735044
230
-0.0000065212210246
100
AcDbArc
 50
176.4999999851692
 51
180.0000005068163
  0
SPLINE
  5
267C
330
2650
100
AcDbEntity
  8
0
100
AcDbSpline
 70
     0
 71
     3
 72
    15
 73
    11
 74
     0
 42
0.0000000001
 43
0.0000000001
 40
0.0
 40
0.0
 40
0.0
 40
0.0
 40
0.125
 40
0.25
 40
0.375
 40
0.5
 40
0.625
 40
0.75
 40
0.875
 40
1.0
 40
1.0
 40
1.0
 40
1.0
 10
339.1858670189017
 20
7.131411351025377
 30
-166.110552659718
 10
343.6078045620015
 20
7.615657667225377
 30
-166.110594451903
 10
352.3951855376017
 20
9.315652645725378
 30
-166.196900584731
 10
365.0587576343014
 20
14.03720972272538
 30
-166.45862153875
 10
376.7890503122016
 20
20.81419768612537
 30
-166.713530092626
 10
387.1600565640015
 20
29.37504781842537
 30
-166.85734285791
 10
395.9870181371016
 20
39.52264727932539
 30
-166.71357691028
 10
403.0629241993015
 20
51.07072652592538
 30
-166.458687915789
 10
408.1109278193016
 20
63.60811754752538
 30
-166.196976628166
 10
410.0381491006015
 20
72.35128655923538
 30
-166.110588636919
 10
410.6366340191016
 20
76.76122549553537
 30
-166.110552659717
  0
ARC
  5
267D
330
2650
100
AcDbEntity
  8
0
100
AcDbCircle
 10
-284.0000002043812
 20
170.9999988045254
 30
-166.110552784559
 40
701.0
100
AcDbArc
 50
352.2740633816476
 51
7.725936618355746
  0
SPLINE
  5
267E
330
2650
100
AcDbEntity
  8
0
100
AcDbSpline
 70
     0
 71
     3
 72
    15
 73
    11
 74
     0
 42
0.0000000001
 43
0.0000000001
 40
0.0
 40
0.0
 40
0.0
 40
0.0
 40
0.125
 40
0.25
 40
0.375
 40
0.5
 40
0.625
 40
0.75
 40
0.875
 40
1.0
 40
1.0
 40
1.0
 40
1.0
 10
339.1452732263015
 20
7.502252168925366
 30
-153.900845711146
 10
343.4913725985016
 20
7.978191741225373
 30
-153.900946212578
 10
352.1591463858017
 20
9.653676323625376
 30
-153.817179732176
 10
364.7204972077016
 20
14.34138778922536
 30
-153.5578875227
 10
376.4052338757015
 20
21.09186639602538
 30
-153.304763864463
 10
386.8379105969016
 20
29.70529097232537
 30
-153.157155998922
 10
395.7195516896018
 20
39.91373297232536
 30
-153.304742100376
 10
402.7675146863016
 20
51.41664797962538
 30
-153.557783169608
 10
407.7791805168017
 20
63.85298383382537
 30
-153.81712063928
 10
409.6787513559015
 20
72.47710781896538
 30
-153.900935596161
 10
410.2669656351017
 20
76.81137703406538
 30
-153.900845639233
  0
ARC
  5
267F
330
2650
100
AcDbEntity
  8
0
100
AcDbCircle
 10
-284.0000002043812
 20
170.9999988045254
 30
-153.90084493582
 40
700.6269596956
100
AcDbArc
 50
352.2740633816476
 51
7.725936618357374
  0
ARC
  5
2680
330
2650
100
AcDbEntity
  8
0
100
AcDbCircle
 10
-169.7884140211225
 20
-166.1105526597239
 30
-300.7333558202708
 40
200.0
210
-0.9940621044576147
220
0.1088142108426016
230
0.0
100
AcDbArc
 50
176.5000000000009
 51
180.0000000000001
  0
ARC
  5
2681
330
2650
100
AcDbEntity
  8
0
100
AcDbCircle
 10
140.4604202003534
 20
-1882.235709330795
 30
-170.9999988045254
 40
1882.238066174756
210
0.0
220
-1.0
230
0.0
100
AcDbArc
 50
90.0999744965471
 51
92.61658707951372
  0
ARC
  5
2682
330
2650
100
AcDbEntity
  8
0
100
AcDbCircle
 10
138.9896370051215
 20
-1822.194847244213
 30
-170.9999988045254
 40
1822.194849333758
210
0.0
220
-1.0
230
0.0
100
AcDbArc
 50
90.01759039325902
 51
92.50724945478129
  0
ARC
  5
2683
330
2650
100
AcDbEntity
  8
0
100
AcDbCircle
 10
138.4999997957016
 20
-1800.0
 30
-170.9999988045254
 40
1800.0
210
0.0
220
-1.0
230
0.0
100
AcDbArc
 50
90.0
 51
92.67900235436298
  0
SPLINE
  5
2684
330
2650
100
AcDbEntity
  8
0
100
AcDbSpline
 70
     0
 71
     3
 72
    18
 73
    14
 74
     0
 42
0.0000000001
 43
0.0000000001
 40
0.0
 40
0.0
 40
0.0
 40
0.0
 40
0.09090909090909
 40
0.1818181818182
 40
0.2727272727273
 40
0.3636363636364
 40
0.4545454545455
 40
0.5454545454545001
 40
0.6363636363636001
 40
0.7272727272727
 40
0.8181818181818
 40
0.9090909090908999
 40
1.0
 40
1.0
 40
1.0
 40
1.0
 10
338.6575048436016
 20
59.65760028352537
 30
-14.63173454810001
 10
328.4964240325016
 20
58.61140420812538
 30
-13.5578221181
 10
308.4380845443515
 20
56.80245637422537
 30
-11.59835333079999
 10
279.0633009293515
 20
54.87858654942538
 30
-9.180573700899998
 10
251.5013351834114
 20
53.72829221392537
 30
-7.318216502700011
 10
226.7555610144318
 20
53.22899135742537
 30
-5.975976494000008
 10
204.4883421842915
 20
53.20109878022538
 30
-5.028115303600003
 10
183.3155897840915
 20
53.54562979982538
 30
-4.355353524099996
 10
162.9071702366414
 20
54.22399799112537
 30
-3.919884253100008
 10
142.8169321057917
 20
55.22371888592537
 30
-3.695229586500005
 10
122.7978558878317
 20
56.54801818492538
 30
-3.672976350800013
 10
102.5433270652015
 20
58.22625743772538
 30
-3.858354509200012
 10
89.2274505719015
 20
59.55093972882536
 30
-4.116276335700007
 10
82.4113639572015
 20
60.28674846292537
 30
-4.283808868600004
  0
SPLINE
  5
2685
330
2650
100
AcDbEntity
  8
0
100
AcDbSpline
 70
     0
 71
     3
 72
    18
 73
    14
 74
     0
 42
0.0000000001
 43
0.0000000001
 40
0.0
 40
0.0
 40
0.0
 40
0.0
 40
0.09090909090909
 40
0.1818181818182
 40
0.2727272727273
 40
0.3636363636364
 40
0.4545454545455
 40
0.5454545454545001
 40
0.6363636363636001
 40
0.7272727272727
 40
0.8181818181818
 40
0.9090909090908999
 40
1.0
 40
1.0
 40
1.0
 40
1.0
 10
338.5281339363014
 20
13.14007073342537
 30
-61.17287198726
 10
328.2001902106017
 20
12.07388980242538
 30
-60.12688212192999
 10
307.8843743759417
 20
10.23690295872538
 30
-58.2252897637
 10
278.0679874917314
 20
8.277204321525374
 30
-55.8732691032
 10
250.1076187540516
 20
7.105531411125383
 30
-54.0629585253
 10
225.0006759946213
 20
6.595241255525365
 30
-52.7578923448
 10
202.4095483479905
 20
6.564367559125372
 30
-51.836354955
 10
180.9295183395916
 20
6.911948109725386
 30
-51.1822285863
 10
160.2244398040416
 20
7.598927576725373
 30
-50.75882072589999
 10
139.8480737213717
 20
8.61180320442537
 30
-50.54019457889999
 10
119.5235108168917
 20
9.956578936225383
 30
-50.5187354252
 10
99.0323383796017
 20
11.65312163452537
 30
-50.69740100129999
 10
85.37493408920136
 20
13.01334087522536
 30
-50.9513836676
 10
78.53882194880134
 20
13.75174373562538
 30
-51.1123882614
  0
SPLINE
  5
2686
330
2650
100
AcDbEntity
  8
0
100
AcDbSpline
 70
     0
 71
     3
 72
    18
 73
    14
 74
     0
 42
0.0000000001
 43
0.0000000001
 40
0.0
 40
0.0
 40
0.0
 40
0.0
 40
0.09090909090909
 40
0.1818181818182
 40
0.2727272727273
 40
0.3636363636364
 40
0.4545454545455
 40
0.5454545454545001
 40
0.6363636363636001
 40
0.7272727272727
 40
0.8181818181818
 40
0.9090909090908999
 40
1.0
 40
1.0
 40
1.0
 40
1.0
 10
82.41136394000159
 20
281.7132491798254
 30
-4.283808321399988
 10
89.31677317800177
 20
282.4587004577254
 30
-4.114080328999989
 10
102.7945511452017
 20
283.7979115216254
 30
-3.853993368700002
 10
123.2781773758315
 20
285.4889545967253
 30
-3.670314829400012
 10
143.5358947446316
 20
286.8190520719254
 30
-3.698970046699997
 10
163.8694416950116
 20
287.8169559511253
 30
-3.934902005600008
 10
184.5578160049817
 20
288.4861113369254
 30
-4.387730707799988
 10
206.0357186684214
 20
288.8112807405254
 30
-5.085160814200008
 10
228.7251616393114
 20
288.7517310704254
 30
-6.070177688299992
 10
254.0205781157715
 20
288.1931191702254
 30
-7.472007455200014
 10
281.5331028074615
 20
286.9833918988254
 30
-9.3691083617
 10
310.1935611760018
 20
285.0504146258254
 30
-11.7628497814
 10
329.1801481236016
 20
283.3181966064254
 30
-13.63008483569999
 10
338.6575047541014
 20
282.3423972758254
 30
-14.6317353462
  0
SPLINE
  5
2687
330
2650
100
AcDbEntity
  8
0
100
AcDbSpline
 70
     0
 71
     3
 72
    18
 73
    14
 74
     0
 42
0.0000000001
 43
0.0000000001
 40
0.0
 40
0.0
 40
0.0
 40
0.0
 40
0.09090909090909
 40
0.1818181818182
 40
0.2727272727273
 40
0.3636363636364
 40
0.4545454545455
 40
0.5454545454545001
 40
0.6363636363636001
 40
0.7272727272727
 40
0.8181818181818
 40
0.9090909090908999
 40
1.0
 40
1.0
 40
1.0
 40
1.0
 10
78.53882080150151
 20
328.2482643410254
 30
-51.1123876173
 10
85.46136031420155
 20
328.9960026612253
 30
-50.9493474824
 10
99.28792078950165
 20
330.3714925133254
 30
-50.6931382593
 10
120.0094038804013
 20
332.0808118086254
 30
-50.5161667718
 10
140.5766518414916
 20
333.4315277700254
 30
-50.5438278349
 10
161.1999480666218
 20
334.4425402584254
 30
-50.773415109
 10
182.1893990937214
 20
335.1201533881253
 30
-51.2136977049
 10
203.9794547022034
 20
335.4480315118254
 30
-51.89182026160001
 10
226.9989748718617
 20
335.3849525329254
 30
-52.84947483089999
 10
252.6646922086015
 20
334.8142737936254
 30
-54.21255419409999
 10
280.5742259668514
 20
333.5822828919254
 30
-56.0565728566
 10
309.6708416401016
 20
331.6128859675254
 30
-58.38573982219999
 10
328.8875874338014
 20
329.8551266102254
 30
-60.19650132050999
 10
338.5281318238017
 20
328.8599076085254
 30
-61.17287317239
  0
ARC
  5
2688
330
2650
100
AcDbEntity
  8
0
100
AcDbCircle
 10
268.0160723314258
 20
-56.91873853789065
 30
112.0330085634509
 40
49.99999999856
210
0.9939269047356265
220
0.1072962989916028
230
0.0244297414100407
100
AcDbArc
 50
3.501046236497832
 51
86.30205809447371
  0
ARC
  5
2689
330
2650
100
AcDbEntity
  8
0
100
AcDbCircle
 10
-72.00764706548875
 20
-56.022089508666
 30
-75.33831664329454
 40
49.99999995281999
210
-0.9939281103754995
220
0.1072849430451999
230
-0.02443056285019
100
AcDbArc
 50
3.501047398026351
 51
86.30194123301944
  0
ARC
  5
268A
330
2650
100
AcDbEntity
  8
0
100
AcDbCircle
 10
56.77016295017256
 20
-51.97995593510122
 30
-170.9999988045254
 40
50.0711241611251
210
0.0
220
-1.0
230
0.0
100
AcDbArc
 50
93.52626327905641
 51
176.2797709876004
  0
ARC
  5
268B
330
2650
100
AcDbEntity
  8
0
100
AcDbCircle
 10
-27.94078940609689
 20
-42.31060483056144
 30
265.6995064438829
 40
49.99999995037
210
0.131665822124698
220
0.9903437743894848
230
-0.0433972327714193
100
AcDbArc
 50
3.503320471442331
 51
87.15632620459393
  0
SPLINE
  5
268C
330
2650
100
AcDbEntity
  8
0
100
AcDbSpline
210
0.0000000000000238
220
1.0
230
-0.0000000000000229
 70
     8
 71
     3
 72
    14
 73
    10
 74
     0
 42
0.0000000001
 43
0.0000000001
 40
0.0
 40
0.0
 40
0.0
 40
0.0
 40
0.1428571428571
 40
0.2857142857143
 40
0.4285714285714001
 40
0.5714285714286001
 40
0.7142857142857001
 40
0.8571428571428999
 40
1.0
 40
1.0
 40
1.0
 40
1.0
 10
6.797601337701507
 20
170.9999988045254
 30
-48.86019814089999
 10
7.010246832301618
 20
170.9999988045255
 30
-45.38347507890001
 10
8.164790174501376
 20
170.9999988045256
 30
-38.474760737
 10
12.00902374130146
 20
170.9999988045258
 30
-28.6963946839
 10
17.79836887480178
 20
170.9999988045258
 30
-19.92841266650001
 10
25.28088123540147
 20
170.9999988045258
 30
-12.5523571475
 10
34.13091645500163
 20
170.9999988045257
 30
-6.889239434699987
 10
43.96336121770173
 20
170.9999988045256
 30
-3.18551095890001
 10
50.88790932760139
 20
170.9999988045254
 30
-2.130078583699997
 10
54.36732238540162
 20
170.9999988045254
 30
-1.967271560400007
  0
ARC
  5
268D
330
2650
100
AcDbEntity
  8
0
100
AcDbCircle
 10
-73.013731032147
 20
-57.02292066598129
 30
72.99737932798255
 40
49.99999999658
210
-0.1316774943729972
220
0.9903422518915789
230
0.0433965620062891
100
AcDbArc
 50
3.503304581556474
 51
87.15643484767678
  0
SPLINE
  5
268E
330
2650
100
AcDbEntity
  8
0
100
AcDbSpline
 70
     0
 71
     3
 72
    15
 73
    11
 74
     0
 42
0.0000000001
 43
0.0000000001
 40
0.0
 40
0.0
 40
0.0
 40
0.0
 40
0.125
 40
0.25
 40
0.375
 40
0.5
 40
0.625
 40
0.75
 40
0.875
 40
1.0
 40
1.0
 40
1.0
 40
1.0
 10
12.98481523470172
 20
264.3404646163254
 30
-50.7489400159
 10
13.61606690510143
 20
269.0190893045354
 30
-50.81096275330001
 10
15.75046483010146
 20
278.0075100999253
 30
-50.913715392
 10
21.23144442960165
 20
290.1752802019254
 30
-51.00905103079999
 10
27.5970038256014
 20
299.6862248165254
 30
-51.073042556
 10
34.75517050140161
 20
307.6772855133254
 30
-51.115480495
 10
43.06305013890141
 20
314.7311497937254
 30
-51.1637713029
 10
52.90145597840137
 20
320.8366056673254
 30
-51.18940618269999
 10
64.41644899050152
 20
325.6796408002253
 30
-51.1910620026
 10
73.65649100110158
 20
327.7156508727254
 30
-51.14865245949999
 10
78.53882080150151
 20
328.2482643410254
 30
-51.1123876173
  0
SPLINE
  5
268F
330
2650
100
AcDbEntity
  8
0
100
AcDbSpline
 70
     0
 71
     3
 72
    12
 73
     8
 74
     0
 42
0.0000000001
 43
0.0000000001
 40
0.0
 40
0.0
 40
0.0
 40
0.0
 40
0.2
 40
0.4
 40
0.6
 40
0.8
 40
1.0
 40
1.0
 40
1.0
 40
1.0
 10
12.98480472870142
 20
77.65953156598539
 30
-50.7489393675
 10
12.01255703950164
 20
84.96111433034537
 30
-50.45197682520001
 10
10.37551563890156
 20
99.01589419153538
 30
-49.95211729579999
 10
8.703257387501707
 20
118.0398829148054
 30
-49.4416852623
 10
7.585321615101747
 20
136.0965224302254
 30
-49.10053686809999
 10
6.940285738001421
 20
153.5906883236453
 30
-48.9037293223
 10
6.797601847501482
 20
165.2227246274514
 30
-48.8601983753
 10
6.797601337701507
 20
170.9999988045254
 30
-48.86019814089999
  0
SPLINE
  5
2690
330
2650
100
AcDbEntity
  8
0
100
AcDbSpline
 70
     0
 71
     3
 72
    15
 73
    11
 74
     0
 42
0.0000000001
 43
0.0000000001
 40
0.0
 40
0.0
 40
0.0
 40
0.0
 40
0.125
 40
0.25
 40
0.375
 40
0.5
 40
0.625
 40
0.75
 40
0.875
 40
1.0
 40
1.0
 40
1.0
 40
1.0
 10
78.53882194880134
 20
13.75174373562538
 30
-51.1123882614
 10
73.64544997570146
 20
14.28552992272537
 30
-51.14873778679999
 10
64.38919790660157
 20
16.32812105182537
 30
-51.1911267137
 10
52.87090054620148
 20
21.17909727692538
 30
-51.18937564060001
 10
43.03942751650175
 20
27.28675248612538
 30
-51.1636458744
 10
34.74544318520157
 20
34.33331519612537
 30
-51.1154355492
 10
27.60089305980137
 20
42.31050665192538
 30
-51.0730375011
 10
21.24099624220162
 20
51.80715136962537
 30
-51.0091949949
 10
15.75047480950161
 20
63.98954789562537
 30
-50.91373888319999
 10
13.61623127030179
 20
72.97978672934539
 30
-50.8109918929
 10
12.98480472870142
 20
77.65953156598539
 30
-50.7489393675
  0
SPLINE
  5
2691
330
2650
100
AcDbEntity
  8
0
100
AcDbSpline
 70
     0
 71
     3
 72
    12
 73
     8
 74
     0
 42
0.0000000001
 43
0.0000000001
 40
0.0
 40
0.0
 40
0.0
 40
0.0
 40
0.2
 40
0.4
 40
0.6
 40
0.8
 40
1.0
 40
1.0
 40
1.0
 40
1.0
 10
6.797601337701507
 20
170.9999988045254
 30
-48.86019814089999
 10
6.797601966301499
 20
176.7805693303023
 30
-48.8601984184
 10
6.940436821101684
 20
188.4176697406554
 30
-48.9037753652
 10
7.585951130901776
 20
205.9162803447754
 30
-49.10072905379999
 10
8.704025098001693
 20
223.9698826432154
 30
-49.4419192367
 10
10.37620413400145
 20
242.9904812898754
 30
-49.9523286876
 10
12.01287800370164
 20
257.0412130080954
 30
-50.45207229259999
 10
12.98481523470172
 20
264.3404646163254
 30
-50.7489400159
  0
SPLINE
  5
2692
330
2650
100
AcDbEntity
  8
0
100
AcDbSpline
 70
     0
 71
     3
 72
    12
 73
     8
 74
     0
 42
0.0000000001
 43
0.0000000001
 40
0.0
 40
0.0
 40
0.0
 40
0.0
 40
0.2
 40
0.4
 40
0.6
 40
0.8
 40
1.0
 40
1.0
 40
1.0
 40
1.0
 10
60.26531281100142
 20
81.89355151815538
 30
-3.909975904100008
 10
59.33386701590143
 20
88.89894807063535
 30
-3.603001465999994
 10
57.78074504650158
 20
102.2583708219053
 30
-3.091298795200003
 10
56.18303762970163
 20
120.4534810929854
 30
-2.565092312500013
 10
55.11801756550176
 20
137.6712720388453
 30
-2.214412049000003
 10
54.50279706850142
 20
154.4494361080253
 30
-2.011869316099989
 10
54.36732348700161
 20
165.3866273355714
 30
-1.967271682199992
 10
54.36732238540162
 20
170.9999988045254
 30
-1.967271560400007
  0
SPLINE
  5
2693
330
2650
100
AcDbEntity
  8
0
100
AcDbSpline
 70
     0
 71
     3
 72
    15
 73
    11
 74
     0
 42
0.0000000001
 43
0.0000000001
 40
0.0
 40
0.0
 40
0.0
 40
0.0
 40
0.125
 40
0.25
 40
0.375
 40
0.5
 40
0.625
 40
0.75
 40
0.875
 40
1.0
 40
1.0
 40
1.0
 40
1.0
 10
82.4113639572015
 20
60.28674846292537
 30
-4.283808868600004
 10
80.86156290880172
 20
60.45480198402538
 30
-4.321860327699994
 10
77.91816375920143
 20
61.09243360272538
 30
-4.3785095753
 10
74.01768265820146
 20
62.72842040612538
 30
-4.415201338900004
 10
70.67110146540153
 20
64.80020052642537
 30
-4.414891237200009
 10
67.6916153744014
 20
67.32845012812538
 30
-4.382151761599999
 10
65.12671262190179
 20
70.20089427892537
 30
-4.321682424899989
 10
62.97063820940138
 20
73.43823575697536
 30
-4.231922514699988
 10
61.12482266410143
 20
77.56106873954536
 30
-4.091020349800004
 10
60.46308824540165
 20
80.41104663731539
 30
-3.974914631500013
 10
60.26531281100142
 20
81.89355151815538
 30
-3.909975904100008
  0
SPLINE
  5
2694
330
2650
100
AcDbEntity
  8
0
100
AcDbSpline
 70
     0
 71
     3
 72
    12
 73
     8
 74
     0
 42
0.0000000001
 43
0.0000000001
 40
0.0
 40
0.0
 40
0.0
 40
0.0
 40
0.2
 40
0.4
 40
0.6
 40
0.8
 40
1.0
 40
1.0
 40
1.0
 40
1.0
 10
54.36732238540162
 20
170.9999988045254
 30
-1.967271560400007
 10
54.3673237237017
 20
176.6130991994363
 30
-1.967271706100007
 10
54.50273527960144
 20
187.5501711598653
 30
-2.011849029100005
 10
55.1183976484017
 20
204.3371846459254
 30
-2.214537134599993
 10
56.18356782490173
 20
221.5532656907654
 30
-2.565266992000005
 10
57.78131500750169
 20
239.7469940639854
 30
-3.091486307100012
 10
59.3341495923014
 20
253.1031739672754
 30
-3.603095119399995
 10
60.26531283510166
 20
260.1064460634054
 30
-3.909976457200002
  0
SPLINE
  5
2695
330
2650
100
AcDbEntity
  8
0
100
AcDbSpline
 70
     0
 71
     3
 72
    15
 73
    11
 74
     0
 42
0.0000000001
 43
0.0000000001
 40
0.0
 40
0.0
 40
0.0
 40
0.0
 40
0.125
 40
0.25
 40
0.375
 40
0.5
 40
0.625
 40
0.75
 40
0.875
 40
1.0
 40
1.0
 40
1.0
 40
1.0
 10
60.26531283510166
 20
260.1064460634054
 30
-3.909976457200002
 10
60.46312138080157
 20
261.5885183943953
 30
-3.974893025999989
 10
61.12464606440153
 20
264.4378040479554
 30
-4.090972498199988
 10
62.96765929680169
 20
268.5560657716854
 30
-4.231740156699999
 10
65.12489198090134
 20
271.7974724134254
 30
-4.321659062999998
 10
67.69595652000134
 20
274.6761695921254
 30
-4.382243028000004
 10
70.67879411490139
 20
277.2055651013253
 30
-4.414939746699985
 10
74.02858502020172
 20
279.2772373041254
 30
-4.415150876199987
 10
77.92664757350166
 20
280.9097876214254
 30
-4.378365028699988
 10
80.86497826420146
 20
281.5456785138254
 30
-4.321781951100007
 10
82.41136394000159
 20
281.7132491798254
 30
-4.283808321399988
  0
ARC
  5
2696
330
2650
100
AcDbEntity
  8
0
100
AcDbCircle
 10
360.9167616690947
 20
-64.33104768076566
 30
-170.9999988045254
 40
50.13774190294729
210
0.0
220
-1.0
230
0.0
100
AcDbArc
 50
4.336301111018439
 51
82.20014257746163
  0
ARC
  5
2697
330
2650
100
AcDbEntity
  8
0
100
AcDbCircle
 10
386.2819609649487
 20
-58.73358624760077
 30
-210.4600904944498
 40
49.99999999411
210
0.1323615691404971
220
-0.9906521882137779
230
0.0329948026500993
100
AcDbArc
 50
3.501909194484424
 51
82.56818998183062
  0
SPLINE
  5
2698
330
2650
100
AcDbEntity
  8
0
100
AcDbSpline
210
-0.0000000000111302
220
-1.0
230
-0.0000000000100398
 70
     8
 71
     3
 72
    13
 73
     9
 74
     0
 42
0.0000000001
 43
0.0000000001
 40
0.0
 40
0.0
 40
0.0
 40
0.0
 40
0.1666666666667
 40
0.3333333333333
 40
0.5
 40
0.6666666666667
 40
0.8333333333332999
 40
1.0
 40
1.0
 40
1.0
 40
1.0
 10
410.9544384781015
 20
170.9999988045265
 30
-61.15596076329
 10
410.7200469341014
 20
170.9999988044815
 30
-57.3236933439
 10
409.3645397854015
 20
170.9999988044133
 30
-49.7136026542
 10
404.7784980850015
 20
170.9999988043549
 30
-39.0641187479
 10
397.8819773425016
 20
170.9999988043472
 30
-29.74315386789999
 10
389.0393622958018
 20
170.9999988043793
 30
-22.2431178256
 10
378.7177886671015
 20
170.9999988044428
 30
-16.9602768528
 10
371.2144611943017
 20
170.9999988044971
 30
-15.10260261299999
 10
367.4062051211017
 20
170.9999988045255
 30
-14.6143418414
  0
ARC
  5
2699
330
2650
100
AcDbEntity
  8
0
100
AcDbCircle
 10
340.9919159807737
 20
-69.91851211308333
 30
-128.3361657101627
 40
49.99999993064
210
-0.1323428936370051
220
-0.9906545975190386
230
-0.0329973774439113
100
AcDbArc
 50
3.501906135885292
 51
82.56800849756769
  0
ARC
  5
269A
330
2650
100
AcDbEntity
  8
0
100
AcDbCircle
 10
-28.30462621825495
 20
-28.55682177358324
 30
-342.6366254886984
 40
49.99999999578999
210
-0.9892889893676125
220
-0.1018585566404013
230
0.1045568264397013
100
AcDbArc
 50
3.519313889109408
 51
85.81824822534088
  0
ARC
  5
269B
330
2650
100
AcDbEntity
  8
0
100
AcDbCircle
 10
311.8908695761844
 20
-32.21809204920174
 30
307.807201991418
 40
49.99999992867
210
0.9892907888218761
220
-0.1018395268571976
230
-0.1045583374087975
100
AcDbArc
 50
3.519402262914189
 51
85.81814372227396
  0
SPLINE
  5
269C
330
2650
100
AcDbEntity
  8
0
100
AcDbSpline
 70
     0
 71
     3
 72
    15
 73
    11
 74
     0
 42
0.0000000001
 43
0.0000000001
 40
0.0
 40
0.0
 40
0.0
 40
0.0
 40
0.125
 40
0.25
 40
0.375
 40
0.5
 40
0.625
 40
0.75
 40
0.875
 40
1.0
 40
1.0
 40
1.0
 40
1.0
 10
338.5281318238017
 20
328.8599076085254
 30
-61.17287317239
 10
342.2664377604015
 20
328.4563562842254
 30
-61.27053675777
 10
349.9293749331018
 20
326.9833044404254
 30
-61.44726834351001
 10
361.4629293197018
 20
322.6157126298253
 30
-61.64599175664
 10
372.5161159763015
 20
316.1299347577254
 30
-61.83340676823999
 10
382.5077853811017
 20
307.7765757814254
 30
-62.03278364265999
 10
391.1278203674015
 20
298.0148729362254
 30
-62.31105875068999
 10
397.8870041812015
 20
287.1657528768253
 30
-62.51985676354999
 10
402.5489165953013
 20
275.7872117653254
 30
-62.63906409642
 10
404.2286567590017
 20
268.1670052781554
 30
-62.62422988379999
 10
404.7330383703015
 20
264.4378532040154
 30
-62.59327080430999
  0
SPLINE
  5
269D
330
2650
100
AcDbEntity
  8
0
100
AcDbSpline
 70
     0
 71
     3
 72
    15
 73
    11
 74
     0
 42
0.0000000001
 43
0.0000000001
 40
0.0
 40
0.0
 40
0.0
 40
0.0
 40
0.125
 40
0.25
 40
0.375
 40
0.5
 40
0.625
 40
0.75
 40
0.875
 40
1.0
 40
1.0
 40
1.0
 40
1.0
 10
404.7330183385015
 20
77.56214712646539
 30
-62.59327204064
 10
404.2288051336018
 20
73.83416564640538
 30
-62.62420485129999
 10
402.5495273914016
 20
66.21492872142538
 30
-62.63906221914
 10
397.8877168306017
 20
54.83511116792538
 30
-62.51992425246
 10
391.1266796047016
 20
43.98373113122537
 30
-62.31091731354
 10
382.5081678419015
 20
34.22378031062539
 30
-62.03297982809001
 10
372.5146324565017
 20
25.86893148562538
 30
-61.83322260552
 10
361.4638449114018
 20
19.38498840642538
 30
-61.64611448606
 10
349.9315607422013
 20
15.01725446522536
 30
-61.44721846548001
 10
342.2676246883016
 20
13.54375848172537
 30
-61.27063791649999
 10
338.5281339363014
 20
13.14007073342537
 30
-61.17287198726
  0
SPLINE
  5
269E
330
2650
100
AcDbEntity
  8
0
100
AcDbSpline
 70
     0
 71
     3
 72
    10
 73
     6
 74
     0
 42
0.0000000001
 43
0.0000000001
 40
0.0
 40
0.0
 40
0.0
 40
0.0
 40
0.3333333333333
 40
0.6666666666667
 40
1.0
 40
1.0
 40
1.0
 40
1.0
 10
410.9544384781015
 20
170.9999988045265
 30
-61.15596076329
 10
410.9544311667013
 20
160.6706792637754
 30
-61.15596287375
 10
410.5028551101013
 20
139.9537400539553
 30
-61.26023691986
 10
408.4149066584013
 20
108.5342285647354
 30
-61.74247488274
 10
406.1104385691014
 20
87.86002425039539
 30
-62.27491263924
 10
404.7330183385015
 20
77.56214712646539
 30
-62.59327204064
  0
SPLINE
  5
269F
330
2650
100
AcDbEntity
  8
0
100
AcDbSpline
 70
     0
 71
     3
 72
    10
 73
     6
 74
     0
 42
0.0000000001
 43
0.0000000001
 40
0.0
 40
0.0
 40
0.0
 40
0.0
 40
0.3333333333333
 40
0.6666666666667
 40
1.0
 40
1.0
 40
1.0
 40
1.0
 10
404.7330383703015
 20
264.4378532040154
 30
-62.59327080430999
 10
406.1115198735015
 20
254.1320446039053
 30
-62.27466609454999
 10
408.4164925688014
 20
233.4473212891954
 30
-61.74210684861001
 10
410.5028540059015
 20
202.0420253928154
 30
-61.26023788144
 10
410.9544327591015
 20
181.3275792349554
 30
-61.15596247904
 10
410.9544384781015
 20
170.9999988045265
 30
-61.15596076329
  0
SPLINE
  5
26A0
330
2650
100
AcDbEntity
  8
0
100
AcDbSpline
210
0.0
220
1.0
230
0.0
 70
     8
 71
     3
 72
    12
 73
     8
 74
     0
 42
0.0000000001
 43
0.0000000001
 40
0.0
 40
0.0
 40
0.0
 40
0.0
 40
13.65203489206125
 40
13.65203489206125
 40
211.9239307147779
 40
211.9239307147779
 40
218.8439637155193
 40
218.8439637155193
 40
218.8439637155193
 40
218.8439637155193
 10
146.6073108808777
 20
170.9999988045254
 30
0.0
 10
151.157124447302
 20
170.9999988045254
 30
-0.0887100715101905
 10
155.7083664757088
 20
170.9999988045254
 30
-0.076506962143208
 10
226.3445153320904
 20
170.9999988045254
 30
-0.9304313833283039
 10
292.4885161759703
 20
170.9999988045254
 30
-5.362372523551618
 10
360.3725709301161
 20
170.9999988045254
 30
-13.72580912126435
 10
362.66124585942
 20
170.9999988045254
 30
-14.01347250502973
 10
364.949916209197
 20
170.9999988045254
 30
-14.30113530952517
  0
ARC
  5
26A1
330
2650
100
AcDbEntity
  8
0
100
AcDbCircle
 10
138.0761902718918
 20
-1805.180970027906
 30
-170.9999988045254
 40
1805.190491135768
210
0.0
220
-1.0
230
0.0
100
AcDbArc
 50
82.71148113610143
 51
89.79063801506837
  0
ARC
  5
26A2
330
2650
100
AcDbEntity
  8
0
100
AcDbCircle
 10
-138.4999997957016
 20
-1800.0
 30
170.9999988045254
 40
1800.0
210
0.0
220
1.0
230
0.0
100
AcDbArc
 50
90.0
 51
97.30609445914412
  0
SPLINE
  5
26A3
330
2650
100
AcDbEntity
  8
0
100
AcDbSpline
 70
     0
 71
     3
 72
    10
 73
     6
 74
     0
 42
0.0000000001
 43
0.0000000001
 40
0.0
 40
0.0
 40
0.0
 40
0.0
 40
0.3333333333333
 40
0.6666666666667
 40
1.0
 40
1.0
 40
1.0
 40
1.0
 10
361.4730511433017
 20
260.2066172422754
 30
-16.0927161578
 10
362.7938175918016
 20
250.3213611489754
 30
-15.76347681249998
 10
364.9827689873018
 20
230.6523957682454
 30
-15.21800213879999
 10
366.9771107593015
 20
200.5881663987454
 30
-14.72121034299999
 10
367.4061939749017
 20
180.9132662034824
 30
-14.6143423531
 10
367.4062051211017
 20
170.9999988045255
 30
-14.6143418414
  0
SPLINE
  5
26A4
330
2650
100
AcDbEntity
  8
0
100
AcDbSpline
 70
     0
 71
     3
 72
    10
 73
     6
 74
     0
 42
0.0000000001
 43
0.0000000001
 40
0.0
 40
0.0
 40
0.0
 40
0.0
 40
0.3333333333333
 40
0.6666666666667
 40
1.0
 40
1.0
 40
1.0
 40
1.0
 10
367.4062051211017
 20
170.9999988045255
 30
-14.6143418414
 10
367.4061910104015
 20
161.0876537365764
 30
-14.6143424816
 10
366.9774004745014
 20
141.4138945825854
 30
-14.7211389617
 10
364.9814150165016
 20
111.3311151966454
 30
-15.21833877879999
 10
362.7928416569016
 20
91.67133822153539
 30
-15.76372067930001
 10
361.4730510490017
 20
81.79338040450536
 30
-16.09271691199998
  0
SPLINE
  5
26A5
330
2650
100
AcDbEntity
  8
0
100
AcDbSpline
 70
     0
 71
     3
 72
    15
 73
    11
 74
     0
 42
0.0000000001
 43
0.0000000001
 40
0.0
 40
0.0
 40
0.0
 40
0.0
 40
0.125
 40
0.25
 40
0.375
 40
0.5
 40
0.625
 40
0.75
 40
0.875
 40
1.0
 40
1.0
 40
1.0
 40
1.0
 10
361.4730510490017
 20
81.79338040450536
 30
-16.09271691199998
 10
361.3424006486016
 20
80.82298240169535
 30
-16.12491910559998
 10
360.9009756315018
 20
78.72414628908538
 30
-16.17620187209999
 10
359.4106230077013
 20
75.04203765658536
 30
-16.18487749979999
 10
357.0630845959017
 20
71.2131528874254
 30
-16.1051255877
 10
353.5113192422013
 20
67.18217977922538
 30
-15.90292841760001
 10
349.3628817073013
 20
63.74771255132538
 30
-15.61157935419999
 10
345.4523571908016
 20
61.51113417272537
 30
-15.29027375550001
 10
341.7204244377017
 20
60.13244198392538
 30
-14.9469954043
 10
339.6245987187017
 20
59.75819319392538
 30
-14.73388856380001
 10
338.6575048436016
 20
59.65760028352537
 30
-14.63173454810001
  0
SPLINE
  5
26A6
330
2650
100
AcDbEntity
  8
0
100
AcDbSpline
 70
     0
 71
     3
 72
    15
 73
    11
 74
     0
 42
0.0000000001
 43
0.0000000001
 40
0.0
 40
0.0
 40
0.0
 40
0.0
 40
0.125
 40
0.25
 40
0.375
 40
0.5
 40
0.625
 40
0.75
 40
0.875
 40
1.0
 40
1.0
 40
1.0
 40
1.0
 10
338.6575047541014
 20
282.3423972758254
 30
-14.6317353462
 10
339.6242188804017
 20
282.2418548267254
 30
-14.7338499226
 10
341.7195093991018
 20
281.8679193034254
 30
-14.9469125057
 10
345.4527792019017
 20
280.4885407184254
 30
-15.29030388359999
 10
349.3622323205018
 20
278.2529770601254
 30
-15.6115416673
 10
353.5138092686016
 20
274.8153992219254
 30
-15.9030878081
 10
357.0623338065015
 20
270.7875279004454
 30
-16.10507436489999
 10
359.4109430336016
 20
266.9575789229254
 30
-16.1848956188
 10
360.9005748391014
 20
263.2767804440554
 30
-16.17620127000001
 10
361.3423432580016
 20
261.1774050166654
 30
-16.124930627
 10
361.4730511433017
 20
260.2066172422754
 30
-16.0927161578
  0
ENDBLK
  5
26A7
330
2650
100
AcDbEntity
  8
0
100
AcDbBlockEnd
  0
BLOCK
  5
4D4A
330
4D40
100
AcDbEntity
  8
0
100
AcDbBlockBegin
  2
*D6
 70
     1
 10
0.0
 20
0.0
 30
0.0
  3
*D6
  1

  0
LINE
  5
4E2A
330
4D40
100
AcDbEntity
  8
0
 62
     0
370
    -2
100
AcDbLine
 10
8997.325705208298
 20
1051.396299848361
 30
0.0
 11
8997.325705208298
 21
755.7531403427104
 31
0.0
  0
LINE
  5
4E2B
330
4D40
100
AcDbEntity
  8
0
 62
     0
370
    -2
100
AcDbLine
 10
9689.311198161057
 20
1047.913655270386
 30
0.0
 11
9689.311198161057
 21
755.7531403427104
 31
0.0
  0
LINE
  5
4E2C
330
4D40
100
AcDbEntity
  8
0
 62
     0
370
    -2
100
AcDbLine
 10
9017.325705208298
 20
765.7531403427103
 30
0.0
 11
9669.311198161057
 21
765.7531403427103
 31
0.0
  0
SOLID
  5
4E2D
330
4D40
100
AcDbEntity
  8
0
 62
     0
100
AcDbTrace
 10
9017.325705208298
 20
769.0864736760437
 30
0.0
 11
9017.325705208298
 21
762.4198070093769
 31
0.0
 12
8997.325705208298
 22
765.7531403427103
 32
0.0
 13
8997.325705208298
 23
765.7531403427103
 33
0.0
  0
SOLID
  5
4E2E
330
4D40
100
AcDbEntity
  8
0
 62
     0
100
AcDbTrace
 10
9669.311198161057
 20
769.0864736760437
 30
0.0
 11
9669.311198161057
 21
762.4198070093769
 31
0.0
 12
9689.311198161057
 22
765.7531403427103
 32
0.0
 13
9689.311198161057
 23
765.7531403427103
 33
0.0
  0
MTEXT
  5
4E2F
330
4D40
100
AcDbEntity
  8
0
 62
     0
100
AcDbMText
 10
9343.318451684679
 20
780.7531403427104
 30
0.0
 40
20.0
 41
0.0
 71
     5
 72
     1
  1
\A1;692
 73
     1
 44
1.0
  0
POINT
  5
4E30
330
4D40
100
AcDbEntity
  8
DEFPOINTS
 62
     0
100
AcDbPoint
 10
8997.325705208298
 20
1056.396299848361
 30
-0.0000001169040047
  0
POINT
  5
4E31
330
4D40
100
AcDbEntity
  8
DEFPOINTS
 62
     0
100
AcDbPoint
 10
9689.311198161057
 20
1052.913655270386
 30
-0.0000001169040047
  0
POINT
  5
4E32
330
4D40
100
AcDbEntity
  8
DEFPOINTS
 62
     0
100
AcDbPoint
 10
9689.311198161057
 20
765.7531403427103
 30
0.0
  0
ENDBLK
  5
4D4B
330
4D40
100
AcDbEntity
  8
0
100
AcDbBlockEnd
  0
BLOCK
  5
4D57
330
4D4D
100
AcDbEntity
  8
0
100
AcDbBlockBegin
  2
*D7
 70
     1
 10
0.0
 20
0.0
 30
0.0
  3
*D7
  1

  0
LINE
  5
4DB2
330
4D4D
100
AcDbEntity
  8
0
 62
     0
370
    -2
100
AcDbLine
 10
9338.320978526125
 20
843.2214308619395
 30
0.0
 11
8920.113275829164
 21
843.2214308619395
 31
0.0
  0
LINE
  5
4DB3
330
4D4D
100
AcDbEntity
  8
0
 62
     0
370
    -2
100
AcDbLine
 10
9338.320978526125
 20
1263.22143086193
 30
0.0
 11
8920.113275829164
 21
1263.22143086193
 31
0.0
  0
LINE
  5
4DB4
330
4D4D
100
AcDbEntity
  8
0
 62
     0
370
    -2
100
AcDbLine
 10
8930.113275829164
 20
863.2214308619396
 30
0.0
 11
8930.113275829164
 21
1243.221430861929
 31
0.0
  0
SOLID
  5
4DB5
330
4D4D
100
AcDbEntity
  8
0
 62
     0
100
AcDbTrace
 10
8926.77994249583
 20
863.2214308619396
 30
0.0
 11
8933.446609162499
 21
863.2214308619396
 31
0.0
 12
8930.113275829164
 22
843.2214308619395
 32
0.0
 13
8930.113275829164
 23
843.2214308619395
 33
0.0
  0
SOLID
  5
4DB6
330
4D4D
100
AcDbEntity
  8
0
 62
     0
100
AcDbTrace
 10
8926.77994249583
 20
1243.221430861929
 30
0.0
 11
8933.446609162499
 21
1243.221430861929
 31
0.0
 12
8930.113275829164
 22
1263.22143086193
 32
0.0
 13
8930.113275829164
 23
1263.22143086193
 33
0.0
  0
MTEXT
  5
4DB7
330
4D4D
100
AcDbEntity
  8
0
 62
     0
100
AcDbMText
 10
8915.113275829163
 20
1053.221430861936
 30
0.0
 40
20.0
 41
0.0
 71
     5
 72
     1
  1
\A1;420
 11
0.0000000000000001
 21
1.0
 31
0.0
 73
     1
 44
1.0
  0
POINT
  5
4DB8
330
4D4D
100
AcDbEntity
  8
DEFPOINTS
 62
     0
100
AcDbPoint
 10
9343.320978526124
 20
843.2214308619395
 30
-0.0000001169040047
  0
POINT
  5
4DB9
330
4D4D
100
AcDbEntity
  8
DEFPOINTS
 62
     0
100
AcDbPoint
 10
9343.320978526124
 20
1263.22143086193
 30
-0.0000001169040047
  0
POINT
  5
4DBA
330
4D4D
100
AcDbEntity
  8
DEFPOINTS
 62
     0
100
AcDbPoint
 10
8930.113275829164
 20
1263.22143086193
 30
0.0
  0
ENDBLK
  5
4D58
330
4D4D
100
AcDbEntity
  8
0
100
AcDbBlockEnd
  0
BLOCK
  5
4D64
330
4D5A
100
AcDbEntity
  8
0
100
AcDbBlockBegin
  2
*D8
 70
     1
 10
0.0
 20
0.0
 30
0.0
  3
*D8
  1

  0
LINE
  5
4E3C
330
4D5A
100
AcDbEntity
  8
0
 62
     0
370
    -2
100
AcDbLine
 10
8990.975705208299
 20
1051.396299848361
 30
0.0
 11
8990.975705208299
 21
692.1779249827682
 31
0.0
  0
LINE
  5
4E3D
330
4D5A
100
AcDbEntity
  8
0
 62
     0
370
    -2
100
AcDbLine
 10
9695.661171418651
 20
1047.89522627616
 30
0.0
 11
9695.661171418651
 21
692.1779249827682
 31
0.0
  0
LINE
  5
4E3E
330
4D5A
100
AcDbEntity
  8
0
 62
     0
370
    -2
100
AcDbLine
 10
9010.975705208299
 20
702.1779249827682
 30
0.0
 11
9675.661171418653
 21
702.1779249827682
 31
0.0
  0
SOLID
  5
4E3F
330
4D5A
100
AcDbEntity
  8
0
 62
     0
100
AcDbTrace
 10
9010.975705208299
 20
705.5112583161015
 30
0.0
 11
9010.975705208299
 21
698.8445916494348
 31
0.0
 12
8990.975705208299
 22
702.1779249827682
 32
0.0
 13
8990.975705208299
 23
702.1779249827682
 33
0.0
  0
SOLID
  5
4E40
330
4D5A
100
AcDbEntity
  8
0
 62
     0
100
AcDbTrace
 10
9675.661171418653
 20
705.5112583161015
 30
0.0
 11
9675.661171418653
 21
698.8445916494348
 31
0.0
 12
9695.661171418651
 22
702.1779249827682
 32
0.0
 13
9695.661171418651
 23
702.1779249827682
 33
0.0
  0
MTEXT
  5
4E41
330
4D5A
100
AcDbEntity
  8
0
 62
     0
100
AcDbMText
 10
9343.318438313476
 20
717.1779249827682
 30
0.0
 40
20.0
 41
0.0
 71
     5
 72
     1
  1
\A1;704.7
 73
     1
 44
1.0
  0
POINT
  5
4E42
330
4D5A
100
AcDbEntity
  8
DEFPOINTS
 62
     0
100
AcDbPoint
 10
8990.975705208299
 20
1056.396299848361
 30
-0.0000001169040047
  0
POINT
  5
4E43
330
4D5A
100
AcDbEntity
  8
DEFPOINTS
 62
     0
100
AcDbPoint
 10
9695.661171418651
 20
1052.89522627616
 30
-0.0000001169040047
  0
POINT
  5
4E44
330
4D5A
100
AcDbEntity
  8
DEFPOINTS
 62
     0
100
AcDbPoint
 10
9695.661171418651
 20
702.1779249827682
 30
0.0
  0
ENDBLK
  5
4D65
330
4D5A
100
AcDbEntity
  8
0
100
AcDbBlockEnd
  0
BLOCK
  5
4D71
330
4D67
100
AcDbEntity
  8
0
100
AcDbBlockBegin
  2
*D9
 70
     1
 10
0.0
 20
0.0
 30
0.0
  3
*D9
  1

  0
LINE
  5
4DC4
330
4D67
100
AcDbEntity
  8
0
 62
     0
370
    -2
100
AcDbLine
 10
9335.939728526124
 20
836.8714308619395
 30
0.0
 11
8838.907589059571
 21
836.8714308619397
 31
0.0
  0
LINE
  5
4DC5
330
4D67
100
AcDbEntity
  8
0
 62
     0
370
    -2
100
AcDbLine
 10
9335.939728526126
 20
1269.57143086193
 30
0.0
 11
8838.907589059571
 21
1269.57143086193
 31
0.0
  0
LINE
  5
4DC6
330
4D67
100
AcDbEntity
  8
0
 62
     0
370
    -2
100
AcDbLine
 10
8848.907589059569
 20
856.8714308619396
 30
0.0
 11
8848.907589059569
 21
1249.571430861929
 31
0.0
  0
SOLID
  5
4DC7
330
4D67
100
AcDbEntity
  8
0
 62
     0
100
AcDbTrace
 10
8845.574255726237
 20
856.8714308619396
 30
0.0
 11
8852.240922392905
 21
856.8714308619396
 31
0.0
 12
8848.907589059569
 22
836.8714308619397
 32
0.0
 13
8848.907589059569
 23
836.8714308619397
 33
0.0
  0
SOLID
  5
4DC8
330
4D67
100
AcDbEntity
  8
0
 62
     0
100
AcDbTrace
 10
8845.574255726237
 20
1249.571430861929
 30
0.0
 11
8852.240922392905
 21
1249.571430861929
 31
0.0
 12
8848.907589059569
 22
1269.57143086193
 32
0.0
 13
8848.907589059569
 23
1269.57143086193
 33
0.0
  0
MTEXT
  5
4DC9
330
4D67
100
AcDbEntity
  8
0
 62
     0
100
AcDbMText
 10
8833.90758905957
 20
1053.221430861936
 30
0.0
 40
20.0
 41
0.0
 71
     5
 72
     1
  1
\A1;432.7
 11
0.0000000000000001
 21
1.0
 31
0.0
 73
     1
 44
1.0
  0
POINT
  5
4DCA
330
4D67
100
AcDbEntity
  8
DEFPOINTS
 62
     0
100
AcDbPoint
 10
9340.939728526123
 20
836.8714308619395
 30
-0.0000001169040047
  0
POINT
  5
4DCB
330
4D67
100
AcDbEntity
  8
DEFPOINTS
 62
     0
100
AcDbPoint
 10
9340.939728526127
 20
1269.57143086193
 30
-0.0000001169040047
  0
POINT
  5
4DCC
330
4D67
100
AcDbEntity
  8
DEFPOINTS
 62
     0
100
AcDbPoint
 10
8848.907589059569
 20
1269.57143086193
 30
0.0
  0
ENDBLK
  5
4D72
330
4D67
100
AcDbEntity
  8
0
100
AcDbBlockEnd
  0
BLOCK
  5
4D7A
330
4D74
100
AcDbEntity
  8
0
100
AcDbBlockBegin
  2
*D10
 70
     1
 10
0.0
 20
0.0
 30
0.0
  3
*D10
  1

  0
LINE
  5
4E4F
330
4D74
100
AcDbEntity
  8
0
 62
     0
370
    -2
100
AcDbLine
 10
9103.136176739614
 20
1164.368982470997
 30
0.0
 11
9033.866532436572
 21
1208.959762833342
 31
0.0
  0
MTEXT
  5
4E50
330
4D74
100
AcDbEntity
  8
0
 62
     0
100
AcDbMText
 10
9085.028939049236
 20
1193.864299865676
 30
0.0
 40
20.0
 41
0.0
 71
     5
 72
     1
  1
\A1;R85
 11
0.8408453932739144
 21
-0.5412753685602521
 31
0.0
 73
     1
 44
1.0
  0
SOLID
  5
4E51
330
4D74
100
AcDbEntity
  8
0
 62
     0
100
AcDbTrace
 10
9035.670783665109
 20
1211.762580810921
 30
0.0
 11
9032.062281208039
 21
1206.156944855762
 31
0.0
 12
9017.049624571095
 22
1219.785270204547
 32
0.0
 13
9017.049624571095
 23
1219.785270204547
 33
0.0
  0
POINT
  5
4E52
330
4D74
100
AcDbEntity
  8
DEFPOINTS
 62
     0
100
AcDbPoint
 10
9017.049624571095
 20
1219.785270204547
 30
0.0000001933795631
  0
POINT
  5
4E53
330
4D74
100
AcDbEntity
  8
DEFPOINTS
 62
     0
100
AcDbPoint
 10
9088.521482999377
 20
1173.776863876926
 30
-0.0000001169040047
  0
ENDBLK
  5
4D7B
330
4D74
100
AcDbEntity
  8
0
100
AcDbBlockEnd
  0
BLOCK
  5
4D83
330
4D7D
100
AcDbEntity
  8
0
100
AcDbBlockBegin
  2
*D11
 70
     1
 10
0.0
 20
0.0
 30
0.0
  3
*D11
  1

  0
LINE
  5
4E4A
330
4D7D
100
AcDbEntity
  8
0
 62
     0
370
    -2
100
AcDbLine
 10
9134.150780257922
 20
1074.749957100539
 30
0.0
 11
9017.501493821358
 21
1076.763681250464
 31
0.0
  0
MTEXT
  5
4E4B
330
4D7D
100
AcDbEntity
  8
0
 62
     0
100
AcDbMText
 10
9086.083554696335
 20
1090.581979647352
 30
0.0
 40
20.0
 41
0.0
 71
     5
 72
     1
  1
\A1;R1200
 11
0.999851026599104
 21
-0.0172604927136476
 31
0.0
 73
     1
 44
1.0
  0
SOLID
  5
4E4C
330
4D7D
100
AcDbEntity
  8
0
 62
     0
100
AcDbTrace
 10
9017.559028797071
 20
1080.096518005795
 30
0.0
 11
9017.443958845644
 21
1073.430844495134
 31
0.0
 12
8997.504473289374
 22
1077.108891104737
 32
0.0
 13
8997.504473289374
 23
1077.108891104737
 33
0.0
  0
POINT
  5
4E4D
330
4D7D
100
AcDbEntity
  8
DEFPOINTS
 62
     0
100
AcDbPoint
 10
8997.504473289374
 20
1077.108891104737
 30
0.0000000073895096
  0
POINT
  5
4E4E
330
4D7D
100
AcDbEntity
  8
DEFPOINTS
 62
     0
100
AcDbPoint
 10
10197.3257052083
 20
1056.39629984836
 30
-0.0000001169040047
  0
ENDBLK
  5
4D84
330
4D7D
100
AcDbEntity
  8
0
100
AcDbBlockEnd
  0
BLOCK
  5
4D8C
330
4D86
100
AcDbEntity
  8
0
100
AcDbBlockBegin
  2
*D12
 70
     1
 10
0.0
 20
0.0
 30
0.0
  3
*D12
  1

  0
LINE
  5
4E45
330
4D86
100
AcDbEntity
  8
0
 62
     0
370
    -2
100
AcDbLine
 10
9104.058682831089
 20
941.6346893976765
 30
0.0
 11
9033.734421637257
 21
898.726419766584
 31
0.0
  0
MTEXT
  5
4E46
330
4D86
100
AcDbEntity
  8
0
 62
     0
100
AcDbMText
 10
9069.620245827762
 20
938.1937793790012
 30
0.0
 40
20.0
 41
0.0
 71
     5
 72
     1
  1
\A1;R85
 11
0.8536471011967961
 21
0.5208518278918746
 31
0.0
 73
     1
 44
1.0
  0
SOLID
  5
4E47
330
4D86
100
AcDbEntity
  8
0
 62
     0
100
AcDbTrace
 10
9031.998248877618
 20
901.5719101039067
 30
0.0
 11
9035.470594396896
 21
895.8809294292613
 31
0.0
 12
9016.661479613322
 22
888.3093832087466
 32
0.0
 13
9016.661479613322
 23
888.3093832087466
 33
0.0
  0
POINT
  5
4E48
330
4D86
100
AcDbEntity
  8
DEFPOINTS
 62
     0
100
AcDbPoint
 10
9016.661479613322
 20
888.3093832087466
 30
0.0000002608367916
  0
POINT
  5
4E49
330
4D86
100
AcDbEntity
  8
DEFPOINTS
 62
     0
100
AcDbPoint
 10
9089.221483215052
 20
932.5817885795572
 30
-0.0000001169040047
  0
ENDBLK
  5
4D8D
330
4D86
100
AcDbEntity
  8
0
100
AcDbBlockEnd
  0
BLOCK
  5
4D95
330
4D8F
100
AcDbEntity
  8
0
100
AcDbBlockBegin
  2
*D13
 70
     1
 10
0.0
 20
0.0
 30
0.0
  3
*D13
  1

  0
LINE
  5
4E68
330
4D8F
100
AcDbEntity
  8
0
 62
     0
370
    -2
100
AcDbLine
 10
9586.527535636385
 20
946.1258427371321
 30
0.0
 11
9638.157078341322
 21
881.9307367299607
 31
0.0
  0
MTEXT
  5
4E69
330
4D8F
100
AcDbEntity
  8
0
 62
     0
100
AcDbMText
 10
9617.763841338117
 20
931.2215141344504
 30
0.0
 40
20.0
 41
0.0
 71
     5
 72
     1
  1
\A1;R85
 11
0.6267169923720549
 21
-0.7792469515321351
 31
0.0
 73
     1
 44
1.0
  0
SOLID
  5
4E6A
330
4D8F
100
AcDbEntity
  8
0
 62
     0
100
AcDbTrace
 10
9640.754568179762
 20
884.0197933712007
 30
0.0
 11
9635.559588502882
 21
879.8416800887208
 31
0.0
 12
9650.691418188763
 22
866.3457976993177
 32
0.0
 13
9650.691418188763
 23
866.3457976993177
 33
0.0
  0
POINT
  5
4E6B
330
4D8F
100
AcDbEntity
  8
DEFPOINTS
 62
     0
100
AcDbPoint
 10
9650.691418188763
 20
866.3457976993177
 30
0.0000002313766846
  0
POINT
  5
4E6C
330
4D8F
100
AcDbEntity
  8
DEFPOINTS
 62
     0
100
AcDbPoint
 10
9597.420473837138
 20
932.5817885795505
 30
-0.0000001169040047
  0
ENDBLK
  5
4D96
330
4D8F
100
AcDbEntity
  8
0
100
AcDbBlockEnd
  0
BLOCK
  5
4D9E
330
4D98
100
AcDbEntity
  8
0
100
AcDbBlockBegin
  2
*D14
 70
     1
 10
0.0
 20
0.0
 30
0.0
  3
*D14
  1

  0
LINE
  5
4E59
330
4D98
100
AcDbEntity
  8
0
 62
     0
370
    -2
100
AcDbLine
 10
9588.681276968353
 20
1159.182376422084
 30
0.0
 11
9633.420485067265
 21
1228.356248468364
 31
0.0
  0
MTEXT
  5
4E5A
330
4D98
100
AcDbEntity
  8
0
 62
     0
100
AcDbMText
 10
9593.024867494488
 20
1193.518640434493
 30
0.0
 40
20.0
 41
0.0
 71
     5
 72
     1
  1
\A1;R85
 11
0.5430770925301304
 21
0.8396828398681375
 31
0.0
 73
     1
 44
1.0
  0
SOLID
  5
4E5B
330
4D98
100
AcDbEntity
  8
0
 62
     0
100
AcDbTrace
 10
9630.621542267705
 20
1230.166505443464
 30
0.0
 11
9636.219427866826
 21
1226.545991493263
 31
0.0
 12
9644.282026917867
 22
1245.149905265727
 32
0.0
 13
9644.282026917867
 23
1245.149905265727
 33
0.0
  0
POINT
  5
4E5C
330
4D98
100
AcDbEntity
  8
DEFPOINTS
 62
     0
100
AcDbPoint
 10
9644.282026917867
 20
1245.149905265727
 30
0.0000001086045732
  0
POINT
  5
4E5D
330
4D98
100
AcDbEntity
  8
DEFPOINTS
 62
     0
100
AcDbPoint
 10
9598.120474052807
 20
1173.776863876933
 30
-0.0000001169040047
  0
ENDBLK
  5
4D9F
330
4D98
100
AcDbEntity
  8
0
100
AcDbBlockEnd
  0
BLOCK
  5
4DA7
330
4DA1
100
AcDbEntity
  8
0
100
AcDbBlockBegin
  2
*D15
 70
     1
 10
0.0
 20
0.0
 30
0.0
  3
*D15
  1

  0
LINE
  5
4E5E
330
4DA1
100
AcDbEntity
  8
0
 62
     0
370
    -2
100
AcDbLine
 10
9552.499988891577
 20
1074.23219217488
 30
0.0
 11
9669.150242172673
 21
1076.189108260862
 31
0.0
  0
MTEXT
  5
4E5F
330
4DA1
100
AcDbEntity
  8
0
 62
     0
100
AcDbMText
 10
9600.574918896978
 20
1090.040804260928
 30
0.0
 40
20.0
 41
0.0
 71
     5
 72
     1
  1
\A1;R1200
 11
0.9998593138379542
 21
0.0167735664512732
 31
0.0
 73
     1
 44
1.0
  0
SOLID
  5
4E60
330
4DA1
100
AcDbEntity
  8
0
 62
     0
100
AcDbTrace
 10
9669.094330284503
 20
1079.521972640322
 30
0.0
 11
9669.206154060844
 21
1072.856243881402
 31
0.0
 12
9689.147428449432
 22
1076.524579589888
 32
0.0
 13
9689.147428449432
 23
1076.524579589888
 33
0.0
  0
POINT
  5
4E61
330
4DA1
100
AcDbEntity
  8
DEFPOINTS
 62
     0
100
AcDbPoint
 10
9689.147428449432
 20
1076.524579589888
 30
0.0000000053160952
  0
POINT
  5
4E62
330
4DA1
100
AcDbEntity
  8
DEFPOINTS
 62
     0
100
AcDbPoint
 10
8489.316251843886
 20
1056.396299848361
 30
-0.0000001169040047
  0
ENDBLK
  5
4DA8
330
4DA1
100
AcDbEntity
  8
0
100
AcDbBlockEnd
  0
ENDSEC
  0
SECTION
  2
ENTITIES
  0
INSERT
  5
576
330
18
100
AcDbEntity
  8
0
100
AcDbBlockReference
  2
OREFER
 10
0.0
 20
0.0
 30
0.0
  0
MTEXT
  5
3C7E
330
18
100
AcDbEntity
  8
0
100
AcDbMText
 10
9157.573863282596
 20
1347.909368684871
 30
0.0400026308106476
 40
5.0
 41
884.2669372951187
 71
     1
 72
     5
  1
{\H8x;KKD505}
 73
     1
 44
1.0
  0
LINE
  5
4912
330
18
100
AcDbEntity
  8
0
100
AcDbLine
 10
9202.803917379588
 20
1153.115157567974
 30
0.0040002630812538
 11
9128.605808051368
 21
1153.115157567974
 31
0.0040002630812538
  0
ARC
  5
4913
330
18
100
AcDbEntity
  8
0
100
AcDbCircle
 10
9219.47336589176
 20
1130.589540797729
 30
0.0040002630812538
 40
21.4
100
AcDbArc
 50
6.246964541693257
 51
82.27406338160891
  0
ARC
  5
4914
330
18
100
AcDbEntity
  8
0
100
AcDbCircle
 10
9202.803454493309
 20
1007.715157568489
 30
0.0040002630812538
 40
145.4
100
AcDbArc
 50
82.27406338160891
 51
90.0
  0
ARC
  5
4915
330
18
100
AcDbEntity
  8
0
100
AcDbCircle
 10
8996.803454493308
 20
1106.215157568489
 30
0.0040002630812538
 40
245.4
100
AcDbArc
 50
353.7530354583585
 51
6.246964541693257
  0
ARC
  5
4916
330
18
100
AcDbEntity
  8
0
100
AcDbCircle
 10
9219.47336589176
 20
1081.840774339249
 30
0.0040002630812538
 40
21.4
100
AcDbArc
 50
277.7259366183912
 51
353.7530354583585
  0
LINE
  5
4918
330
18
100
AcDbEntity
  8
0
100
AcDbLine
 10
9202.803917379588
 20
1059.315157569226
 30
0.0040002630812538
 11
9128.605808051368
 21
1059.315157569226
 31
0.0040002630812538
  0
ARC
  5
4919
330
18
100
AcDbEntity
  8
0
100
AcDbCircle
 10
9202.803454493309
 20
1204.715157568489
 30
0.0040002630812538
 40
145.4
100
AcDbArc
 50
270.0
 51
277.7259366183912
  0
ARC
  5
491A
330
18
100
AcDbEntity
  8
0
100
AcDbCircle
 10
9128.60627093875
 20
1204.715157568489
 30
0.0040002630812538
 40
145.4
100
AcDbArc
 50
262.2740633816089
 51
270.0
  0
ARC
  5
491B
330
18
100
AcDbEntity
  8
0
100
AcDbCircle
 10
9111.936359540301
 20
1081.840774339249
 30
0.0040002630812538
 40
21.4
100
AcDbArc
 50
186.2469645416414
 51
262.2740633816089
  0
ARC
  5
491C
330
18
100
AcDbEntity
  8
0
100
AcDbCircle
 10
9334.606270938749
 20
1106.215157568489
 30
0.0040002630812538
 40
245.4
100
AcDbArc
 50
173.7530354583067
 51
186.2469645416414
  0
ARC
  5
491D
330
18
100
AcDbEntity
  8
0
100
AcDbCircle
 10
9111.936359540301
 20
1130.589540797729
 30
0.0040002630812538
 40
21.4
100
AcDbArc
 50
97.7259366183911
 51
173.7530354583067
  0
ARC
  5
491E
330
18
100
AcDbEntity
  8
0
100
AcDbCircle
 10
9128.60627093875
 20
1007.715157568489
 30
0.0040002630812538
 40
145.4
100
AcDbArc
 50
90.0
 51
97.7259366183911
  0
CIRCLE
  5
491F
330
18
100
AcDbEntity
  8
0
100
AcDbCircle
 10
9202.945402578221
 20
1122.214835126059
 30
33.2221105335446
 40
9.200000000000001
  0
CIRCLE
  5
4920
330
18
100
AcDbEntity
  8
0
100
AcDbCircle
 10
9202.945402578221
 20
1122.214835126059
 30
33.2221105335446
 40
11.4
  0
SPLINE
  5
4987
330
18
100
AcDbEntity
  8
0
100
AcDbSpline
 70
     0
 71
     3
 72
    15
 73
    11
 74
     0
 42
0.0000000001
 43
0.0000000001
 40
0.0
 40
0.0
 40
0.0
 40
0.0
 40
0.125
 40
0.25
 40
0.375
 40
0.5
 40
0.625
 40
0.75
 40
0.875
 40
1.0
 40
1.0
 40
1.0
 40
1.0
 10
9235.719120068919
 20
1132.3520085707
 30
0.000000001601002
 10
9235.622270805679
 20
1133.23639607932
 30
-0.0000083568360054
 10
9235.28227180998
 20
1134.993872274439
 30
-0.0172695834015997
 10
9234.337960394579
 20
1137.52658669378
 30
-0.0696137742054006
 10
9232.9825628019
 20
1139.87264522936
 30
-0.1205954849805977
 10
9231.27039277544
 20
1141.94684647972
 30
-0.1493580380373984
 10
9229.240872883259
 20
1143.71223879434
 30
-0.1206048485114053
 10
9226.931257033941
 20
1145.12742000678
 30
-0.069627049613203
 10
9224.423778829621
 20
1146.13702073078
 30
-0.0172847920886028
 10
9222.675145027277
 20
1146.52246498704
 30
-0.0000071938392026
 10
9221.793157240018
 20
1146.64216197074
 30
0.0000000016012009
  0
ARC
  5
4988
330
18
100
AcDbEntity
  8
0
100
AcDbCircle
 10
9202.945402578221
 20
1007.714835126043
 30
-0.0000000233671997
 40
140.2
100
AcDbArc
 50
82.27406338171219
 51
97.72593661828782
  0
SPLINE
  5
4989
330
18
100
AcDbEntity
  8
0
100
AcDbSpline
 70
     0
 71
     3
 72
    15
 73
    11
 74
     0
 42
0.0000000001
 43
0.0000000001
 40
0.0
 40
0.0
 40
0.0
 40
0.0
 40
0.125
 40
0.25
 40
0.375
 40
0.5
 40
0.625
 40
0.75
 40
0.875
 40
1.0
 40
1.0
 40
1.0
 40
1.0
 10
9184.097647916717
 20
1146.64216197078
 30
0.000000001601002
 10
9183.216054714602
 20
1146.52251887166
 30
-0.0000083568360054
 10
9181.467939393199
 20
1146.13727256532
 30
-0.0172695834017986
 10
9178.960441450058
 20
1145.127906207459
 30
-0.0696137742049956
 10
9176.65014737032
 20
1143.71240822026
 30
-0.1205954849807966
 10
9174.620828330558
 20
1141.94727330716
 30
-0.1493580380371995
 10
9172.908406172338
 20
1139.87286462776
 30
-0.1206048485114053
 10
9171.553307743719
 20
1137.52749227262
 30
-0.0696270496134019
 10
9170.6087615308
 20
1134.9947915365
 30
-0.0172847920886028
 10
9170.268578033139
 20
1133.23679192408
 30
-0.0000071938390036
 10
9170.171685087559
 20
1132.352008571
 30
0.0000000016012009
  0
ARC
  5
498A
330
18
100
AcDbEntity
  8
0
100
AcDbCircle
 10
9408.945402578249
 20
1106.21483512606
 30
0.0
 40
240.2
100
AcDbArc
 50
173.7530354582808
 51
186.2469645417191
  0
SPLINE
  5
498B
330
18
100
AcDbEntity
  8
0
100
AcDbSpline
 70
     0
 71
     3
 72
    15
 73
    11
 74
     0
 42
0.0000000001
 43
0.0000000001
 40
0.0
 40
0.0
 40
0.0
 40
0.0
 40
0.125
 40
0.25
 40
0.375
 40
0.5
 40
0.625
 40
0.75
 40
0.875
 40
1.0
 40
1.0
 40
1.0
 40
1.0
 10
9170.17168508754
 20
1080.07766168128
 30
0.000000001601002
 10
9170.267888673718
 20
1079.199087409359
 30
-0.0000066515000015
 10
9170.605482860239
 20
1077.45059646058
 30
-0.003742972737399
 10
9171.539222510839
 20
1074.93254550494
 30
-0.0176250137724026
 10
9172.896234864321
 20
1072.57227015934
 30
-0.0295252538968001
 10
9174.620947936679
 20
1070.48052544554
 30
-0.0376526841997986
 10
9176.669215853682
 20
1068.7017160597
 30
-0.0295045366537963
 10
9178.994535002619
 20
1067.28493566134
 30
-0.0175963065311962
 10
9181.486401549681
 20
1066.28796179968
 30
-0.0037282603617967
 10
9183.223334789053
 20
1065.90615412284
 30
-0.0000063484788058
 10
9184.097647916422
 20
1065.78750828138
 30
0.0000000016012009
  0
ARC
  5
498C
330
18
100
AcDbEntity
  8
0
100
AcDbCircle
 10
9202.945402578221
 20
1204.714835126077
 30
-0.0000000233806006
 40
140.2
100
AcDbArc
 50
262.2740633816089
 51
277.7259366183912
  0
SPLINE
  5
498D
330
18
100
AcDbEntity
  8
0
100
AcDbSpline
 70
     0
 71
     3
 72
    15
 73
    11
 74
     0
 42
0.0000000001
 43
0.0000000001
 40
0.0
 40
0.0
 40
0.0
 40
0.0
 40
0.125
 40
0.25
 40
0.375
 40
0.5
 40
0.625
 40
0.75
 40
0.875
 40
1.0
 40
1.0
 40
1.0
 40
1.0
 10
9221.793157239849
 20
1065.78750828136
 30
0.000000001601002
 10
9222.668955806849
 20
1065.9063558785
 30
-0.0000066515000015
 10
9224.408150943501
 20
1066.288966266999
 30
-0.003742972737399
 10
9226.901263165798
 20
1067.28738591692
 30
-0.0176250137721965
 10
9229.225727642379
 20
1068.70486506382
 30
-0.029525253897404
 10
9231.272260564379
 20
1070.48299164224
 30
-0.0376526841999976
 10
9232.997611436379
 20
1072.57648839634
 30
-0.0295045366535973
 10
9234.35390321498
 20
1074.937600094879
 30
-0.0175963065305993
 10
9235.286229709901
 20
1077.4543684744
 30
-0.0037282603615978
 10
9235.623079831899
 20
1079.20057756132
 30
-0.0000063484788058
 10
9235.71912006888
 20
1080.07766168112
 30
0.0000000016012009
  0
ARC
  5
498E
330
18
100
AcDbEntity
  8
0
100
AcDbCircle
 10
8996.945402578189
 20
1106.21483512606
 30
0.000000000000199
 40
240.2
100
AcDbArc
 50
353.7530354582808
 51
6.246964541719155
  0
ARC
  5
49C8
330
18
100
AcDbEntity
  8
0
100
AcDbCircle
 10
9334.464322852767
 20
1106.21483512606
 30
0.000000000000199
 40
240.2
100
AcDbArc
 50
173.7530354582808
 51
186.2469645417192
  0
SPLINE
  5
49C9
330
18
100
AcDbEntity
  8
0
100
AcDbSpline
 70
     0
 71
     3
 72
    15
 73
    11
 74
     0
 42
0.0000000001
 43
0.0000000001
 40
0.0
 40
0.0
 40
0.0
 40
0.0
 40
0.125
 40
0.25
 40
0.375
 40
0.5
 40
0.625
 40
0.75
 40
0.875
 40
1.0
 40
1.0
 40
1.0
 40
1.0
 10
9109.616568191105
 20
1065.78750828136
 30
0.000000001601002
 10
9108.740769624109
 20
1065.9063558785
 30
-0.0000066515000015
 10
9107.001574487457
 20
1066.288966266999
 30
-0.003742972737399
 10
9104.508462265156
 20
1067.28738591692
 30
-0.0176250137721965
 10
9102.183997788577
 20
1068.70486506382
 30
-0.029525253897404
 10
9100.137464866577
 20
1070.48299164224
 30
-0.0376526841999976
 10
9098.412113994577
 20
1072.57648839634
 30
-0.0295045366535973
 10
9097.055822215976
 20
1074.937600094879
 30
-0.0175963065305993
 10
9096.123495721057
 20
1077.4543684744
 30
-0.0037282603615978
 10
9095.786645599057
 20
1079.20057756132
 30
-0.0000063484788058
 10
9095.690605362078
 20
1080.07766168112
 30
0.0000000016012009
  0
ARC
  5
49CA
330
18
100
AcDbEntity
  8
0
100
AcDbCircle
 10
9128.464322852737
 20
1204.714835126077
 30
-0.0000000233806006
 40
140.2
100
AcDbArc
 50
262.2740633816089
 51
277.7259366183912
  0
SPLINE
  5
49CB
330
18
100
AcDbEntity
  8
0
100
AcDbSpline
 70
     0
 71
     3
 72
    15
 73
    11
 74
     0
 42
0.0000000001
 43
0.0000000001
 40
0.0
 40
0.0
 40
0.0
 40
0.0
 40
0.125
 40
0.25
 40
0.375
 40
0.5
 40
0.625
 40
0.75
 40
0.875
 40
1.0
 40
1.0
 40
1.0
 40
1.0
 10
9161.238040343416
 20
1080.07766168128
 30
0.000000001601002
 10
9161.141836757236
 20
1079.199087409359
 30
-0.0000066515000015
 10
9160.804242570717
 20
1077.45059646058
 30
-0.003742972737399
 10
9159.870502920117
 20
1074.93254550494
 30
-0.0176250137724026
 10
9158.513490566637
 20
1072.57227015934
 30
-0.0295252538968001
 10
9156.788777494277
 20
1070.48052544554
 30
-0.0376526841997986
 10
9154.740509577276
 20
1068.7017160597
 30
-0.0295045366537963
 10
9152.415190428337
 20
1067.28493566134
 30
-0.0175963065311962
 10
9149.923323881276
 20
1066.28796179968
 30
-0.0037282603617967
 10
9148.186390641903
 20
1065.90615412284
 30
-0.0000063484788058
 10
9147.312077514534
 20
1065.78750828138
 30
0.0000000016012009
  0
ARC
  5
49CC
330
18
100
AcDbEntity
  8
0
100
AcDbCircle
 10
8922.464322852707
 20
1106.21483512606
 30
0.0
 40
240.2
100
AcDbArc
 50
353.7530354582809
 51
6.246964541719153
  0
SPLINE
  5
49CD
330
18
100
AcDbEntity
  8
0
100
AcDbSpline
 70
     0
 71
     3
 72
    15
 73
    11
 74
     0
 42
0.0000000001
 43
0.0000000001
 40
0.0
 40
0.0
 40
0.0
 40
0.0
 40
0.125
 40
0.25
 40
0.375
 40
0.5
 40
0.625
 40
0.75
 40
0.875
 40
1.0
 40
1.0
 40
1.0
 40
1.0
 10
9147.312077514241
 20
1146.64216197078
 30
0.000000001601002
 10
9148.193670716356
 20
1146.52251887166
 30
-0.0000083568360054
 10
9149.941786037755
 20
1146.13727256532
 30
-0.0172695834017986
 10
9152.449283980898
 20
1145.127906207459
 30
-0.0696137742049956
 10
9154.759578060637
 20
1143.71240822026
 30
-0.1205954849807966
 10
9156.788897100398
 20
1141.94727330716
 30
-0.1493580380371995
 10
9158.501319258617
 20
1139.87286462776
 30
-0.1206048485114053
 10
9159.856417687237
 20
1137.52749227262
 30
-0.0696270496134019
 10
9160.800963900156
 20
1134.9947915365
 30
-0.0172847920886028
 10
9161.141147397817
 20
1133.23679192408
 30
-0.0000071938390036
 10
9161.238040343397
 20
1132.352008571
 30
0.0000000016012009
  0
ARC
  5
49CE
330
18
100
AcDbEntity
  8
0
100
AcDbCircle
 10
9128.464322852737
 20
1007.714835126043
 30
-0.0000000233671997
 40
140.2
100
AcDbArc
 50
82.27406338171219
 51
97.72593661828782
  0
SPLINE
  5
49CF
330
18
100
AcDbEntity
  8
0
100
AcDbSpline
 70
     0
 71
     3
 72
    15
 73
    11
 74
     0
 42
0.0000000001
 43
0.0000000001
 40
0.0
 40
0.0
 40
0.0
 40
0.0
 40
0.125
 40
0.25
 40
0.375
 40
0.5
 40
0.625
 40
0.75
 40
0.875
 40
1.0
 40
1.0
 40
1.0
 40
1.0
 10
9095.690605362037
 20
1132.3520085707
 30
0.000000001601002
 10
9095.787454625277
 20
1133.23639607932
 30
-0.0000083568360054
 10
9096.127453620978
 20
1134.993872274439
 30
-0.0172695834015997
 10
9097.071765036377
 20
1137.52658669378
 30
-0.0696137742054006
 10
9098.427162629056
 20
1139.87264522936
 30
-0.1205954849805977
 10
9100.139332655517
 20
1141.94684647972
 30
-0.1493580380373984
 10
9102.168852547697
 20
1143.71223879434
 30
-0.1206048485114053
 10
9104.478468397017
 20
1145.12742000678
 30
-0.069627049613203
 10
9106.985946601337
 20
1146.13702073078
 30
-0.0172847920886028
 10
9108.73458040368
 20
1146.52246498704
 30
-0.0000071938392026
 10
9109.616568190938
 20
1146.64216197074
 30
0.0000000016012009
  0
CIRCLE
  5
49D0
330
18
100
AcDbEntity
  8
0
100
AcDbCircle
 10
9128.464322852737
 20
1122.214835126059
 30
33.2221105335446
 40
11.4
  0
CIRCLE
  5
49D1
330
18
100
AcDbEntity
  8
0
100
AcDbCircle
 10
9128.464322852737
 20
1122.214835126059
 30
33.2221105335446
 40
9.200000000000001
  0
ARC
  5
4A13
330
18
100
AcDbEntity
  8
DESHED
100
AcDbCircle
 10
9088.521482999377
 20
1173.776863876927
 30
-0.0000001169040047
 40
85.0
100
AcDbArc
 50
96.89249880003245
 51
173.9570441114108
  0
ARC
  5
4A14
330
18
100
AcDbEntity
  8
DESHED
100
AcDbCircle
 10
10197.3257052083
 20
1056.396299848361
 30
-0.0000001169040047
 40
1200.0
100
AcDbArc
 50
173.9570441114108
 51
186.3755244152194
  0
ARC
  5
4A15
330
18
100
AcDbEntity
  8
DESHED
100
AcDbCircle
 10
9089.22148321505
 20
932.5817885795562
 30
-0.0000001169040047
 40
85.0
100
AcDbArc
 50
186.3755244152194
 51
263.1731861252727
  0
ARC
  5
4A16
330
18
100
AcDbEntity
  8
DESHED
100
AcDbCircle
 10
9162.325705208331
 20
1543.221430861939
 30
-0.0000001169040047
 40
700.0
100
AcDbArc
 50
263.1731861252727
 51
270.0
  0
ARC
  5
4A17
330
18
100
AcDbEntity
  8
DESHED
100
AcDbCircle
 10
9162.32570520833
 20
563.2214308619294
 30
-0.0000001169040047
 40
700.0
100
AcDbArc
 50
90.0
 51
96.89249880003245
  0
ARC
  5
4A18
330
18
100
AcDbEntity
  8
DESHED
100
AcDbCircle
 10
9598.120474052809
 20
1173.776863876934
 30
-0.0000001169040047
 40
85.0
100
AcDbArc
 50
6.04295588858915
 51
83.10750120007103
  0
ARC
  5
4A19
330
18
100
AcDbEntity
  8
DESHED
100
AcDbCircle
 10
9524.316251843913
 20
563.2214308619294
 30
-0.0000001169040047
 40
700.0
100
AcDbArc
 50
83.10750120007103
 51
90.0
  0
ARC
  5
4A1A
330
18
100
AcDbEntity
  8
DESHED
100
AcDbCircle
 10
8489.316251843886
 20
1056.396299848361
 30
-0.0000001169040047
 40
1200.0
100
AcDbArc
 50
353.6244755847806
 51
6.04295588858915
  0
ARC
  5
4A1B
330
18
100
AcDbEntity
  8
DESHED
100
AcDbCircle
 10
9597.420473837138
 20
932.5817885795487
 30
-0.0000001169040047
 40
85.0
100
AcDbArc
 50
276.8268138747273
 51
353.6244755847806
  0
LINE
  5
4A1D
330
18
100
AcDbEntity
  8
DESHED
100
AcDbLine
 10
9162.325705207697
 20
1263.22143086193
 30
-0.0000001169040047
 11
9524.316251843913
 21
1263.22143086193
 31
-0.0000001169040047
  0
LINE
  5
4A1E
330
18
100
AcDbEntity
  8
DESHED
100
AcDbLine
 10
9524.316251843917
 20
843.2214308619395
 30
-0.0000001169040047
 11
9162.325705208331
 21
843.2214308619395
 31
-0.0000001169040047
  0
ARC
  5
4A1F
330
18
100
AcDbEntity
  8
DESHED
100
AcDbCircle
 10
9524.316251843918
 20
1543.221430861939
 30
-0.0000001169040047
 40
700.0
100
AcDbArc
 50
270.0
 51
276.8268138747273
  0
MTEXT
  5
4C8A
330
18
100
AcDbEntity
  8
0
 62
     0
100
AcDbMText
 10
9090.790428757303
 20
930.1438194895787
 30
0.0
 40
6.0
 41
315.6503843244575
 71
     1
 72
     5
  1
{\fBatang|b0|i0|c0|p18;Please check actual template against physical sink unit for most accurate cut!}
 73
     1
 44
1.0
  0
MTEXT
  5
4C8B
330
18
100
AcDbEntity
  8
0
 62
     0
100
AcDbMText
 10
9090.790428757303
 20
954.4859025338279
 30
0.0
 40
6.0
 41
315.6503843244575
 71
     1
 72
     5
  1
{\fBatang|b1|i0|c0|p18;Use inside line for flush mount cut:\fBatang|b0|i0|c0|p18;\PSink wall is flush to the edge of countertop opening.}
 73
     1
 44
1.0
  0
MTEXT
  5
4C8C
330
18
100
AcDbEntity
  8
0
 62
     0
100
AcDbMText
 10
9090.790428757303
 20
982.7541277694519
 30
0.0
 40
6.0
 41
315.6503843244575
 71
     1
 72
     5
  1
{\fBatang|b1|i0|c0|p18;Use outside line for reveal mount cut:\fBatang|b0|i0|c0|p18;\PSink rim is 1/4" revealed from the coutnertop opening.}
 73
     1
 44
1.0
  0
LWPOLYLINE
  5
4C8D
330
18
100
AcDbEntity
  8
0
 62
     0
100
AcDbPolyline
 90
        2
 70
     0
 43
0.8128
 10
9544.637840509299
 20
857.9418110252985
 10
9551.822045406156
 20
850.7576061284433
  0
MTEXT
  5
4C8E
330
18
100
AcDbEntity
  8
0
 62
     0
100
AcDbMText
 10
9405.74523210863
 20
864.6183086612934
 30
0.0
 40
6.0
 41
315.6503843244575
 71
     1
 72
     5
  1
{\fBatang|b0|i0|c0|p18;\H0.9259x;Use this line for FLUSH MOUNT CUT\H1.08x;}
 73
     1
 44
1.0
  0
LWPOLYLINE
  5
4C8F
330
18
100
AcDbEntity
  8
0
 62
     0
100
AcDbPolyline
 90
        2
 70
     0
 10
9551.774967456797
 20
850.804684077803
 40
3.0084784128
 41
0.5014130687999999
 10
9557.093256173656
 20
845.4863953609429
 40
0.5014130687999999
 41
0.5014130687999999
  0
SPLINE
  5
4C90
330
18
100
AcDbEntity
  8
DIM
 62
     0
100
AcDbSpline
210
0.0
220
0.0
230
1.0
 70
     8
 71
     3
 72
    10
 73
     6
 74
     0
 42
0.0000000001
 43
0.0000000001
 40
168.1890314628042
 40
168.1890314628042
 40
168.1890314628042
 40
168.1890314628042
 40
240.3970488653276
 40
404.4385438063731
 40
531.2097876496541
 40
531.2097876496541
 40
531.2097876496541
 40
531.2097876496541
 10
9497.141159780367
 20
1143.604067787087
 30
0.0
 10
9498.100943510847
 20
1142.627298019792
 30
0.0
 10
9500.459579965086
 20
1139.04965182295
 30
0.0
 10
9498.467586479026
 20
1130.808259387402
 30
0.0
 10
9501.010461596296
 20
1125.70265996161
 30
0.0
 10
9502.515020291538
 20
1123.62023977448
 30
0.0
  0
LINE
  5
4C91
330
18
100
AcDbEntity
  8
DIM
 62
     0
100
AcDbLine
 10
9548.411347431501
 20
1135.620239774481
 30
0.0
 11
9548.411347431501
 21
1112.812040730064
 31
0.0
  0
LINE
  5
4C92
102
{ACAD_REACTORS
330
4D28
102
}
330
18
100
AcDbEntity
  8
DIM
  6
ByBlock
 62
     0
100
AcDbLine
 10
9545.1113474315
 20
1131.875699040047
 30
0.0
 11
9545.1113474315
 21
1123.62023977448
 31
0.0
  0
LINE
  5
4C93
330
18
100
AcDbEntity
  8
DIM
 62
     0
100
AcDbLine
 10
9497.141159780357
 20
1143.604067787088
 30
0.0
 11
9583.988723702907
 21
1143.604067787088
 31
0.0
  0
ARC
  5
4C94
330
18
100
AcDbEntity
  8
DIM
 62
     0
100
AcDbCircle
 10
9583.988723702907
 20
1140.604067787088
 30
0.0
 40
3.0
100
AcDbArc
 50
0.0
 51
90.0
  0
LINE
  5
4C95
330
18
100
AcDbEntity
  8
DIM
 62
     0
100
AcDbLine
 10
9586.988723702905
 20
1140.604067787088
 30
0.0
 11
9586.988723702905
 21
1123.62023977448
 31
0.0
  0
LINE
  5
4C96
330
18
100
AcDbEntity
  8
DIM
 62
     0
100
AcDbLine
 10
9586.988723702905
 20
1123.62023977448
 30
0.0
 11
9551.711347431501
 21
1123.62023977448
 31
0.0
  0
LINE
  5
4C97
330
18
100
AcDbEntity
  8
DIM
 62
     0
100
AcDbLine
 10
9573.347974305429
 20
1123.62023977448
 30
0.0
 11
9587.926067474915
 21
1123.62023977448
 31
0.0
  0
LINE
  5
4C98
330
18
100
AcDbEntity
  8
DIM
 62
     0
100
AcDbLine
 10
9592.309761188888
 20
1122.579074714943
 30
0.0
 11
9576.393215708561
 21
1122.33427160826
 31
0.0
  0
LINE
  5
4C99
330
18
100
AcDbEntity
  8
DIM
 62
     0
100
AcDbLine
 10
9595.963269065897
 20
1119.095056092238
 30
0.0
 11
9596.899942589633
 21
1089.530169454782
 31
0.0
  0
ARC
  5
4C9A
330
18
100
AcDbEntity
  8
DIM
 62
     0
100
AcDbCircle
 10
9592.365124142222
 20
1118.979500442421
 30
0.0
 40
3.6
100
AcDbArc
 50
1.83944125196927
 51
90.8811635037197
  0
ARC
  5
4C9B
330
18
100
AcDbEntity
  8
DIM
 62
     0
100
AcDbCircle
 10
9592.365124142222
 20
1118.979500442421
 30
0.0
 40
2.4
100
AcDbArc
 50
1.83944125196927
 51
90.8811635037197
  0
LINE
  5
4C9C
330
18
100
AcDbEntity
  8
DIM
 62
     0
100
AcDbLine
 10
9594.763887424674
 20
1119.056537542299
 30
0.0
 11
9595.726144122208
 21
1089.094012498949
 31
0.0
  0
LINE
  5
4C9D
330
18
100
AcDbEntity
  8
DIM
 62
     0
100
AcDbLine
 10
9596.857204192316
 20
1091.259912225821
 30
0.0
 11
9595.726144122208
 21
1089.094012498949
 31
0.0
  0
LINE
  5
4C9E
330
18
100
AcDbEntity
  8
DIM
 62
     0
100
AcDbLine
 10
9583.514246097122
 20
1121.24365409916
 30
0.0
 11
9581.885402097071
 21
1117.645690938937
 31
0.0
  0
LINE
  5
4C9F
330
18
100
AcDbEntity
  8
DIM
 62
     0
100
AcDbLine
 10
9581.885402097071
 20
1117.645690938937
 30
0.0
 11
9550.211347431501
 21
1118.616151077946
 31
0.0
  0
LINE
  5
4CA0
330
18
100
AcDbEntity
  8
DIM
 62
     0
100
AcDbLine
 10
9517.293444080506
 20
1119.624721448845
 30
0.0
 11
9515.104791212191
 21
1123.62023977448
 31
0.0
  0
LINE
  5
4CA1
330
18
100
AcDbEntity
  8
DIM
 62
     0
100
AcDbLine
 10
9583.220908177862
 20
1115.50378696761
 30
0.0
 11
9550.211347431501
 21
1116.51516562591
 31
0.0
  0
LINE
  5
4CA2
330
18
100
AcDbEntity
  8
DIM
 62
     0
100
AcDbLine
 10
9585.42733425156
 20
1120.377574591629
 30
0.0
 11
9583.220908177862
 21
1115.50378696761
 31
0.0
  0
LINE
  5
4CA3
330
18
100
AcDbEntity
  8
DIM
 62
     0
100
AcDbLine
 10
9583.514246097122
 20
1121.24365409916
 30
0.0
 11
9585.42733425156
 21
1120.377574591629
 31
0.0
  0
LINE
  5
4CA4
330
18
100
AcDbEntity
  8
DIM
 62
     0
100
AcDbLine
 10
9516.028665036552
 20
1117.562487513145
 30
0.0
 11
9513.263011586266
 21
1122.611355336331
 31
0.0
  0
LINE
  5
4CA5
330
18
100
AcDbEntity
  8
DIM
 62
     0
100
AcDbLine
 10
9513.263011586266
 20
1122.611355336331
 30
0.0
 11
9515.104791212191
 21
1123.62023977448
 31
0.0
  0
LINE
  5
4CA6
330
18
100
AcDbEntity
  8
DIM
 62
     0
100
AcDbLine
 10
9555.011347431502
 20
1116.368098611079
 30
0.0
 11
9555.011347431502
 21
1115.768098611079
 31
0.0
  0
LINE
  5
4CA7
330
18
100
AcDbEntity
  8
DIM
 62
     0
100
AcDbLine
 10
9541.811347431499
 20
1116.368098611079
 30
0.0
 11
9541.811347431499
 21
1115.768098611079
 31
0.0
  0
ARC
  5
4CA8
330
18
100
AcDbEntity
  8
DIM
 62
     0
100
AcDbCircle
 10
9548.411347431501
 20
1117.453314138415
 30
0.0
 40
3.974915266213253
100
AcDbArc
 50
205.0850188777294
 51
260.0888321729869
  0
LINE
  5
4CA9
330
18
100
AcDbEntity
  8
DIM
 62
     0
100
AcDbLine
 10
9555.011347431502
 20
1116.368098611079
 30
0.0
 11
9550.211347431501
 21
1116.368098611079
 31
0.0
  0
LINE
  5
4CAA
330
18
100
AcDbEntity
  8
DIM
 62
     0
100
AcDbLine
 10
9555.011347431502
 20
1115.768098611079
 30
0.0
 11
9541.811347431499
 21
1115.768098611079
 31
0.0
  0
LINE
  5
4CAB
330
18
100
AcDbEntity
  8
DIM
 62
     0
100
AcDbLine
 10
9548.411347431501
 20
1114.199525671182
 30
0.0
 11
9547.727180603953
 21
1113.53772131923
 31
0.0
  0
LINE
  5
4CAC
330
18
100
AcDbEntity
  8
DIM
 62
     0
100
AcDbLine
 10
9548.411347431501
 20
1114.199525671182
 30
0.0
 11
9549.09551425905
 21
1113.53772131923
 31
0.0
  0
ARC
  5
4CAD
330
18
100
AcDbEntity
  8
DIM
 62
     0
100
AcDbCircle
 10
9548.411347431501
 20
1117.453314138415
 30
0.0
 40
3.974915266213253
100
AcDbArc
 50
279.9111678270131
 51
334.9149811222706
  0
LINE
  5
4CAE
330
18
100
AcDbEntity
  8
DIM
 62
     0
100
AcDbLine
 10
9546.311347431499
 20
1116.368098611079
 30
0.0
 11
9546.311347431499
 21
1115.768098611079
 31
0.0
  0
LINE
  5
4CAF
330
18
100
AcDbEntity
  8
DIM
 62
     0
100
AcDbLine
 10
9550.511347431502
 20
1116.368098611079
 30
0.0
 11
9550.511347431502
 21
1115.768098611079
 31
0.0
  0
LINE
  5
4CB0
330
18
100
AcDbEntity
  8
DIM
 62
     0
100
AcDbLine
 10
9546.6113474315
 20
1116.625465887032
 30
0.0
 11
9516.198951366622
 21
1117.557270116847
 31
0.0
  0
LINE
  5
4CB1
330
18
100
AcDbEntity
  8
DIM
 62
     0
100
AcDbLine
 10
9546.6113474315
 20
1118.72645133907
 30
0.0
 11
9517.293444080506
 21
1119.624721448845
 31
0.0
  0
LINE
  5
4CB2
330
18
100
AcDbEntity
  8
DIM
 62
     0
100
AcDbLine
 10
9545.1113474315
 20
1123.62023977448
 30
0.0
 11
9502.515020291527
 21
1123.62023977448
 31
0.0
  0
LINE
  5
4CB3
330
18
100
AcDbEntity
  8
DIM
 62
     0
100
AcDbLine
 10
9546.6113474315
 20
1116.368098611079
 30
0.0
 11
9541.811347431499
 21
1116.368098611079
 31
0.0
  0
LINE
  5
4CB4
330
18
100
AcDbEntity
  8
DESHED
  6
ByBlock
 62
     0
100
AcDbLine
 10
9550.211347431501
 20
1130.953841947863
 30
0.0
 11
9549.781510941853
 21
1130.615391490488
 31
0.0
  0
LINE
  5
4CB5
330
18
100
AcDbEntity
  8
DESHED
  6
ByBlock
 62
     0
100
AcDbLine
 10
9548.411347431501
 20
1130.815587930996
 30
0.0
 11
9550.211347431501
 21
1130.27694161519
 31
0.0
  0
LINE
  5
4CB6
330
18
100
AcDbEntity
  8
DESHED
  6
ByBlock
 62
     0
100
AcDbLine
 10
9550.211347431501
 20
1130.27694161519
 30
0.0
 11
9549.762691125719
 21
1129.957294025678
 31
0.0
  0
LINE
  5
4CB7
330
18
100
AcDbEntity
  8
DESHED
  6
ByBlock
 62
     0
100
AcDbLine
 10
9549.762691125719
 20
1129.957294025678
 30
0.0
 11
9550.211347431501
 21
1129.675252171892
 31
0.0
  0
LINE
  5
4CB8
330
18
100
AcDbEntity
  8
DESHED
  6
ByBlock
 62
     0
100
AcDbLine
 10
9550.211347431501
 20
1129.675252171892
 30
0.0
 11
9549.725050397304
 21
1129.261590243066
 31
0.0
  0
LINE
  5
4CB9
330
18
100
AcDbEntity
  8
DESHED
  6
ByBlock
 62
     0
100
AcDbLine
 10
9549.725050397304
 20
1129.261590243066
 30
0.0
 11
9550.211347431501
 21
1129.017154125006
 31
0.0
  0
LINE
  5
4CBA
330
18
100
AcDbEntity
  8
DESHED
  6
ByBlock
 62
     0
100
AcDbLine
 10
9550.211347431501
 20
1129.017154125006
 30
0.0
 11
9549.706230581174
 21
1128.697506535493
 31
0.0
  0
LINE
  5
4CBB
330
18
100
AcDbEntity
  8
DESHED
  6
ByBlock
 62
     0
100
AcDbLine
 10
9549.706230581174
 20
1128.697506535493
 30
0.0
 11
9550.211347431501
 21
1128.377858945981
 31
0.0
  0
LINE
  5
4CBC
330
18
100
AcDbEntity
  8
DESHED
  6
ByBlock
 62
     0
100
AcDbLine
 10
9550.211347431501
 20
1128.377858945981
 30
0.0
 11
9549.68741076504
 21
1127.983000467095
 31
0.0
  0
LINE
  5
4CBD
330
18
100
AcDbEntity
  8
DESHED
  6
ByBlock
 62
     0
100
AcDbLine
 10
9549.68741076504
 20
1127.983000467095
 30
0.0
 11
9550.211347431501
 21
1127.644550009721
 31
0.0
  0
LINE
  5
4CBE
330
18
100
AcDbEntity
  8
DESHED
  6
ByBlock
 62
     0
100
AcDbLine
 10
9550.211347431501
 20
1127.644550009721
 30
0.0
 11
9549.706230581174
 21
1127.21208579511
 31
0.0
  0
LINE
  5
4CBF
330
18
100
AcDbEntity
  8
DESHED
  6
ByBlock
 62
     0
100
AcDbLine
 10
9549.706230581174
 20
1127.21208579511
 30
0.0
 11
9550.211347431501
 21
1126.91124107346
 31
0.0
  0
LINE
  5
4CC0
330
18
100
AcDbEntity
  8
DESHED
  6
ByBlock
 62
     0
100
AcDbLine
 10
9550.211347431501
 20
1126.91124107346
 30
0.0
 11
9549.725050397304
 21
1126.403565969476
 31
0.0
  0
LINE
  5
4CC1
330
18
100
AcDbEntity
  8
DESHED
  6
ByBlock
 62
     0
100
AcDbLine
 10
9549.725050397304
 20
1126.403565969476
 30
0.0
 11
9550.211347431501
 21
1126.027509776375
 31
0.0
  0
LINE
  5
4CC2
330
18
100
AcDbEntity
  8
DESHED
  6
ByBlock
 62
     0
100
AcDbLine
 10
9550.211347431501
 20
1126.027509776375
 30
0.0
 11
9549.716190208954
 21
1125.387419478709
 31
0.0
  0
LINE
  5
4CC3
330
18
100
AcDbEntity
  8
DESHED
  6
ByBlock
 62
     0
100
AcDbLine
 10
9549.716190208954
 20
1125.387419478709
 30
0.0
 11
9550.211347431501
 21
1124.954544899059
 31
0.0
  0
LINE
  5
4CC4
330
18
100
AcDbEntity
  8
DESHED
  6
ByBlock
 62
     0
100
AcDbLine
 10
9550.211347431501
 20
1124.954544899059
 30
0.0
 11
9549.63935714788
 21
1124.300255796683
 31
0.0
  0
LINE
  5
4CC5
330
18
100
AcDbEntity
  8
DESHED
  6
ByBlock
 62
     0
100
AcDbLine
 10
9549.63935714788
 20
1124.300255796683
 30
0.0
 11
9550.211347431501
 21
1123.944503825158
 31
0.0
  0
LINE
  5
4CC6
330
18
100
AcDbEntity
  8
DESHED
  6
ByBlock
 62
     0
100
AcDbLine
 10
9550.211347431501
 20
1123.944503825158
 30
0.0
 11
9549.63935714788
 21
1123.351407480829
 31
0.0
  0
LINE
  5
4CC7
330
18
100
AcDbEntity
  8
DESHED
  6
ByBlock
 62
     0
100
AcDbLine
 10
9549.63935714788
 20
1123.351407480829
 30
0.0
 11
9550.211347431501
 21
1122.838267947495
 31
0.0
  0
LINE
  5
4CC8
330
18
100
AcDbEntity
  8
DESHED
  6
ByBlock
 62
     0
100
AcDbLine
 10
9547.18333771512
 20
1124.300255796683
 30
0.0
 11
9546.6113474315
 21
1123.944503825158
 31
0.0
  0
LINE
  5
4CC9
330
18
100
AcDbEntity
  8
DESHED
  6
ByBlock
 62
     0
100
AcDbLine
 10
9546.6113474315
 20
1124.954544899059
 30
0.0
 11
9547.18333771512
 21
1124.300255796683
 31
0.0
  0
LINE
  5
4CCA
330
18
100
AcDbEntity
  8
DESHED
  6
ByBlock
 62
     0
100
AcDbLine
 10
9547.106504654045
 20
1125.387419478709
 30
0.0
 11
9546.6113474315
 21
1124.954544899059
 31
0.0
  0
LINE
  5
4CCB
330
18
100
AcDbEntity
  8
DESHED
  6
ByBlock
 62
     0
100
AcDbLine
 10
9546.6113474315
 20
1126.027509776375
 30
0.0
 11
9547.106504654045
 21
1125.387419478709
 31
0.0
  0
LINE
  5
4CCC
330
18
100
AcDbEntity
  8
DESHED
  6
ByBlock
 62
     0
100
AcDbLine
 10
9547.097644465695
 20
1126.403565969476
 30
0.0
 11
9546.6113474315
 21
1126.027509776375
 31
0.0
  0
LINE
  5
4CCD
330
18
100
AcDbEntity
  8
DESHED
  6
ByBlock
 62
     0
100
AcDbLine
 10
9546.6113474315
 20
1126.91124107346
 30
0.0
 11
9547.097644465695
 21
1126.403565969476
 31
0.0
  0
LINE
  5
4CCE
330
18
100
AcDbEntity
  8
DESHED
  6
ByBlock
 62
     0
100
AcDbLine
 10
9547.116464281828
 20
1127.21208579511
 30
0.0
 11
9546.6113474315
 21
1126.91124107346
 31
0.0
  0
LINE
  5
4CCF
330
18
100
AcDbEntity
  8
DESHED
  6
ByBlock
 62
     0
100
AcDbLine
 10
9546.6113474315
 20
1127.644550009721
 30
0.0
 11
9547.116464281828
 21
1127.21208579511
 31
0.0
  0
LINE
  5
4CD0
330
18
100
AcDbEntity
  8
DESHED
  6
ByBlock
 62
     0
100
AcDbLine
 10
9547.135284097961
 20
1127.983000467095
 30
0.0
 11
9546.6113474315
 21
1127.644550009721
 31
0.0
  0
LINE
  5
4CD1
330
18
100
AcDbEntity
  8
DESHED
  6
ByBlock
 62
     0
100
AcDbLine
 10
9546.6113474315
 20
1128.377858945981
 30
0.0
 11
9547.135284097961
 21
1127.983000467095
 31
0.0
  0
LINE
  5
4CD2
330
18
100
AcDbEntity
  8
DESHED
  6
ByBlock
 62
     0
100
AcDbLine
 10
9547.116464281828
 20
1128.697506535493
 30
0.0
 11
9546.6113474315
 21
1128.377858945981
 31
0.0
  0
LINE
  5
4CD3
330
18
100
AcDbEntity
  8
DESHED
  6
ByBlock
 62
     0
100
AcDbLine
 10
9546.6113474315
 20
1129.017154125006
 30
0.0
 11
9547.116464281828
 21
1128.697506535493
 31
0.0
  0
LINE
  5
4CD4
330
18
100
AcDbEntity
  8
DESHED
  6
ByBlock
 62
     0
100
AcDbLine
 10
9547.097644465695
 20
1129.261590243066
 30
0.0
 11
9546.6113474315
 21
1129.017154125006
 31
0.0
  0
LINE
  5
4CD5
330
18
100
AcDbEntity
  8
DESHED
  6
ByBlock
 62
     0
100
AcDbLine
 10
9546.6113474315
 20
1129.675252171892
 30
0.0
 11
9547.097644465695
 21
1129.261590243066
 31
0.0
  0
LINE
  5
4CD6
330
18
100
AcDbEntity
  8
DESHED
  6
ByBlock
 62
     0
100
AcDbLine
 10
9547.060003737279
 20
1129.957294025678
 30
0.0
 11
9546.6113474315
 21
1129.675252171892
 31
0.0
  0
LINE
  5
4CD7
330
18
100
AcDbEntity
  8
DESHED
  6
ByBlock
 62
     0
100
AcDbLine
 10
9546.6113474315
 20
1130.27694161519
 30
0.0
 11
9547.060003737279
 21
1129.957294025678
 31
0.0
  0
LINE
  5
4CD8
330
18
100
AcDbEntity
  8
DESHED
  6
ByBlock
 62
     0
100
AcDbLine
 10
9548.411347431501
 20
1130.815587930996
 30
0.0
 11
9546.6113474315
 21
1130.27694161519
 31
0.0
  0
LINE
  5
4CD9
330
18
100
AcDbEntity
  8
DESHED
  6
ByBlock
 62
     0
100
AcDbLine
 10
9546.6113474315
 20
1130.953841947863
 30
0.0
 11
9547.041183921148
 21
1130.615391490488
 31
0.0
  0
LEADER
  5
4CDA
330
18
100
AcDbEntity
  8
DIM
 62
     0
100
AcDbLeader
  3
B
 73
     0
 75
     1
 40
50.0
 41
483.3333333333334
 76
     3
 10
9518.807866540248
 20
1143.604067787088
 30
0.0
 10
9510.835548717244
 20
1156.183451711143
 30
0.0
 10
9499.405548717245
 20
1156.183451711143
 30
0.0
213
0.0
223
0.4500000000000001
233
0.0
1001
ACAD
1000
DSTYLE
1002
{
1070
   147
1040
0.3
1070
    77
1070
     0
1002
}
  0
MTEXT
  5
4CDB
102
{ACAD_REACTORS
330
4CDA
102
}
330
18
100
AcDbEntity
  8
DIM
 62
     0
100
AcDbMText
 10
9499.225548717252
 20
1155.733451711144
 30
0.0
 40
3.0
 41
0.0
 71
     9
 72
     1
  1
{\fBatang|b0|i0|c0|p18;COUNTERTOP}
 73
     1
 44
1.0
  0
SPLINE
  5
4CDC
102
{ACAD_REACTORS
330
4D28
102
}
330
18
100
AcDbEntity
  8
DIM
 62
     0
100
AcDbSpline
210
0.0
220
0.0
230
1.0
 70
     8
 71
     3
 72
    10
 73
     6
 74
     0
 42
0.0000000001
 43
0.0000000001
 40
168.1890314628042
 40
168.1890314628042
 40
168.1890314628042
 40
168.1890314628042
 40
240.3970488653276
 40
404.4385438063731
 40
531.2097876496541
 40
531.2097876496541
 40
531.2097876496541
 40
531.2097876496541
 10
9497.141159780367
 20
1143.604067787087
 30
0.0
 10
9498.100943510847
 20
1142.627298019792
 30
0.0
 10
9500.459579965086
 20
1139.04965182295
 30
0.0
 10
9498.467586479026
 20
1130.808259387402
 30
0.0
 10
9501.010461596296
 20
1125.70265996161
 30
0.0
 10
9502.515020291538
 20
1123.62023977448
 30
0.0
  0
LINE
  5
4CDD
330
18
100
AcDbEntity
  8
DESHED
  6
ByBlock
 62
     0
370
     0
100
AcDbLine
 10
9551.711347431501
 20
1131.875699040047
 30
0.0
 11
9551.711347431501
 21
1123.62023977448
 31
0.0
  0
LINE
  5
4CDE
102
{ACAD_REACTORS
330
4D28
102
}
330
18
100
AcDbEntity
  8
DIM
 62
     0
370
     0
100
AcDbLine
 10
9551.711347431501
 20
1123.62023977448
 30
0.0
 11
9586.988723702905
 21
1123.62023977448
 31
0.0
  0
LINE
  5
4CDF
102
{ACAD_REACTORS
330
4D28
102
}
330
18
100
AcDbEntity
  8
DIM
 62
     0
370
     0
100
AcDbLine
 10
9586.988723702905
 20
1123.62023977448
 30
0.0
 11
9586.988723702905
 21
1140.604067787088
 31
0.0
  0
ARC
  5
4CE0
102
{ACAD_REACTORS
330
4D28
102
}
330
18
100
AcDbEntity
  8
DIM
 62
     0
370
     0
100
AcDbCircle
 10
9583.988723702907
 20
1140.604067787088
 30
0.0
 40
3.0
100
AcDbArc
 50
0.0
 51
90.0
  0
LINE
  5
4CE1
102
{ACAD_REACTORS
330
4D28
102
}
330
18
100
AcDbEntity
  8
DIM
 62
     0
370
     0
100
AcDbLine
 10
9583.988723702907
 20
1143.604067787088
 30
0.0
 11
9497.141159780357
 21
1143.604067787088
 31
0.0
  0
LINE
  5
4CE2
102
{ACAD_REACTORS
330
4D28
102
}
330
18
100
AcDbEntity
  8
DIM
 62
     0
370
     0
100
AcDbLine
 10
9502.515020291527
 20
1123.62023977448
 30
0.0
 11
9545.1113474315
 21
1123.62023977448
 31
0.0
  0
LINE
  5
4CE3
330
18
100
AcDbEntity
  8
DESHED
  6
ByBlock
 62
     0
370
     0
100
AcDbLine
 10
9545.1113474315
 20
1123.62023977448
 30
0.0
 11
9545.1113474315
 21
1131.875699040047
 31
0.0
  0
LINE
  5
4CE4
330
18
100
AcDbEntity
  8
DIM
 62
     0
370
     0
100
AcDbLine
 10
9592.309761188888
 20
1122.579074714943
 30
0.0
 11
9576.393215708561
 21
1122.33427160826
 31
0.0
  0
LINE
  5
4CE5
330
18
100
AcDbEntity
  8
DIM
 62
     0
370
     0
100
AcDbLine
 10
9576.41167002634
 20
1121.134413517419
 30
0.0
 11
9592.328215506663
 21
1121.379216624102
 31
0.0
  0
ARC
  5
4CE6
330
18
100
AcDbEntity
  8
DIM
 62
     0
370
     0
100
AcDbCircle
 10
9592.365124142222
 20
1118.979500442421
 30
0.0
 40
2.399999999999972
100
AcDbArc
 50
1.83944125196927
 51
90.8811635037197
  0
LINE
  5
4CE7
330
18
100
AcDbEntity
  8
DIM
 62
     0
370
     0
100
AcDbLine
 10
9594.763887424674
 20
1119.056537542299
 30
0.0
 11
9595.726144122208
 21
1089.094012498949
 31
0.0
  0
LINE
  5
4CE8
330
18
100
AcDbEntity
  8
DIM
 62
     0
370
     0
100
AcDbLine
 10
9595.726144122208
 20
1089.094012498949
 30
0.0
 11
9596.899942589633
 21
1089.530169454782
 31
0.0
  0
LINE
  5
4CE9
330
18
100
AcDbEntity
  8
DIM
 62
     0
370
     0
100
AcDbLine
 10
9596.899942589633
 20
1089.530169454782
 30
0.0
 11
9595.963269065897
 21
1119.095056092238
 31
0.0
  0
ARC
  5
4CEA
330
18
100
AcDbEntity
  8
DIM
 62
     0
370
     0
100
AcDbCircle
 10
9592.365124142222
 20
1118.979500442421
 30
0.0
 40
3.59999999999999
100
AcDbArc
 50
1.83944125196927
 51
90.8811635037197
  0
LINE
  5
4CEB
330
18
100
AcDbEntity
  8
DIM
 62
     0
370
     0
100
AcDbLine
 10
9585.42733425156
 20
1120.377574591629
 30
0.0
 11
9583.514246097122
 21
1121.24365409916
 31
0.0
  0
LINE
  5
4CEC
330
18
100
AcDbEntity
  8
DIM
 62
     0
370
     0
100
AcDbLine
 10
9583.514246097122
 20
1121.24365409916
 30
0.0
 11
9581.885402097071
 21
1117.645690938937
 31
0.0
  0
LINE
  5
4CED
330
18
100
AcDbEntity
  8
DIM
 62
     0
370
     0
100
AcDbLine
 10
9581.885402097071
 20
1117.645690938937
 30
0.0
 11
9550.811347431499
 21
1118.597767701093
 31
0.0
  0
LINE
  5
4CEE
330
18
100
AcDbEntity
  8
DIM
 62
     0
370
     0
100
AcDbLine
 10
9550.811347431499
 20
1116.496782249056
 30
0.0
 11
9583.220908177862
 21
1115.50378696761
 31
0.0
  0
LINE
  5
4CEF
330
18
100
AcDbEntity
  8
DIM
 62
     0
370
     0
100
AcDbLine
 10
9583.220908177862
 20
1115.50378696761
 30
0.0
 11
9585.42733425156
 21
1120.377574591629
 31
0.0
  0
LINE
  5
4CF0
330
18
100
AcDbEntity
  8
DIM
 62
     0
100
AcDbLine
 10
9540.011347431502
 20
1118.928668484461
 30
0.0
 11
9540.011347431502
 21
1116.827683032425
 31
0.0
  0
LINE
  5
4CF1
330
18
100
AcDbEntity
  8
DIM
 62
     0
370
     0
100
AcDbLine
 10
9556.8113474315
 20
1118.413933932554
 30
0.0
 11
9556.8113474315
 21
1116.312948480517
 31
0.0
  0
LEADER
  5
4CF2
330
18
100
AcDbEntity
  8
DIM
 62
     0
100
AcDbLeader
  3
B
 73
     0
 75
     1
 40
3.06366047745358
 41
22.43236074270557
 76
     3
 10
9529.851379605192
 20
1117.138973894714
 30
0.0
 10
9521.703529505259
 20
1108.002918644647
 30
0.0
 10
9510.27352950526
 20
1108.002918644647
 30
0.0
340
4CF3
213
0.0
223
1.5
233
0.0
1001
ACAD
1000
DSTYLE
1002
{
1070
   147
1040
0.3
1070
    77
1070
     0
1002
}
  0
MTEXT
  5
4CF3
102
{ACAD_REACTORS
330
4CF2
102
}
330
18
100
AcDbEntity
  8
DIM
 62
     0
100
AcDbMText
 10
9507.987529505259
 20
1106.502918644647
 30
0.0
 40
3.0
 41
48.17142857142857
 71
     9
 72
     1
  1
{\fBatang|b0|i0|c0|p18;FASTENER}
 73
     1
 44
1.0
  0
LEADER
  5
4CF4
330
18
100
AcDbEntity
  8
DIM
 62
     0
100
AcDbLeader
  3
B
 73
     0
 75
     1
 40
3.071618037135278
 41
16.92572944297082
 76
     3
 10
9545.996359425819
 20
1114.296134335805
 30
0.0
 10
9533.897388939337
 20
1100.682001741485
 30
0.0
 10
9522.467388939336
 20
1100.682001741485
 30
0.0
340
4CF5
213
0.0
223
1.5
233
0.0
1001
ACAD
1000
DSTYLE
1002
{
1070
   147
1040
0.3
1070
    77
1070
     0
1002
}
  0
MTEXT
  5
4CF5
102
{ACAD_REACTORS
330
4CF4
102
}
330
18
100
AcDbEntity
  8
DIM
 62
     0
100
AcDbMText
 10
9520.181388939336
 20
1099.182001741485
 30
0.0
 40
3.0
 41
37.45714285714285
 71
     9
 72
     1
  1
{\fBatang|b0|i0|c0|p18;SCREWS}
 73
     1
 44
1.0
  0
MTEXT
  5
4CF6
102
{ACAD_REACTORS
330
4CF7
102
}
330
18
100
AcDbEntity
  8
DIM
 62
     0
100
AcDbMText
 10
9617.723634046523
 20
1130.763908660015
 30
0.0
 40
3.0
 41
42.17142857142856
 71
     1
 72
     1
  1
{\fBatang|b0|i0|c0|p18;SINK}
 73
     1
 44
1.0
  0
LEADER
  5
4CF7
330
18
100
AcDbEntity
  8
DIM
 62
     0
100
AcDbLeader
  3
B
 73
     0
 74
     0
 75
     1
 40
3.06366047745358
 41
9.851458885941642
 76
     3
 10
9595.828106941567
 20
1119.926273867878
 30
0.0
 10
9604.007634046523
 20
1129.263908660015
 30
0.0
 10
9615.437634046521
 20
1129.263908660015
 30
0.0
340
4CF6
213
0.0
223
-1.5
233
0.0
1001
ACAD
1000
DSTYLE
1002
{
1070
   147
1040
0.3
1070
    77
1070
     0
1002
}
  0
LINE
  5
4CF8
330
18
100
AcDbEntity
  8
DIM
 62
     0
100
AcDbLine
 10
9592.328215506663
 20
1121.379216624102
 30
0.0
 11
9576.41167002634
 21
1121.134413517419
 31
0.0
  0
LINE
  5
4CF9
330
18
100
AcDbEntity
  8
DIM
 62
     0
100
AcDbLine
 10
9587.926067474915
 20
1123.62023977448
 30
0.0
 11
9588.184408883931
 21
1122.515625076222
 31
0.0
  0
LINE
  5
4CFA
330
18
100
AcDbEntity
  8
DIM
 62
     0
100
AcDbLine
 10
9577.124487606859
 20
1123.62023977448
 30
0.0
 11
9577.693606850766
 21
1122.354272166289
 31
0.0
  0
LINE
  5
4CFB
330
18
100
AcDbEntity
  8
DIM
 62
     0
100
AcDbLine
 10
9576.393215708561
 20
1122.33427160826
 30
0.0
 11
9576.41167002634
 21
1121.134413517419
 31
0.0
  0
LINE
  5
4CFC
330
18
100
AcDbEntity
  8
DESHED
  6
ByBlock
 62
     0
100
AcDbLine
 10
9545.711347431501
 20
1131.275699040047
 30
0.0
 11
9547.171268118058
 21
1131.275699040047
 31
0.0
  0
LINE
  5
4CFD
330
18
100
AcDbEntity
  8
DESHED
  6
ByBlock
 62
     0
100
AcDbLine
 10
9545.711347431501
 20
1128.618596376936
 30
0.0
 11
9546.991768047423
 21
1128.618596376936
 31
0.0
  0
LINE
  5
4CFE
330
18
100
AcDbEntity
  8
DIM
 62
     0
100
AcDbLine
 10
9550.211347431501
 20
1119.559171565746
 30
0.0
 11
9550.211347431501
 21
1115.768098611079
 31
0.0
  0
LINE
  5
4CFF
330
18
100
AcDbEntity
  8
DIM
 62
     0
100
AcDbLine
 10
9546.6113474315
 20
1119.559171565746
 30
0.0
 11
9546.6113474315
 21
1115.768098611079
 31
0.0
  0
LINE
  5
4D00
330
18
100
AcDbEntity
  8
DESHED
  6
ByBlock
 62
     0
370
     0
100
AcDbLine
 10
9552.3113474315
 20
1123.62023977448
 30
0.0
 11
9552.3113474315
 21
1123.02023977448
 31
0.0
  0
LINE
  5
4D01
330
18
100
AcDbEntity
  8
DESHED
  6
ByBlock
 62
     0
370
     0
100
AcDbLine
 10
9544.511347431502
 20
1123.02023977448
 30
0.0
 11
9544.511347431502
 21
1123.62023977448
 31
0.0
  0
LINE
  5
4D02
330
18
100
AcDbEntity
  8
DESHED
  6
ByBlock
 62
     0
100
AcDbLine
 10
9544.511347431502
 20
1123.02023977448
 30
0.0
 11
9545.687609839433
 21
1123.02023977448
 31
0.0
  0
LINE
  5
4D03
330
18
100
AcDbEntity
  8
DESHED
  6
ByBlock
 62
     0
100
AcDbLine
 10
9551.135085023569
 20
1123.02023977448
 30
0.0
 11
9552.3113474315
 21
1123.02023977448
 31
0.0
  0
LINE
  5
4D04
330
18
100
AcDbEntity
  8
DIM
 62
     0
100
AcDbLine
 10
9546.011347431502
 20
1118.744834715924
 30
0.0
 11
9546.011347431502
 21
1116.643849263886
 31
0.0
  0
LINE
  5
4D05
330
18
100
AcDbEntity
  8
DIM
 62
     0
100
AcDbLine
 10
9550.811347431499
 20
1118.597767701093
 30
0.0
 11
9550.811347431499
 21
1116.496782249056
 31
0.0
  0
LINE
  5
4D06
330
18
100
AcDbEntity
  8
DESHED
  6
ByBlock
 62
     0
370
     0
100
AcDbLine
 10
9545.711347431501
 20
1123.02023977448
 30
0.0
 11
9545.711347431501
 21
1131.275699040047
 31
0.0
  0
LINE
  5
4D07
330
18
100
AcDbEntity
  8
DESHED
  6
ByBlock
 62
     0
370
     0
100
AcDbLine
 10
9551.111347431501
 20
1131.275699040047
 30
0.0
 11
9551.111347431501
 21
1123.02023977448
 31
0.0
  0
LINE
  5
4D08
330
18
100
AcDbEntity
  8
DESHED
  6
ByBlock
 62
     0
100
AcDbLine
 10
9545.1113474315
 20
1131.875699040047
 30
0.0
 11
9547.351268118056
 21
1131.875699040047
 31
0.0
  0
LINE
  5
4D09
330
18
100
AcDbEntity
  8
DESHED
  6
ByBlock
 62
     0
100
AcDbLine
 10
9549.639057549789
 20
1131.275699040047
 30
0.0
 11
9551.111347431501
 21
1131.275699040047
 31
0.0
  0
LINE
  5
4D0A
330
18
100
AcDbEntity
  8
DESHED
  6
ByBlock
 62
     0
100
AcDbLine
 10
9549.830926815578
 20
1128.618596376936
 30
0.0
 11
9551.111347431501
 21
1128.618596376936
 31
0.0
  0
LINE
  5
4D0B
330
18
100
AcDbEntity
  8
DESHED
  6
ByBlock
 62
     0
100
AcDbLine
 10
9547.351268118056
 20
1131.875699040047
 30
0.0
 11
9551.711347431501
 21
1131.875699040047
 31
0.0
  0
LINE
  5
4D0C
330
18
100
AcDbEntity
  8
DESHED
 62
     0
100
AcDbLine
 10
9551.711347431501
 20
1123.650259029023
 30
0.0
 11
9552.3113474315
 21
1123.62023977448
 31
0.0
  0
LINE
  5
4D0D
330
18
100
AcDbEntity
  8
DESHED
  6
ByBlock
 62
     0
100
AcDbLine
 10
9551.711347431501
 20
1123.62023977448
 30
0.0
 11
9552.3113474315
 21
1123.62023977448
 31
0.0
  0
LINE
  5
4D0E
330
18
100
AcDbEntity
  8
DESHED
  6
ByBlock
 62
     0
100
AcDbLine
 10
9544.511347431502
 20
1123.62023977448
 30
0.0
 11
9545.1113474315
 21
1123.62023977448
 31
0.0
  0
LINE
  5
4D0F
330
18
100
AcDbEntity
  8
DESHED
  6
ByBlock
 62
     0
100
AcDbLine
 10
9547.049462735984
 20
1131.275699040047
 30
0.0
 11
9546.6113474315
 21
1130.953841947863
 31
0.0
  0
LINE
  5
4D10
330
18
100
AcDbEntity
  8
DESHED
  6
ByBlock
 62
     0
100
AcDbLine
 10
9549.773232127018
 20
1131.275699040047
 30
0.0
 11
9550.211347431501
 21
1130.953841947863
 31
0.0
  0
LINE
  5
4D11
330
18
100
AcDbEntity
  8
DESHED
  6
ByBlock
 62
     0
100
AcDbLine
 10
9545.711347431501
 20
1123.02023977448
 30
0.0
 11
9551.135085023569
 21
1123.02023977448
 31
0.0
  0
LINE
  5
4D12
330
18
100
AcDbEntity
  8
DESHED
  6
ByBlock
 62
     0
100
AcDbLine
 10
9549.639057549789
 20
1131.286112253561
 30
0.0
 11
9549.639057549789
 21
1131.875699040047
 31
0.0
  0
LINE
  5
4D13
330
18
100
AcDbEntity
  8
DESHED
  6
ByBlock
 62
     0
100
AcDbLine
 10
9547.171268118058
 20
1131.277025346202
 30
0.0
 11
9547.171268118058
 21
1131.875699040047
 31
0.0
  0
LINE
  5
4D14
330
18
100
AcDbEntity
  8
DESHED
  6
ByBlock
 62
     0
100
AcDbLine
 10
9549.781510941853
 20
1130.615391490488
 30
0.0
 11
9550.17994563544
 21
1130.286338538389
 31
0.0
  0
LINE
  5
4D15
330
18
100
AcDbEntity
  8
DESHED
  6
ByBlock
 62
     0
100
AcDbLine
 10
9547.041183921148
 20
1130.615391490488
 30
0.0
 11
9546.6113474315
 21
1130.27694161519
 31
0.0
  0
LINE
  5
4D16
330
18
100
AcDbEntity
  8
DESHED
  6
ByBlock
 62
     0
100
AcDbLine
 10
9550.211347431501
 20
1122.838267947495
 30
0.0
 11
9549.63935714788
 21
1122.287731507156
 31
0.0
  0
LINE
  5
4D17
330
18
100
AcDbEntity
  8
DESHED
  6
ByBlock
 62
     0
100
AcDbLine
 10
9549.63935714788
 20
1122.287731507156
 30
0.0
 11
9550.211347431501
 21
1121.640277094561
 31
0.0
  0
LINE
  5
4D18
330
18
100
AcDbEntity
  8
DESHED
  6
ByBlock
 62
     0
100
AcDbLine
 10
9550.211347431501
 20
1121.640277094561
 30
0.0
 11
9549.63935714788
 21
1121.039069100498
 31
0.0
  0
LINE
  5
4D19
330
18
100
AcDbEntity
  8
DESHED
  6
ByBlock
 62
     0
100
AcDbLine
 10
9549.63935714788
 20
1121.039069100498
 30
0.0
 11
9550.211347431501
 21
1120.507230734231
 31
0.0
  0
LINE
  5
4D1A
330
18
100
AcDbEntity
  8
DESHED
  6
ByBlock
 62
     0
100
AcDbLine
 10
9550.211347431501
 20
1120.507230734231
 30
0.0
 11
9549.63935714788
 21
1119.975393126824
 31
0.0
  0
LINE
  5
4D1B
330
18
100
AcDbEntity
  8
DESHED
  6
ByBlock
 62
     0
100
AcDbLine
 10
9549.63935714788
 20
1119.975393126824
 30
0.0
 11
9550.211347431501
 21
1119.559171565746
 31
0.0
  0
LINE
  5
4D1C
330
18
100
AcDbEntity
  8
DESHED
  6
ByBlock
 62
     0
100
AcDbLine
 10
9547.18333771512
 20
1119.975393126824
 30
0.0
 11
9546.6113474315
 21
1119.559171565746
 31
0.0
  0
LINE
  5
4D1D
330
18
100
AcDbEntity
  8
DESHED
  6
ByBlock
 62
     0
100
AcDbLine
 10
9546.6113474315
 20
1120.507230734231
 30
0.0
 11
9547.18333771512
 21
1119.975393126824
 31
0.0
  0
LINE
  5
4D1E
330
18
100
AcDbEntity
  8
DESHED
  6
ByBlock
 62
     0
100
AcDbLine
 10
9547.18333771512
 20
1121.039069100498
 30
0.0
 11
9546.6113474315
 21
1120.507230734231
 31
0.0
  0
LINE
  5
4D1F
330
18
100
AcDbEntity
  8
DESHED
  6
ByBlock
 62
     0
100
AcDbLine
 10
9546.6113474315
 20
1121.640277094561
 30
0.0
 11
9547.18333771512
 21
1121.039069100498
 31
0.0
  0
LINE
  5
4D20
330
18
100
AcDbEntity
  8
DESHED
  6
ByBlock
 62
     0
100
AcDbLine
 10
9547.18333771512
 20
1122.287731507156
 30
0.0
 11
9546.6113474315
 21
1121.640277094561
 31
0.0
  0
LINE
  5
4D21
330
18
100
AcDbEntity
  8
DESHED
  6
ByBlock
 62
     0
100
AcDbLine
 10
9546.6113474315
 20
1122.838267947495
 30
0.0
 11
9547.18333771512
 21
1122.287731507156
 31
0.0
  0
LINE
  5
4D22
330
18
100
AcDbEntity
  8
DESHED
  6
ByBlock
 62
     0
100
AcDbLine
 10
9547.18333771512
 20
1123.351407480829
 30
0.0
 11
9546.6113474315
 21
1122.838267947495
 31
0.0
  0
LINE
  5
4D23
330
18
100
AcDbEntity
  8
DESHED
  6
ByBlock
 62
     0
100
AcDbLine
 10
9546.6113474315
 20
1123.944503825158
 30
0.0
 11
9547.18333771512
 21
1123.351407480829
 31
0.0
  0
HATCH
  5
4D24
330
18
100
AcDbEntity
  8
DESHED
  6
ByBlock
 62
     0
100
AcDbHatch
 10
0.0
 20
0.0
 30
0.0
210
0.0
220
0.0
230
1.0
  2
ANSI31
 70
     0
 71
     0
 91
        2
 92
        7
 72
     0
 73
     1
 93
        9
 10
9551.711347431501
 20
1131.875699040047
 10
9549.639057549789
 20
1131.875699040047
 10
9549.639057549789
 20
1131.275699040047
 10
9551.111347431501
 20
1131.275699040047
 10
9551.111347431501
 20
1123.02023977448
 10
9551.135085023569
 20
1123.02023977448
 10
9552.3113474315
 20
1123.02023977448
 10
9552.3113474315
 20
1123.62023977448
 10
9551.711347431501
 20
1123.62023977448
 97
        0
 92
        7
 72
     0
 73
     1
 93
        8
 10
9547.171268118058
 20
1131.875699040047
 10
9545.1113474315
 20
1131.875699040047
 10
9545.1113474315
 20
1123.62023977448
 10
9544.5113474315
 20
1123.62023977448
 10
9544.5113474315
 20
1123.02023977448
 10
9545.711347431501
 20
1123.02023977448
 10
9545.711347431501
 20
1131.275699040047
 10
9547.171268118058
 20
1131.275699040047
 97
        0
 75
     0
 76
     1
 52
0.0
 41
0.12
 77
     0
 78
     1
 53
45.0
 43
9161.20124736353
 44
1102.983741366418
 45
-0.2694076836320746
 46
0.2694076836320747
 79
     0
 47
0.9928036230062964
 98
        2
 10
9550.860270537702
 20
1131.575308025018
 10
9545.553779672271
 20
1131.456171629249
  0
HATCH
  5
4D25
330
18
100
AcDbEntity
  8
DESHED
  6
ByBlock
 62
     0
100
AcDbHatch
 10
0.0
 20
0.0
 30
0.0
210
0.0
220
0.0
230
1.0
  2
ANSI31
 70
     0
 71
     0
 91
        2
 92
        7
 72
     0
 73
     1
 93
       12
 10
9547.060003737279
 20
1129.957294025678
 10
9546.6113474315
 20
1130.27694161519
 10
9547.041183921148
 20
1130.615391490488
 10
9546.6113474315
 20
1130.953841947863
 10
9547.04946273598
 20
1131.275699040047
 10
9545.711347431501
 20
1131.275699040047
 10
9545.711347431501
 20
1128.618596376936
 10
9546.991768047421
 20
1128.618596376936
 10
9547.116464281828
 20
1128.697506535493
 10
9546.6113474315
 20
1129.017154125006
 10
9547.097644465695
 20
1129.261590243066
 10
9546.6113474315
 20
1129.675252171892
 97
        0
 92
        7
 72
     0
 73
     1
 93
       13
 10
9551.111347431501
 20
1131.275699040047
 10
9549.773232127018
 20
1131.275699040047
 10
9550.211347431501
 20
1130.953841947863
 10
9549.781510941851
 20
1130.615391490488
 10
9550.17994563544
 20
1130.286338538389
 10
9550.211347431501
 20
1130.27694161519
 10
9549.762691125719
 20
1129.957294025678
 10
9550.211347431501
 20
1129.675252171892
 10
9549.725050397304
 20
1129.261590243066
 10
9550.211347431501
 20
1129.017154125006
 10
9549.70623058117
 20
1128.697506535493
 10
9549.830926815578
 20
1128.618596376936
 10
9551.111347431501
 20
1128.618596376936
 97
        0
 75
     0
 76
     1
 52
270.0
 41
0.06
 77
     0
 78
     1
 53
315.0
 43
9161.20124736353
 44
1102.983741366418
 45
0.1347038418160373
 46
0.1347038418160372
 79
     0
 47
0.4906110457808098
 98
        2
 10
9546.317345145046
 20
1129.745052625875
 10
9550.707478273205
 20
1129.421249533623
  0
LINE
  5
4D26
102
{ACAD_REACTORS
330
4D28
102
}
330
18
100
AcDbEntity
  8
0
  6
ByBlock
 62
     0
100
AcDbLine
 10
9545.1113474315
 20
1131.875699040047
 30
0.0
 11
9551.711347431501
 21
1131.875699040047
 31
0.0
  0
LINE
  5
4D27
102
{ACAD_REACTORS
330
4D28
102
}
330
18
100
AcDbEntity
  8
0
  6
ByBlock
 62
     0
100
AcDbLine
 10
9551.711347431501
 20
1123.62023977448
 30
0.0
 11
9551.711347431501
 21
1131.875699040047
 31
0.0
  0
HATCH
  5
4D28
330
18
100
AcDbEntity
  8
0
  6
ByBlock
 62
     0
100
AcDbHatch
 10
0.0
 20
0.0
 30
0.0
210
0.0
220
0.0
230
1.0
  2
ANSI31
 70
     0
 71
     1
 91
        1
 92
        5
 93
        9
 72
     4
 94
        3
 73
     0
 74
     0
 95
       10
 96
        6
 40
168.1890314628042
 40
168.1890314628042
 40
168.1890314628042
 40
168.1890314628042
 40
240.3970488653276
 40
404.4385438063731
 40
531.2097876496541
 40
531.2097876496541
 40
531.2097876496541
 40
531.2097876496541
 10
9497.141159780367
 20
1143.604067787087
 10
9498.100943510847
 20
1142.627298019792
 10
9500.459579965086
 20
1139.04965182295
 10
9498.467586479026
 20
1130.808259387402
 10
9501.010461596296
 20
1125.70265996161
 10
9502.515020291538
 20
1123.62023977448
 72
     1
 10
9502.515020291536
 20
1123.62023977448
 11
9545.111347431499
 21
1123.62023977448
 72
     1
 10
9545.111347431499
 20
1123.62023977448
 11
9545.111347431499
 21
1131.875699040047
 72
     1
 10
9545.1113474315
 20
1131.875699040047
 11
9551.711347431501
 21
1131.875699040047
 72
     1
 10
9551.711347431501
 20
1131.875699040047
 11
9551.711347431501
 21
1123.62023977448
 72
     1
 10
9551.711347431501
 20
1123.62023977448
 11
9586.988723702903
 21
1123.62023977448
 72
     1
 10
9586.988723702905
 20
1123.620239774481
 11
9586.988723702905
 21
1140.604067787088
 72
     2
 10
9583.988723702907
 20
1140.604067787088
 40
2.999999999999999
 50
0.0
 51
90.0
 73
     1
 72
     1
 10
9583.988723702907
 20
1143.604067787088
 11
9497.141159780369
 21
1143.604067787088
 97
        9
330
4CE0
330
4CE1
330
4CDC
330
4CE2
330
4C92
330
4D26
330
4D27
330
4CDE
330
4CDF
 75
     0
 76
     1
 52
0.0
 41
0.6000000000000001
 77
     0
 78
     1
 53
45.0
 43
9161.20124736353
 44
1102.983741366418
 45
-1.347038418160372
 46
1.347038418160373
 79
     0
 47
2.847268091439218
 98
        1
 10
9519.238195242463
 20
1135.492298931957
  0
ARC
  5
4D32
330
18
100
AcDbEntity
  8
0
100
AcDbCircle
 10
9598.120474052809
 20
1173.776863876934
 30
-0.0000001169040047
 40
91.34999999999999
100
AcDbArc
 50
6.04295588858915
 51
83.10750120007103
  0
LINE
  5
4D33
330
18
100
AcDbEntity
  8
0
100
AcDbLine
 10
9162.325705207697
 20
1269.571430861929
 30
-0.0000001169040047
 11
9524.316251843913
 21
1269.571430861929
 31
-0.0000001169040047
  0
ARC
  5
4D34
330
18
100
AcDbEntity
  8
0
100
AcDbCircle
 10
9524.316251843913
 20
563.2214308619294
 30
-0.0000001169040047
 40
706.35
100
AcDbArc
 50
83.10750120007103
 51
90.0
  0
ARC
  5
4D35
330
18
100
AcDbEntity
  8
0
100
AcDbCircle
 10
9162.32570520833
 20
563.2214308619294
 30
-0.0000001169040047
 40
706.35
100
AcDbArc
 50
90.0
 51
96.89249880003245
  0
ARC
  5
4D36
330
18
100
AcDbEntity
  8
0
100
AcDbCircle
 10
9088.521482999377
 20
1173.776863876927
 30
-0.0000001169040047
 40
91.34999999999999
100
AcDbArc
 50
96.89249880003245
 51
173.9570441114108
  0
ARC
  5
4D37
330
18
100
AcDbEntity
  8
0
100
AcDbCircle
 10
10197.3257052083
 20
1056.396299848361
 30
-0.0000001169040047
 40
1206.35
100
AcDbArc
 50
173.9570441114108
 51
186.3755244152194
  0
ARC
  5
4D38
330
18
100
AcDbEntity
  8
0
100
AcDbCircle
 10
9089.22148321505
 20
932.5817885795562
 30
-0.0000001169040047
 40
91.34999999999999
100
AcDbArc
 50
186.3755244152194
 51
263.1731861252727
  0
LINE
  5
4D39
330
18
100
AcDbEntity
  8
0
100
AcDbLine
 10
9524.316251843917
 20
836.8714308619393
 30
-0.0000001169040047
 11
9162.325705208331
 21
836.8714308619393
 31
-0.0000001169040047
  0
ARC
  5
4D3A
330
18
100
AcDbEntity
  8
0
100
AcDbCircle
 10
9162.325705208331
 20
1543.221430861939
 30
-0.0000001169040047
 40
706.35
100
AcDbArc
 50
263.1731861252727
 51
270.0
  0
ARC
  5
4D3B
330
18
100
AcDbEntity
  8
0
100
AcDbCircle
 10
9597.420473837138
 20
932.5817885795487
 30
-0.0000001169040047
 40
91.34999999999999
100
AcDbArc
 50
276.8268138747273
 51
353.6244755847806
  0
ARC
  5
4D3C
330
18
100
AcDbEntity
  8
0
100
AcDbCircle
 10
9524.316251843918
 20
1543.221430861939
 30
-0.0000001169040047
 40
706.35
100
AcDbArc
 50
270.0
 51
276.8268138747273
  0
ARC
  5
4D3D
330
18
100
AcDbEntity
  8
0
100
AcDbCircle
 10
8489.316251843886
 20
1056.396299848361
 30
-0.0000001169040047
 40
1206.35
100
AcDbArc
 50
353.6244755847806
 51
6.04295588858915
  0
DIMENSION
  5
4D3F
330
18
100
AcDbEntity
  8
0
 62
     1
100
AcDbDimension
  2
*D6
 10
9689.311198161057
 20
765.7531403427103
 30
0.0
 11
9343.318451684679
 21
780.7531403427104
 31
0.0
 70
    32
 71
     5
 42
691.9854929527573
  3
STANDARD
100
AcDbAlignedDimension
 13
8997.325705208298
 23
1056.396299848361
 33
-0.0000001169040047
 14
9689.311198161057
 24
1052.913655270386
 34
-0.0000001169040047
100
AcDbRotatedDimension
1001
ACAD
1000
DSTYLE
1002
{
1070
    40
1040
8.0
1070
    41
1040
2.5
1070
    42
1040
0.625
1070
    43
1040
3.75
1070
    44
1040
1.25
1070
    73
1070
     0
1070
    74
1070
     0
1070
    77
1070
     1
1070
    78
1070
     8
1070
   140
1040
2.5
1070
   141
1040
2.5
1070
   143
1040
0.0394
1070
   147
1040
0.625
1070
   171
1070
     4
1070
   172
1070
     1
1070
   271
1070
     1
1070
   272
1070
     1
1070
   273
1070
     8
1070
   274
1070
     4
1070
   288
1070
     1
1002
}
  0
DIMENSION
  5
4D4C
330
18
100
AcDbEntity
  8
0
 62
     1
100
AcDbDimension
  2
*D7
 10
8930.113275829164
 20
1263.22143086193
 30
0.0
 11
8915.113275829163
 21
1053.221430861936
 31
0.0
 70
    32
 71
     5
 42
419.9999999999901
  3
STANDARD
100
AcDbAlignedDimension
 13
9343.320978526124
 23
843.2214308619395
 33
-0.0000001169040047
 14
9343.320978526124
 24
1263.22143086193
 34
-0.0000001169040047
 50
90.0
100
AcDbRotatedDimension
1001
ACAD
1000
DSTYLE
1002
{
1070
    40
1040
8.0
1070
    41
1040
2.5
1070
    42
1040
0.625
1070
    43
1040
3.75
1070
    44
1040
1.25
1070
    73
1070
     0
1070
    74
1070
     0
1070
    77
1070
     1
1070
    78
1070
     8
1070
   140
1040
2.5
1070
   141
1040
2.5
1070
   143
1040
0.0394
1070
   147
1040
0.625
1070
   171
1070
     4
1070
   172
1070
     1
1070
   271
1070
     1
1070
   272
1070
     1
1070
   273
1070
     8
1070
   274
1070
     4
1070
   288
1070
     1
1002
}
  0
DIMENSION
  5
4D59
330
18
100
AcDbEntity
  8
0
 62
     1
100
AcDbDimension
  2
*D8
 10
9695.661171418651
 20
702.1779249827682
 30
0.0
 11
9343.318438313476
 21
717.1779249827682
 31
0.0
 70
    32
 71
     5
 42
704.6854662103523
  3
STANDARD
100
AcDbAlignedDimension
 13
8990.975705208299
 23
1056.396299848361
 33
-0.0000001169040047
 14
9695.661171418651
 24
1052.89522627616
 34
-0.0000001169040047
100
AcDbRotatedDimension
1001
ACAD
1000
DSTYLE
1002
{
1070
    40
1040
8.0
1070
    41
1040
2.5
1070
    42
1040
0.625
1070
    43
1040
3.75
1070
    44
1040
1.25
1070
    73
1070
     0
1070
    74
1070
     0
1070
    77
1070
     1
1070
    78
1070
     8
1070
   140
1040
2.5
1070
   141
1040
2.5
1070
   143
1040
0.0394
1070
   147
1040
0.625
1070
   171
1070
     4
1070
   172
1070
     1
1070
   271
1070
     1
1070
   272
1070
     1
1070
   273
1070
     8
1070
   274
1070
     4
1070
   288
1070
     1
1002
}
  0
DIMENSION
  5
4D66
330
18
100
AcDbEntity
  8
0
 62
     1
100
AcDbDimension
  2
*D9
 10
8848.907589059569
 20
1269.57143086193
 30
0.0
 11
8833.90758905957
 21
1053.221430861936
 31
0.0
 70
    32
 71
     5
 42
432.6999999999901
  3
STANDARD
100
AcDbAlignedDimension
 13
9340.939728526123
 23
836.8714308619395
 33
-0.0000001169040047
 14
9340.939728526127
 24
1269.57143086193
 34
-0.0000001169040047
 50
90.0
100
AcDbRotatedDimension
1001
ACAD
1000
DSTYLE
1002
{
1070
    40
1040
8.0
1070
    41
1040
2.5
1070
    42
1040
0.625
1070
    43
1040
3.75
1070
    44
1040
1.25
1070
    73
1070
     0
1070
    74
1070
     0
1070
    77
1070
     1
1070
    78
1070
     8
1070
   140
1040
2.5
1070
   141
1040
2.5
1070
   143
1040
0.0394
1070
   147
1040
0.625
1070
   171
1070
     4
1070
   172
1070
     1
1070
   271
1070
     1
1070
   272
1070
     1
1070
   273
1070
     8
1070
   274
1070
     4
1070
   288
1070
     1
1002
}
  0
DIMENSION
  5
4D73
330
18
100
AcDbEntity
  8
0
 62
     1
100
AcDbDimension
  2
*D10
 10
9088.521482999377
 20
1173.776863876926
 30
-0.0000001169040047
 11
9076.909808520831
 21
1181.251618966567
 31
0.0
 70
   164
 71
     5
 42
84.99999999999909
  3
STANDARD
100
AcDbRadialDimension
 15
9017.049624571095
 25
1219.785270204547
 35
0.0000001933795631
 40
0.0
1001
ACAD
1000
DSTYLE
1002
{
1070
    40
1040
8.0
1070
    41
1040
2.5
1070
    42
1040
0.625
1070
    43
1040
3.75
1070
    44
1040
1.25
1070
    73
1070
     0
1070
    74
1070
     0
1070
    77
1070
     1
1070
    78
1070
     8
1070
   140
1040
2.5
1070
   141
1040
2.5
1070
   143
1040
0.0394
1070
   147
1040
0.625
1070
   171
1070
     4
1070
   172
1070
     1
1070
   271
1070
     1
1070
   272
1070
     1
1070
   273
1070
     8
1070
   274
1070
     4
1070
   288
1070
     1
1002
}
  0
DIMENSION
  5
4D7C
330
18
100
AcDbEntity
  8
0
 62
     1
100
AcDbDimension
  2
*D11
 10
10197.3257052083
 20
1056.39629984836
 30
-0.0000001169040047
 11
9085.82464730563
 21
1075.584214248365
 31
0.0
 70
   164
 71
     5
 42
1199.999999999998
  3
STANDARD
100
AcDbRadialDimension
 15
8997.504473289374
 25
1077.108891104737
 35
0.0000000073895096
 40
0.0
1001
ACAD
1000
DSTYLE
1002
{
1070
    40
1040
8.0
1070
    41
1040
2.5
1070
    42
1040
0.625
1070
    43
1040
3.75
1070
    44
1040
1.25
1070
    73
1070
     0
1070
    74
1070
     0
1070
    77
1070
     1
1070
    78
1070
     8
1070
   140
1040
2.5
1070
   141
1040
2.5
1070
   143
1040
0.0394
1070
   147
1040
0.625
1070
   171
1070
     4
1070
   172
1070
     1
1070
   271
1070
     1
1070
   272
1070
     1
1070
   273
1070
     8
1070
   274
1070
     4
1070
   288
1070
     1
1002
}
  0
DIMENSION
  5
4D85
330
18
100
AcDbEntity
  8
0
 62
     1
100
AcDbDimension
  2
*D12
 10
9089.221483215052
 20
932.5817885795572
 30
-0.0000001169040047
 11
9077.433023246141
 21
925.3890728610491
 31
0.0
 70
   164
 71
     5
 42
85.00000000000273
  3
STANDARD
100
AcDbRadialDimension
 15
9016.661479613322
 25
888.3093832087466
 35
0.0000002608367916
 40
0.0
1001
ACAD
1000
DSTYLE
1002
{
1070
    40
1040
8.0
1070
    41
1040
2.5
1070
    42
1040
0.625
1070
    43
1040
3.75
1070
    44
1040
1.25
1070
    73
1070
     0
1070
    74
1070
     0
1070
    77
1070
     1
1070
    78
1070
     8
1070
   140
1040
2.5
1070
   141
1040
2.5
1070
   143
1040
0.0394
1070
   147
1040
0.625
1070
   171
1070
     4
1070
   172
1070
     1
1070
   271
1070
     1
1070
   272
1070
     1
1070
   273
1070
     8
1070
   274
1070
     4
1070
   288
1070
     1
1002
}
  0
DIMENSION
  5
4D8E
330
18
100
AcDbEntity
  8
0
 62
     1
100
AcDbDimension
  2
*D13
 10
9597.420473837138
 20
932.5817885795505
 30
-0.0000001169040047
 11
9606.075137065133
 21
921.8207592488688
 31
0.0
 70
   164
 71
     5
 42
85.0000000000009
  3
STANDARD
100
AcDbRadialDimension
 15
9650.691418188763
 25
866.3457976993177
 35
0.0000002313766846
 40
0.0
1001
ACAD
1000
DSTYLE
1002
{
1070
    40
1040
8.0
1070
    41
1040
2.5
1070
    42
1040
0.625
1070
    43
1040
3.75
1070
    44
1040
1.25
1070
    73
1070
     0
1070
    74
1070
     0
1070
    77
1070
     1
1070
    78
1070
     8
1070
   140
1040
2.5
1070
   141
1040
2.5
1070
   143
1040
0.0394
1070
   147
1040
0.625
1070
   171
1070
     4
1070
   172
1070
     1
1070
   271
1070
     1
1070
   272
1070
     1
1070
   273
1070
     8
1070
   274
1070
     4
1070
   288
1070
     1
1002
}
  0
DIMENSION
  5
4D97
330
18
100
AcDbEntity
  8
0
 62
     1
100
AcDbDimension
  2
*D14
 10
9598.120474052807
 20
1173.776863876933
 30
-0.0000001169040047
 11
9605.620110092509
 21
1185.372484046541
 31
0.0
 70
   164
 71
     5
 42
85.0000000000009
  3
STANDARD
100
AcDbRadialDimension
 15
9644.282026917867
 25
1245.149905265727
 35
0.0000001086045732
 40
0.0
1001
ACAD
1000
DSTYLE
1002
{
1070
    40
1040
8.0
1070
    41
1040
2.5
1070
    42
1040
0.625
1070
    43
1040
3.75
1070
    44
1040
1.25
1070
    73
1070
     0
1070
    74
1070
     0
1070
    77
1070
     1
1070
    78
1070
     8
1070
   140
1040
2.5
1070
   141
1040
2.5
1070
   143
1040
0.0394
1070
   147
1040
0.625
1070
   171
1070
     4
1070
   172
1070
     1
1070
   271
1070
     1
1070
   272
1070
     1
1070
   273
1070
     8
1070
   274
1070
     4
1070
   288
1070
     1
1002
}
  0
DIMENSION
  5
4DA0
330
18
100
AcDbEntity
  8
0
 62
     1
100
AcDbDimension
  2
*D15
 10
8489.316251843886
 20
1056.396299848361
 30
-0.0000001169040047
 11
9600.826522393745
 21
1075.042914553359
 31
0.0
 70
   164
 71
     5
 42
1200.0
  3
STANDARD
100
AcDbRadialDimension
 15
9689.147428449432
 25
1076.524579589888
 35
0.0000000053160952
 40
0.0
1001
ACAD
1000
DSTYLE
1002
{
1070
    40
1040
8.0
1070
    41
1040
2.5
1070
    42
1040
0.625
1070
    43
1040
3.75
1070
    44
1040
1.25
1070
    73
1070
     0
1070
    74
1070
     0
1070
    77
1070
     1
1070
    78
1070
     8
1070
   140
1040
2.5
1070
   141
1040
2.5
1070
   143
1040
0.0394
1070
   147
1040
0.625
1070
   171
1070
     4
1070
   172
1070
     1
1070
   271
1070
     1
1070
   272
1070
     1
1070
   273
1070
     8
1070
   274
1070
     4
1070
   288
1070
     1
1002
}
  0
ENDSEC
  0
SECTION
  2
OBJECTS
  0
DICTIONARY
  5
C
330
0
100
AcDbDictionary
281
     1
  3
ACAD_COLOR
350
2643
  3
ACAD_GROUP
350
D
  3
ACAD_LAYOUT
350
2644
  3
ACAD_MATERIAL
350
2642
  3
ACAD_MLINESTYLE
350
1B
  3
ACAD_PLOTSETTINGS
350
2645
  3
ACAD_PLOTSTYLENAME
350
2640
  0
DICTIONARY
  5
4A34
330
2
100
AcDbDictionary
280
     1
281
     1
  3
ACAD_LAYERSTATES
360
4A35
  0
DICTIONARY
  5
2643
102
{ACAD_REACTORS
330
C
102
}
330
C
100
AcDbDictionary
281
     1
  0
DICTIONARY
  5
D
102
{ACAD_REACTORS
330
C
102
}
330
C
100
AcDbDictionary
281
     1
  3
*A1
350
11AB
  3
*A10
350
30B2
  3
*A11
350
30B3
  3
*A2
350
36F7
  3
*A3
350
36F8
  3
*A4
350
24A3
  3
*A5
350
24A4
  3
*A6
350
20B0
  3
*A7
350
20B1
  3
*A8
350
2E1C
  3
*A9
350
2E1D
  3
2009
350
CE6
  3
B1
350
57B
  3
LSQ
350
10A0
  3
P1
350
1BF8
  3
P2
350
1BF9
  3
T1
350
577
  3
T2
350
578
  3
T3
350
579
  3
T4
350
57A
  3
TE
350
57C
  0
DICTIONARY
  5
2644
102
{ACAD_REACTORS
330
C
102
}
330
C
100
AcDbDictionary
281
     1
  3
Model
350
2646
  3
布局1
350
2647
  0
DICTIONARY
  5
2642
102
{ACAD_REACTORS
330
C
102
}
330
C
100
AcDbDictionary
281
     1
  0
DICTIONARY
  5
1B
102
{ACAD_REACTORS
330
C
102
}
330
C
100
AcDbDictionary
281
     1
  3
STANDARD
350
1C
  0
DICTIONARY
  5
2645
102
{ACAD_REACTORS
330
C
102
}
330
C
100
AcDbDictionary
281
     1
  0
ACDBDICTIONARYWDFLT
  5
2640
102
{ACAD_REACTORS
330
C
102
}
330
C
100
AcDbDictionary
281
     1
  3
Normal
350
2641
100
AcDbDictionaryWithDefault
340
2641
  0
DICTIONARY
  5
4A35
102
{ACAD_REACTORS
330
4A34
102
}
330
4A34
100
AcDbDictionary
281
     1
  0
GROUP
  5
11AB
102
{ACAD_REACTORS
330
D
102
}
330
D
100
AcDbGroup
300

 70
     1
 71
     1
  0
GROUP
  5
30B2
102
{ACAD_REACTORS
330
D
102
}
330
D
100
AcDbGroup
300

 70
     1
 71
     1
  0
GROUP
  5
30B3
102
{ACAD_REACTORS
330
D
102
}
330
D
100
AcDbGroup
300

 70
     1
 71
     1
  0
GROUP
  5
36F7
102
{ACAD_REACTORS
330
D
102
}
330
D
100
AcDbGroup
300

 70
     1
 71
     1
  0
GROUP
  5
36F8
102
{ACAD_REACTORS
330
D
102
}
330
D
100
AcDbGroup
300

 70
     1
 71
     1
  0
GROUP
  5
24A3
102
{ACAD_REACTORS
330
D
102
}
330
D
100
AcDbGroup
300

 70
     1
 71
     1
  0
GROUP
  5
24A4
102
{ACAD_REACTORS
330
D
102
}
330
D
100
AcDbGroup
300

 70
     1
 71
     1
  0
GROUP
  5
20B0
102
{ACAD_REACTORS
330
D
102
}
330
D
100
AcDbGroup
300

 70
     1
 71
     1
  0
GROUP
  5
20B1
102
{ACAD_REACTORS
330
D
102
}
330
D
100
AcDbGroup
300

 70
     1
 71
     1
  0
GROUP
  5
2E1C
102
{ACAD_REACTORS
330
D
102
}
330
D
100
AcDbGroup
300

 70
     1
 71
     1
  0
GROUP
  5
2E1D
102
{ACAD_REACTORS
330
D
102
}
330
D
100
AcDbGroup
300

 70
     1
 71
     1
  0
GROUP
  5
CE6
102
{ACAD_REACTORS
330
D
102
}
330
D
100
AcDbGroup
300

 70
     0
 71
     1
  0
GROUP
  5
57B
102
{ACAD_REACTORS
330
D
102
}
330
D
100
AcDbGroup
300

 70
     0
 71
     1
  0
GROUP
  5
10A0
102
{ACAD_REACTORS
330
D
102
}
330
D
100
AcDbGroup
300

 70
     0
 71
     1
  0
GROUP
  5
1BF8
102
{ACAD_REACTORS
330
D
102
}
330
D
100
AcDbGroup
300

 70
     0
 71
     1
  0
GROUP
  5
1BF9
102
{ACAD_REACTORS
330
D
102
}
330
D
100
AcDbGroup
300

 70
     0
 71
     1
  0
GROUP
  5
577
102
{ACAD_REACTORS
330
D
102
}
330
D
100
AcDbGroup
300

 70
     0
 71
     1
  0
GROUP
  5
578
102
{ACAD_REACTORS
330
D
102
}
330
D
100
AcDbGroup
300

 70
     0
 71
     1
  0
GROUP
  5
579
102
{ACAD_REACTORS
330
D
102
}
330
D
100
AcDbGroup
300

 70
     0
 71
     1
  0
GROUP
  5
57A
102
{ACAD_REACTORS
330
D
102
}
330
D
100
AcDbGroup
300

 70
     0
 71
     1
  0
GROUP
  5
57C
102
{ACAD_REACTORS
330
D
102
}
330
D
100
AcDbGroup
300

 70
     0
 71
     1
  0
LAYOUT
  5
2646
102
{ACAD_REACTORS
330
2644
102
}
330
2644
100
AcDbPlotSettings
  1

  2
\\LINKOBENZ\EPSON EPL-1220 Advanced (副本 1)
  4
A4
  6

 40
5.873749732971191
 41
5.873747825622558
 42
5.873748779296875
 43
5.873748779296875
 44
209.9733276367187
 45
297.0106506347656
 46
0.0
 47
5.0
 48
6449.484595689549
 49
498.6907910179215
140
8053.484595689546
141
1646.690791017918
142
1.0
143
5.791374439297998
 70
 11952
 72
     1
 73
     1
 74
     4
  7

 75
     0
147
0.1726705828610203
 76
     1
 77
     2
 78
   300
148
-6449.484595689549
149
-498.6907910179215
100
AcDbLayout
  1
Model
 70
     1
 71
     0
 10
0.0
 20
0.0
 11
12.0
 21
9.0
 12
0.0
 22
0.0
 32
0.0
 14
0.0
 24
0.0
 34
0.0
 15
0.0
 25
0.0
 35
0.0
146
0.0
 13
0.0
 23
0.0
 33
0.0
 16
1.0
 26
0.0
 36
0.0
 17
0.0
 27
1.0
 37
0.0
 76
     0
330
18
  0
LAYOUT
  5
2647
102
{ACAD_REACTORS
330
2644
102
}
330
2644
100
AcDbPlotSettings
  1

  2
\\Server\EPSON EPL-1220 Advanced
  4

  6

 40
0.0
 41
0.0
 42
0.0
 43
0.0
 44
0.0
 45
0.0
 46
0.0
 47
0.0
 48
0.0
 49
0.0
140
0.0
141
0.0
142
1.0
143
1.0
 70
   688
 72
     0
 73
     0
 74
     5
  7

 75
    16
147
1.0
 76
     0
 77
     2
 78
   300
148
0.0
149
0.0
100
AcDbLayout
  1
布局1
 70
     1
 71
     1
 10
0.0
 20
0.0
 11
420.0
 21
297.0
 12
0.0
 22
0.0
 32
0.0
 14
1.000000000000000E+20
 24
1.000000000000000E+20
 34
1.000000000000000E+20
 15
-1.000000000000000E+20
 25
-1.000000000000000E+20
 35
-1.000000000000000E+20
146
0.0
 13
0.0
 23
0.0
 33
0.0
 16
1.0
 26
0.0
 36
0.0
 17
0.0
 27
1.0
 37
0.0
 76
     0
330
15
  0
MLINESTYLE
  5
1C
102
{ACAD_REACTORS
330
1B
102
}
330
1B
100
AcDbMlineStyle
  2
STANDARD
 70
     0
  3

 62
   256
 51
90.0
 52
90.0
 71
     2
 49
0.5
 62
   256
  6
BYLAYER
 49
-0.5
 62
   256
  6
BYLAYER
  0
ACDBPLACEHOLDER
  5
2641
102
{ACAD_REACTORS
330
2640
102
}
330
2640
  0
ENDSEC
  0
EOF
