  0
SECTION
  2
HEADER
  9
$ACADVER
  1
AC1021
  9
$ACADMAINTVER
 70
    25
  9
$DWGCODEPAGE
  3
ANSI_936
  9
$INSBASE
 10
0.0
 20
0.0
 30
0.0
  9
$EXTMIN
 10
4505.624756345687
 20
3506.681311538357
 30
-0.0374553261044639
  9
$EXTMAX
 10
5330.857603530714
 20
4038.484700623358
 30
2670.117509650689
  9
$LIMMIN
 10
0.0
 20
0.0
  9
$LIMMAX
 10
420.0
 20
297.0
  9
$ORTHOMODE
 70
     1
  9
$REGENMODE
 70
     1
  9
$FILLMODE
 70
     1
  9
$QTEXTMODE
 70
     0
  9
$MIRRTEXT
 70
     0
  9
$LTSCALE
 40
25.4
  9
$ATTMODE
 70
     1
  9
$TEXTSIZE
 40
2.5
  9
$TRACEWID
 40
1.0
  9
$TEXTSTYLE
  7
STANDARD
  9
$CLAYER
  8
0
  9
$CELTYPE
  6
BYLAYER
  9
$CECOLOR
 62
   256
  9
$CELTSCALE
 40
0.3918643441451652
  9
$DISPSILH
 70
     0
  9
$DIMSCALE
 40
1.0
  9
$DIMASZ
 40
2.5
  9
$DIMEXO
 40
0.625
  9
$DIMDLI
 40
3.75
  9
$DIMRND
 40
0.0
  9
$DIMDLE
 40
0.0
  9
$DIMEXE
 40
1.25
  9
$DIMTP
 40
0.0
  9
$DIMTM
 40
0.0
  9
$DIMTXT
 40
15.0
  9
$DIMCEN
 40
2.5
  9
$DIMTSZ
 40
0.0
  9
$DIMTOL
 70
     0
  9
$DIMLIM
 70
     0
  9
$DIMTIH
 70
     0
  9
$DIMTOH
 70
     0
  9
$DIMSE1
 70
     0
  9
$DIMSE2
 70
     0
  9
$DIMTAD
 70
     1
  9
$DIMZIN
 70
     8
  9
$DIMBLK
  1

  9
$DIMASO
 70
     1
  9
$DIMSHO
 70
     1
  9
$DIMPOST
  1

  9
$DIMAPOST
  1

  9
$DIMALT
 70
     0
  9
$DIMALTD
 70
     4
  9
$DIMALTF
 40
0.0394
  9
$DIMLFAC
 40
1.0
  9
$DIMTOFL
 70
     1
  9
$DIMTVP
 40
0.0
  9
$DIMTIX
 70
     0
  9
$DIMSOXD
 70
     0
  9
$DIMSAH
 70
     0
  9
$DIMBLK1
  1

  9
$DIMBLK2
  1

  9
$DIMSTYLE
  2
STANDARD
  9
$DIMCLRD
 70
     0
  9
$DIMCLRE
 70
     0
  9
$DIMCLRT
 70
     0
  9
$DIMTFAC
 40
1.0
  9
$DIMGAP
 40
3.0
  9
$DIMJUST
 70
     0
  9
$DIMSD1
 70
     0
  9
$DIMSD2
 70
     0
  9
$DIMTOLJ
 70
     1
  9
$DIMTZIN
 70
     0
  9
$DIMALTZ
 70
     0
  9
$DIMALTTZ
 70
     0
  9
$DIMUPT
 70
     0
  9
$DIMDEC
 70
     4
  9
$DIMTDEC
 70
     4
  9
$DIMALTU
 70
     8
  9
$DIMALTTD
 70
     4
  9
$DIMTXSTY
  7
STANDARD
  9
$DIMAUNIT
 70
     0
  9
$DIMADEC
 70
     0
  9
$DIMALTRND
 40
0.0
  9
$DIMAZIN
 70
     0
  9
$DIMDSEP
 70
    46
  9
$DIMATFIT
 70
     3
  9
$DIMFRAC
 70
     0
  9
$DIMLDRBLK
  1

  9
$DIMLUNIT
 70
     2
  9
$DIMLWD
 70
    -2
  9
$DIMLWE
 70
    -2
  9
$DIMTMOVE
 70
     0
  9
$DIMFXL
 40
1.0
  9
$DIMFXLON
 70
     0
  9
$DIMJOGANG
 40
0.7853981633974483
  9
$DIMTFILL
 70
     0
  9
$DIMTFILLCLR
 70
     0
  9
$DIMARCSYM
 70
     0
  9
$DIMLTYPE
  6

  9
$DIMLTEX1
  6

  9
$DIMLTEX2
  6

  9
$LUNITS
 70
     2
  9
$LUPREC
 70
     4
  9
$SKETCHINC
 40
1.0
  9
$FILLETRAD
 40
10.0
  9
$AUNITS
 70
     0
  9
$AUPREC
 70
     0
  9
$MENU
  1
.
  9
$ELEVATION
 40
0.0
  9
$PELEVATION
 40
0.0
  9
$THICKNESS
 40
0.0
  9
$LIMCHECK
 70
     0
  9
$CHAMFERA
 40
10.0
  9
$CHAMFERB
 40
10.0
  9
$CHAMFERC
 40
20.0
  9
$CHAMFERD
 40
0.0
  9
$SKPOLY
 70
     0
  9
$TDCREATE
 40
2453155.539762732
  9
$TDUCREATE
 40
2453155.206429398
  9
$TDUPDATE
 40
2459887.395308889
  9
$TDUUPDATE
 40
2459887.061975555
  9
$TDINDWG
 40
0.1006385532
  9
$TDUSRTIMER
 40
0.1006383681
  9
$USRTIMER
 70
     1
  9
$ANGBASE
 50
0.0
  9
$ANGDIR
 70
     0
  9
$PDMODE
 70
     0
  9
$PDSIZE
 40
0.0
  9
$PLINEWID
 40
0.0
  9
$SPLFRAME
 70
     0
  9
$SPLINETYPE
 70
     6
  9
$SPLINESEGS
 70
     8
  9
$HANDSEED
  5
1DEE
  9
$SURFTAB1
 70
     6
  9
$SURFTAB2
 70
     6
  9
$SURFTYPE
 70
     6
  9
$SURFU
 70
     6
  9
$SURFV
 70
     6
  9
$UCSBASE
  2

  9
$UCSNAME
  2

  9
$UCSORG
 10
0.0
 20
0.0
 30
0.0
  9
$UCSXDIR
 10
1.0
 20
0.0
 30
0.0
  9
$UCSYDIR
 10
0.0
 20
1.0
 30
0.0
  9
$UCSORTHOREF
  2

  9
$UCSORTHOVIEW
 70
     0
  9
$UCSORGTOP
 10
0.0
 20
0.0
 30
0.0
  9
$UCSORGBOTTOM
 10
0.0
 20
0.0
 30
0.0
  9
$UCSORGLEFT
 10
0.0
 20
0.0
 30
0.0
  9
$UCSORGRIGHT
 10
0.0
 20
0.0
 30
0.0
  9
$UCSORGFRONT
 10
0.0
 20
0.0
 30
0.0
  9
$UCSORGBACK
 10
0.0
 20
0.0
 30
0.0
  9
$PUCSBASE
  2

  9
$PUCSNAME
  2

  9
$PUCSORG
 10
0.0
 20
0.0
 30
0.0
  9
$PUCSXDIR
 10
1.0
 20
0.0
 30
0.0
  9
$PUCSYDIR
 10
0.0
 20
1.0
 30
0.0
  9
$PUCSORTHOREF
  2

  9
$PUCSORTHOVIEW
 70
     0
  9
$PUCSORGTOP
 10
0.0
 20
0.0
 30
0.0
  9
$PUCSORGBOTTOM
 10
0.0
 20
0.0
 30
0.0
  9
$PUCSORGLEFT
 10
0.0
 20
0.0
 30
0.0
  9
$PUCSORGRIGHT
 10
0.0
 20
0.0
 30
0.0
  9
$PUCSORGFRONT
 10
0.0
 20
0.0
 30
0.0
  9
$PUCSORGBACK
 10
0.0
 20
0.0
 30
0.0
  9
$USERI1
 70
     0
  9
$USERI2
 70
     0
  9
$USERI3
 70
     0
  9
$USERI4
 70
     0
  9
$USERI5
 70
     0
  9
$USERR1
 40
0.0
  9
$USERR2
 40
0.0
  9
$USERR3
 40
0.0
  9
$USERR4
 40
0.0
  9
$USERR5
 40
0.0
  9
$WORLDVIEW
 70
     1
  9
$SHADEDGE
 70
     3
  9
$SHADEDIF
 70
    70
  9
$TILEMODE
 70
     1
  9
$MAXACTVP
 70
    48
  9
$PINSBASE
 10
0.0
 20
0.0
 30
0.0
  9
$PLIMCHECK
 70
     0
  9
$PEXTMIN
 10
1.000000000000000E+20
 20
1.000000000000000E+20
 30
1.000000000000000E+20
  9
$PEXTMAX
 10
-1.000000000000000E+20
 20
-1.000000000000000E+20
 30
-1.000000000000000E+20
  9
$PLIMMIN
 10
0.0
 20
0.0
  9
$PLIMMAX
 10
420.0
 20
297.0
  9
$UNITMODE
 70
     0
  9
$VISRETAIN
 70
     1
  9
$PLINEGEN
 70
     0
  9
$PSLTSCALE
 70
     1
  9
$TREEDEPTH
 70
  3020
  9
$CMLSTYLE
  2
STANDARD
  9
$CMLJUST
 70
     0
  9
$CMLSCALE
 40
20.0
  9
$PROXYGRAPHICS
 70
     1
  9
$MEASUREMENT
 70
     1
  9
$CELWEIGHT
370
    -1
  9
$ENDCAPS
280
     0
  9
$JOINSTYLE
280
     0
  9
$LWDISPLAY
290
     1
  9
$INSUNITS
 70
     0
  9
$HYPERLINKBASE
  1

  9
$STYLESHEET
  1

  9
$XEDIT
290
     1
  9
$CEPSNTYPE
380
     0
  9
$PSTYLEMODE
290
     1
  9
$FINGERPRINTGUID
  2
{AEA4C562-6A69-4577-B3D9-11D4D737C7CC}
  9
$VERSIONGUID
  2
{771DD6C5-C511-433B-9E43-73206513D297}
  9
$EXTNAMES
290
     1
  9
$PSVPSCALE
 40
0.0
  9
$OLESTARTUP
290
     0
  9
$SORTENTS
280
   127
  9
$INDEXCTL
280
     0
  9
$HIDETEXT
280
     0
  9
$XCLIPFRAME
290
     0
  9
$HALOGAP
280
     0
  9
$OBSCOLOR
 70
   257
  9
$OBSLTYPE
280
     0
  9
$INTERSECTIONDISPLAY
280
     0
  9
$INTERSECTIONCOLOR
 70
   257
  9
$DIMASSOC
280
     1
  9
$PROJECTNAME
  1

  9
$CAMERADISPLAY
290
     0
  9
$LENSLENGTH
 40
50.0
  9
$CAMERAHEIGHT
 40
0.0
  9
$STEPSPERSEC
 40
2.0
  9
$STEPSIZE
 40
6.0
  9
$3DDWFPREC
 40
2.0
  9
$PSOLWIDTH
 40
0.25
  9
$PSOLHEIGHT
 40
4.0
  9
$LOFTANG1
 40
1.570796326794897
  9
$LOFTANG2
 40
1.570796326794897
  9
$LOFTMAG1
 40
0.0
  9
$LOFTMAG2
 40
0.0
  9
$LOFTPARAM
 70
     7
  9
$LOFTNORMALS
280
     1
  9
$LATITUDE
 40
37.795
  9
$LONGITUDE
 40
-122.394
  9
$NORTHDIRECTION
 40
0.0
  9
$TIMEZONE
 70
 -8000
  9
$LIGHTGLYPHDISPLAY
280
     1
  9
$TILEMODELIGHTSYNCH
280
     1
  9
$SOLIDHIST
280
     0
  9
$SHOWHIST
280
     1
  9
$DWFFRAME
280
     2
  9
$DGNFRAME
280
     2
  9
$REALWORLDSCALE
290
     1
  9
$INTERFERECOLOR
 62
   256
  9
$CSHADOW
280
     0
  9
$SHADOWPLANELOCATION
 40
0.0
  0
ENDSEC
  0
SECTION
  2
CLASSES
  0
CLASS
  1
ACDBDICTIONARYWDFLT
  2
AcDbDictionaryWithDefault
  3
ObjectDBX Classes
 90
        0
 91
        3
280
     0
281
     0
  0
CLASS
  1
DICTIONARYVAR
  2
AcDbDictionaryVar
  3
ObjectDBX Classes
 90
        0
 91
        3
280
     0
281
     0
  0
CLASS
  1
ACDBPLACEHOLDER
  2
AcDbPlaceHolder
  3
ObjectDBX Classes
 90
        0
 91
        1
280
     0
281
     0
  0
CLASS
  1
LAYOUT
  2
AcDbLayout
  3
ObjectDBX Classes
 90
        0
 91
        1
280
     0
281
     0
  0
CLASS
  1
DIMASSOC
  2
AcDbDimAssoc
  3
"AcDbDimAssoc|Product Desc:     AcDim ARX App For Dimension|Company:          Autodesk, Inc.|WEB Address:      www.autodesk.com"
 90
        0
 91
        3
280
     0
281
     0
  0
CLASS
  1
VISUALSTYLE
  2
AcDbVisualStyle
  3
ObjectDBX Classes
 90
     4095
 91
        3
280
     0
281
     0
  0
CLASS
  1
SCALE
  2
AcDbScale
  3
ObjectDBX Classes
 90
     1153
 91
        3
280
     0
281
     0
  0
CLASS
  1
MATERIAL
  2
AcDbMaterial
  3
ObjectDBX Classes
 90
     1153
 91
        3
280
     0
281
     0
  0
CLASS
  1
TABLESTYLE
  2
AcDbTableStyle
  3
ObjectDBX Classes
 90
     4095
 91
        3
280
     0
281
     0
  0
CLASS
  1
MLEADERSTYLE
  2
AcDbMLeaderStyle
  3
ACDB_MLEADERSTYLE_CLASS
 90
     4095
 91
        3
280
     0
281
     0
  0
CLASS
  1
SUN
  2
AcDbSun
  3
SCENEOE
 90
     1153
 91
        3
280
     0
281
     0
  0
CLASS
  1
CELLSTYLEMAP
  2
AcDbCellStyleMap
  3
ObjectDBX Classes
 90
     1152
 91
        3
280
     0
281
     0
  0
ENDSEC
  0
SECTION
  2
TABLES
  0
TABLE
  2
VPORT
  5
8
330
0
100
AcDbSymbolTable
 70
     1
  0
VPORT
  5
1D65
330
8
100
AcDbSymbolTableRecord
100
AcDbViewportTableRecord
  2
*Active
 70
     0
 10
0.0
 20
0.0
 11
1.0
 21
1.0
 12
4951.735506979818
 22
3734.562940380904
 13
0.0
 23
0.0
 14
10.0
 24
10.0
 15
10.0
 25
10.0
 16
0.0
 26
0.0
 36
1.0
 17
0.0
 27
0.0
 37
0.0
 40
741.0272307081732
 41
1.786433848220282
 42
50.0
 43
0.0
 44
0.0
 50
0.0
 51
0.0
 71
     0
 72
   100
 73
     1
 74
     1
 75
     0
 76
     0
 77
     0
 78
     0
281
     0
 65
     1
110
0.0
120
0.0
130
0.0
111
1.0
121
0.0
131
0.0
112
0.0
122
1.0
132
0.0
 79
     0
146
0.0
348
1D6B
 60
     3
 61
     5
292
     1
282
     1
141
0.0
142
0.0
 63
   250
361
1DAC
  0
ENDTAB
  0
TABLE
  2
LTYPE
  5
5
330
0
100
AcDbSymbolTable
 70
     9
  0
LTYPE
  5
12
330
5
100
AcDbSymbolTableRecord
100
AcDbLinetypeTableRecord
  2
BYBLOCK
 70
     0
  3

 72
    65
 73
     0
 40
0.0
  0
LTYPE
  5
13
330
5
100
AcDbSymbolTableRecord
100
AcDbLinetypeTableRecord
  2
BYLAYER
 70
     0
  3

 72
    65
 73
     0
 40
0.0
  0
LTYPE
  5
14
330
5
100
AcDbSymbolTableRecord
100
AcDbLinetypeTableRecord
  2
CONTINUOUS
 70
     0
  3
Solid line
 72
    65
 73
     0
 40
0.0
  0
LTYPE
  5
80
330
5
100
AcDbSymbolTableRecord
100
AcDbLinetypeTableRecord
  2
CENTER2
 70
     0
  3
___ _ ___ _ ___ _ ___ _ ___ _ ___ _ ___ _ ___ _
 72
    65
 73
     4
 40
1.125
 49
0.75
 74
     0
 49
-0.125
 74
     0
 49
0.125
 74
     0
 49
-0.125
 74
     0
  0
LTYPE
  5
18C
330
5
100
AcDbSymbolTableRecord
100
AcDbLinetypeTableRecord
  2
DASHED2
 70
     0
  3
_ _ _ _ _ _ _ _ _ _ _ _ _ _ _ _ _ _ _ _ _ _ _ _
 72
    65
 73
     2
 40
0.375
 49
0.25
 74
     0
 49
-0.125
 74
     0
  0
LTYPE
  5
7A4
330
5
100
AcDbSymbolTableRecord
100
AcDbLinetypeTableRecord
  2
PHANTOM2
 70
     0
  3
___ _ _ ___ _ _ ___ _ _ ___ _ _ ___ _ _ ___ _ _
 72
    65
 73
     6
 40
1.25
 49
0.625
 74
     0
 49
-0.125
 74
     0
 49
0.125
 74
     0
 49
-0.125
 74
     0
 49
0.125
 74
     0
 49
-0.125
 74
     0
  0
LTYPE
  5
7A5
330
5
100
AcDbSymbolTableRecord
100
AcDbLinetypeTableRecord
  2
CENTER
 70
     0
  3
Center ____ _ ____ _ ____ _ ____ _ ____ _ ____
 72
    65
 73
     4
 40
2.0
 49
1.25
 74
     0
 49
-0.25
 74
     0
 49
0.25
 74
     0
 49
-0.25
 74
     0
  0
LTYPE
  5
1DA8
330
5
100
AcDbSymbolTableRecord
100
AcDbLinetypeTableRecord
  2
DASHDOT
 70
     0
  3
Dash dot __ . __ . __ . __ . __ . __ . __ . __
 72
    65
 73
     4
 40
1.0
 49
0.5
 74
     0
 49
-0.25
 74
     0
 49
0.0
 74
     0
 49
-0.25
 74
     0
  0
LTYPE
  5
1DA9
330
5
100
AcDbSymbolTableRecord
100
AcDbLinetypeTableRecord
  2
DOT2
 70
     0
  3
Dot (.5x) ........................................
 72
    65
 73
     2
 40
0.125
 49
0.0
 74
     0
 49
-0.125
 74
     0
  0
LTYPE
  5
1DAA
330
5
100
AcDbSymbolTableRecord
100
AcDbLinetypeTableRecord
  2
PTHANTOM2
 70
     0
  3
Phantom (.5x) ___ _ _ ___ _ _ ___ _ _ ___ _ _
 72
    65
 73
     6
 40
1.25
 49
0.625
 74
     0
 49
-0.125
 74
     0
 49
0.125
 74
     0
 49
-0.125
 74
     0
 49
0.125
 74
     0
 49
-0.125
 74
     0
  0
LTYPE
  5
1DAB
330
5
100
AcDbSymbolTableRecord
100
AcDbLinetypeTableRecord
  2
CENTERX2
 70
     0
  3
Center (2x) ________  __  ________  __  _____
 72
    65
 73
     4
 40
2.4
 49
1.5
 74
     0
 49
-0.3
 74
     0
 49
0.3
 74
     0
 49
-0.3
 74
     0
  0
ENDTAB
  0
TABLE
  2
LAYER
  5
2
102
{ACAD_XDICTIONARY
360
9F6
102
}
330
0
100
AcDbSymbolTable
 70
    11
  0
LAYER
  5
E
330
2
100
AcDbSymbolTableRecord
100
AcDbLayerTableRecord
  2
0
 70
     0
 62
     5
  6
CONTINUOUS
370
    -3
390
176
347
1DA3
  0
LAYER
  5
81
330
2
100
AcDbSymbolTableRecord
100
AcDbLayerTableRecord
  2
CENTER
 70
     0
 62
     1
  6
CENTER2
370
    -3
390
176
347
1DA3
  0
LAYER
  5
82
330
2
100
AcDbSymbolTableRecord
100
AcDbLayerTableRecord
  2
DIM
 70
     0
 62
     1
  6
CONTINUOUS
370
    -3
390
176
347
1DA3
  0
LAYER
  5
83
330
2
100
AcDbSymbolTableRecord
100
AcDbLayerTableRecord
  2
DEFPOINTS
 70
     0
 62
     7
  6
CONTINUOUS
290
     0
370
    -3
390
176
347
1DA3
  0
LAYER
  5
18D
330
2
100
AcDbSymbolTableRecord
100
AcDbLayerTableRecord
  2
DESHED
 70
     0
 62
   190
  6
DASHED2
370
    -3
390
176
347
1DA3
  0
LAYER
  5
7A6
330
2
100
AcDbSymbolTableRecord
100
AcDbLayerTableRecord
  2
HATCH
 70
     0
 62
     3
  6
CONTINUOUS
370
    -3
390
176
347
1DA3
  0
LAYER
  5
89D
330
2
100
AcDbSymbolTableRecord
100
AcDbLayerTableRecord
  2
标注线
 70
     0
 62
     1
  6
CONTINUOUS
370
    -3
390
176
347
1DA3
  0
LAYER
  5
9F0
330
2
100
AcDbSymbolTableRecord
100
AcDbLayerTableRecord
  2
DRAW
 70
     0
 62
     5
  6
CONTINUOUS
370
    -3
390
176
347
1DA3
  0
LAYER
  5
9F1
330
2
100
AcDbSymbolTableRecord
100
AcDbLayerTableRecord
  2
实体
 70
     0
 62
     5
  6
CONTINUOUS
370
    -3
390
176
347
1DA3
  0
LAYER
  5
9F2
330
2
100
AcDbSymbolTableRecord
100
AcDbLayerTableRecord
  2
中心线
 70
     0
 62
     1
  6
CENTER
370
    -3
390
176
347
1DA3
  0
LAYER
  5
C3C
330
2
100
AcDbSymbolTableRecord
100
AcDbLayerTableRecord
  2
标注
 70
     0
 62
     2
  6
CONTINUOUS
370
    -3
390
176
347
1DA3
  0
ENDTAB
  0
TABLE
  2
STYLE
  5
3
330
0
100
AcDbSymbolTable
 70
     2
  0
STYLE
  5
F
330
3
100
AcDbSymbolTableRecord
100
AcDbTextStyleTableRecord
  2
STANDARD
 70
     0
 40
0.0
 41
1.0
 50
0.0
 71
     0
 42
2.5
  3
txt
  4
hztxt.shx
  0
STYLE
  5
195
330
3
100
AcDbSymbolTableRecord
100
AcDbTextStyleTableRecord
  2

 70
     1
 40
0.0
 41
1.0
 50
0.0
 71
     0
 42
2.5
  3
ltypeshp.shx
  4

  0
ENDTAB
  0
TABLE
  2
VIEW
  5
6
330
0
100
AcDbSymbolTable
 70
     0
  0
ENDTAB
  0
TABLE
  2
UCS
  5
7
330
0
100
AcDbSymbolTable
 70
     0
  0
ENDTAB
  0
TABLE
  2
APPID
  5
9
330
0
100
AcDbSymbolTable
 70
     3
  0
APPID
  5
10
330
9
100
AcDbSymbolTableRecord
100
AcDbRegAppTableRecord
  2
ACAD
 70
     0
  0
APPID
  5
2BB
330
9
100
AcDbSymbolTableRecord
100
AcDbRegAppTableRecord
  2
DCO15
 70
     0
  0
APPID
  5
1DE4
330
9
100
AcDbSymbolTableRecord
100
AcDbRegAppTableRecord
  2
ACAD_MLEADERVER
 70
     0
  0
ENDTAB
  0
TABLE
  2
DIMSTYLE
  5
A
330
0
100
AcDbSymbolTable
 70
    11
100
AcDbDimStyleTable
  0
DIMSTYLE
105
1D
102
{ACAD_REACTORS
330
1D28
330
1D35
330
1D42
102
}
330
A
100
AcDbSymbolTableRecord
100
AcDbDimStyleTableRecord
  2
STANDARD
 70
     0
178
     0
340
F
  0
DIMSTYLE
105
84
102
{ACAD_REACTORS
330
8D
330
8B
330
86
330
95
330
89
330
90
330
8F
330
9C
330
88
330
87
102
}
330
A
100
AcDbSymbolTableRecord
100
AcDbDimStyleTableRecord
  2
B
 70
     0
 40
7.62
 41
1.5
 42
0.3125
 43
0.7
 44
1.0
 73
     0
 74
     0
 77
     1
140
1.5
141
0.045
147
0.3
178
     0
271
     1
340
F
  0
DIMSTYLE
105
204
330
A
100
AcDbSymbolTableRecord
100
AcDbDimStyleTableRecord
  2
b1
 70
     0
  3
"
  4
"
 40
10.0
 41
1.5
 42
0.3125
 43
0.7
 44
1.0
 47
1.0
 48
1.0
 77
     1
140
3.0
141
0.045
143
0.03937
144
0.03937
146
0.8
147
0.8
178
     0
271
     3
272
     3
273
     5
277
     5
340
F
  0
DIMSTYLE
105
205
330
A
100
AcDbSymbolTableRecord
100
AcDbDimStyleTableRecord
  2
B4
 70
     0
 40
7.62
 41
2.5
 42
0.3125
 43
0.7
 44
1.0
 77
     1
140
3.3
141
0.045
147
0.8
178
     0
271
     1
272
     1
289
     2
340
F
  0
DIMSTYLE
105
206
330
A
100
AcDbSymbolTableRecord
100
AcDbDimStyleTableRecord
  2
b44
 70
     0
  3
"
  4
"
 40
10.0
 41
2.1
 42
0.3125
 43
0.7
 44
1.0
 47
1.0
 48
1.0
 77
     1
140
3.0
141
0.045
143
0.03937
144
0.03937
146
0.8
147
0.8
178
     0
271
     3
272
     3
273
     5
277
     5
340
F
  0
DIMSTYLE
105
54B
330
A
100
AcDbSymbolTableRecord
100
AcDbDimStyleTableRecord
  2
bb
 70
     0
  4
"
 40
7.62
 41
1.5
 42
0.3125
 43
0.7
 44
1.0
 47
2.0
 48
2.0
 71
     1
 73
     0
 74
     0
 77
     1
140
1.5
141
0.045
143
0.03937
146
0.7
147
0.3
170
     1
178
     0
271
     1
272
     1
273
     5
284
     8
286
     8
289
     2
340
F
  0
DIMSTYLE
105
9F3
330
A
100
AcDbSymbolTableRecord
100
AcDbDimStyleTableRecord
  2
ISO-25
 70
     0
 41
2.5
 42
0.625
 43
3.75
 44
1.25
 73
     0
 74
     0
 77
     1
 78
     8
140
2.5
141
2.5
143
0.03937007874016
147
0.625
171
     3
172
     1
178
     0
271
     2
272
     2
274
     3
278
    44
283
     0
284
     8
340
F
  0
DIMSTYLE
105
9F4
330
A
100
AcDbSymbolTableRecord
100
AcDbDimStyleTableRecord
  2
B11
 70
     0
 40
7.62
 41
2.0
 42
0.8
 43
0.7
 44
1.5
 47
0.1
 71
     1
 73
     0
 74
     0
 77
     1
140
1.9
141
0.1
144
0.25
146
0.7
147
0.6
178
     0
271
     1
272
     1
340
F
  0
DIMSTYLE
105
9F5
330
A
100
AcDbSymbolTableRecord
100
AcDbDimStyleTableRecord
  2
A
 70
     0
 40
7.62
 41
2.0
 42
0.6
 43
0.7
 44
1.5
 73
     0
 74
     0
 77
     1
140
1.9
141
0.1
147
0.6
178
     0
271
     2
289
     2
340
F
  0
DIMSTYLE
105
C3D
330
A
100
AcDbSymbolTableRecord
100
AcDbDimStyleTableRecord
  2
圆角
 70
     0
 41
2.5
 42
0.0
 43
8.0
 44
1.25
 73
     0
 77
     1
 78
     8
 79
     2
140
2.5
141
0.0
147
1.0
176
   256
177
   256
271
     2
178
   256
179
     2
271
     2
272
     2
340
F
371
    -1
372
    -1
  0
DIMSTYLE
105
C3E
330
A
100
AcDbSymbolTableRecord
100
AcDbDimStyleTableRecord
  2
ISO
 70
     0
 41
50.0
 42
0.0
 43
160.0
 44
25.0
 73
     0
 77
     1
 78
     8
 79
     2
140
50.0
141
0.0
147
18.0
176
   256
177
   256
271
     0
178
   256
179
     2
271
     0
272
     0
340
F
371
    -1
372
    -1
  0
ENDTAB
  0
TABLE
  2
BLOCK_RECORD
  5
1
330
0
100
AcDbSymbolTable
 70
    16
  0
BLOCK_RECORD
  5
18
330
1
100
AcDbSymbolTableRecord
100
AcDbBlockTableRecord
  2
*Model_Space
340
17B
 70
     0
280
     1
281
     0
  0
BLOCK_RECORD
  5
15
330
1
100
AcDbSymbolTableRecord
100
AcDbBlockTableRecord
  2
*PAPER_SPACE
340
17C
 70
     0
280
     1
281
     0
  0
BLOCK_RECORD
  5
20
330
1
100
AcDbSymbolTableRecord
100
AcDbBlockTableRecord
  2
*D0
340
0
 70
     0
280
     1
281
     0
  0
BLOCK_RECORD
  5
2A
330
1
100
AcDbSymbolTableRecord
100
AcDbBlockTableRecord
  2
*D1
340
0
 70
     0
280
     1
281
     0
  0
BLOCK_RECORD
  5
34
330
1
100
AcDbSymbolTableRecord
100
AcDbBlockTableRecord
  2
*D2
340
0
 70
     0
280
     1
281
     0
  0
BLOCK_RECORD
  5
3C
330
1
100
AcDbSymbolTableRecord
100
AcDbBlockTableRecord
  2
*D3
340
0
 70
     0
280
     1
281
     0
  0
BLOCK_RECORD
  5
48
330
1
100
AcDbSymbolTableRecord
100
AcDbBlockTableRecord
  2
*D4
340
0
 70
     0
280
     1
281
     0
  0
BLOCK_RECORD
  5
54
330
1
100
AcDbSymbolTableRecord
100
AcDbBlockTableRecord
  2
*D5
340
0
 70
     0
280
     1
281
     0
  0
BLOCK_RECORD
  5
5C
330
1
100
AcDbSymbolTableRecord
100
AcDbBlockTableRecord
  2
*D6
340
0
 70
     0
280
     1
281
     0
  0
BLOCK_RECORD
  5
64
330
1
100
AcDbSymbolTableRecord
100
AcDbBlockTableRecord
  2
*D7
340
0
 70
     0
280
     1
281
     0
  0
BLOCK_RECORD
  5
6C
330
1
100
AcDbSymbolTableRecord
100
AcDbBlockTableRecord
  2
*D8
340
0
 70
     0
280
     1
281
     0
  0
BLOCK_RECORD
  5
74
330
1
100
AcDbSymbolTableRecord
100
AcDbBlockTableRecord
  2
*D9
340
0
 70
     0
280
     1
281
     0
  0
BLOCK_RECORD
  5
85
330
1
100
AcDbSymbolTableRecord
100
AcDbBlockTableRecord
  2
A$C656C1E65
340
0
 70
     0
280
     1
281
     0
  0
BLOCK_RECORD
  5
9F8
330
1
100
AcDbSymbolTableRecord
100
AcDbBlockTableRecord
  2
A$C2CB4366D
340
0
 70
     0
280
     1
281
     0
  0
BLOCK_RECORD
  5
1D29
330
1
100
AcDbSymbolTableRecord
100
AcDbBlockTableRecord
  2
*D32
340
0
 70
     0
280
     1
281
     0
  0
BLOCK_RECORD
  5
1D36
330
1
100
AcDbSymbolTableRecord
100
AcDbBlockTableRecord
  2
*D33
340
0
 70
     0
280
     1
281
     0
  0
BLOCK_RECORD
  5
1D43
330
1
100
AcDbSymbolTableRecord
100
AcDbBlockTableRecord
  2
*D34
340
0
 70
     0
280
     1
281
     0
  0
BLOCK_RECORD
  5
1DAE
330
1
100
AcDbSymbolTableRecord
100
AcDbBlockTableRecord
  2
12345ssdlh@&&@12345ssdlh+createbycq
340
0
 70
     0
280
     1
281
     0
  0
ENDTAB
  0
ENDSEC
  0
SECTION
  2
BLOCKS
  0
BLOCK
  5
19
330
18
100
AcDbEntity
  8
0
100
AcDbBlockBegin
  2
*Model_Space
 70
     0
 10
0.0
 20
0.0
 30
0.0
  3
*Model_Space
  1

  0
ENDBLK
  5
1A
330
18
100
AcDbEntity
  8
0
100
AcDbBlockEnd
  0
BLOCK
  5
16
330
15
100
AcDbEntity
 67
     1
  8
0
100
AcDbBlockBegin
  2
*PAPER_SPACE
 70
     0
 10
0.0
 20
0.0
 30
0.0
  3
*PAPER_SPACE
  1

  0
ENDBLK
  5
17
330
15
100
AcDbEntity
 67
     1
  8
0
100
AcDbBlockEnd
  0
BLOCK
  5
28
330
20
100
AcDbEntity
  8
0
100
AcDbBlockBegin
  2
*D0
 70
     1
 10
0.0
 20
0.0
 30
0.0
  3
*D0
  1

  0
LINE
  5
21
330
20
100
AcDbEntity
  8
0
  6
ByBlock
 62
     0
100
AcDbLine
 10
14341.544259
 20
-6766.314711
 30
0.0
 11
14255.088024
 21
-6768.621370999999
 31
0.0
  0
MTEXT
  5
22
330
20
100
AcDbEntity
  8
0
  6
ByBlock
 62
     0
100
AcDbMText
 10
14309.528684
 20
-6759.165042000001
 30
0.0
 40
11.43
 41
0.0
 46
0.0
 71
     5
 72
     1
  1
\A1;R1201.7
 11
0.9996442654170835
 21
0.02667100708146003
 31
0.0
 73
     1
 44
1.0
  0
SOLID
  5
23
330
20
100
AcDbEntity
  8
0
  6
ByBlock
 62
     0
100
AcDbTrace
 10
14266.463151
 20
-6766.412204
 30
0.0
 11
14266.564766
 21
-6770.220848000001
 31
0.0
 12
14255.088024
 22
-6768.621370999999
 32
0.0
 13
14255.088024
 23
-6768.621370999999
 33
0.0
  0
LINE
  5
24
330
20
100
AcDbEntity
  8
0
  6
ByBlock
 62
     0
100
AcDbLine
 10
13053.472597
 20
-6800.671423000001
 30
0.0
 11
13054.158397
 21
-6800.671423000001
 31
0.0
  0
LINE
  5
25
330
20
100
AcDbEntity
  8
0
  6
ByBlock
 62
     0
100
AcDbLine
 10
13053.815497
 20
-6801.014323
 30
0.0
 11
13053.815497
 21
-6800.328523
 31
0.0
  0
POINT
  5
26
330
20
100
AcDbEntity
  8
DEFPOINTS
  6
ByBlock
 62
     0
100
AcDbPoint
 10
14255.088024
 20
-6768.621370999999
 30
0.0
  0
POINT
  5
27
330
20
100
AcDbEntity
  8
DEFPOINTS
  6
ByBlock
 62
     0
100
AcDbPoint
 10
13053.815497
 20
-6800.671423000001
 30
0.0
  0
ENDBLK
  5
29
330
20
100
AcDbEntity
  8
0
100
AcDbBlockEnd
  0
BLOCK
  5
32
330
2A
100
AcDbEntity
  8
0
100
AcDbBlockBegin
  2
*D1
 70
     1
 10
0.0
 20
0.0
 30
0.0
  3
*D1
  1

  0
LINE
  5
2B
330
2A
100
AcDbEntity
  8
0
  6
ByBlock
 62
     0
100
AcDbLine
 10
13395.876672
 20
-6775.386468000001
 30
0.0
 11
13482.34701
 21
-6777.084062999999
 31
0.0
  0
MTEXT
  5
2C
330
2A
100
AcDbEntity
  8
0
  6
ByBlock
 62
     0
100
AcDbMText
 10
13427.841089
 20
-6768.011455
 30
0.0
 40
11.43
 41
0.0
 46
0.0
 71
     5
 72
     1
  1
\A1;R1201.7
 11
0.9998073521157146
 21
-0.01962800691266139
 31
0.0
 73
     1
 44
1.0
  0
SOLID
  5
2D
330
2A
100
AcDbEntity
  8
0
  6
ByBlock
 62
     0
100
AcDbTrace
 10
13470.956604
 20
-6774.955078
 30
0.0
 11
13470.88182
 21
-6778.764344
 31
0.0
 12
13482.34701
 22
-6777.084062999999
 32
0.0
 13
13482.34701
 23
-6777.084062999999
 33
0.0
  0
LINE
  5
2E
330
2A
100
AcDbEntity
  8
0
  6
ByBlock
 62
     0
100
AcDbLine
 10
14683.472597
 20
-6800.671423000001
 30
0.0
 11
14684.158397
 21
-6800.671423000001
 31
0.0
  0
LINE
  5
2F
330
2A
100
AcDbEntity
  8
0
  6
ByBlock
 62
     0
100
AcDbLine
 10
14683.815497
 20
-6801.014323
 30
0.0
 11
14683.815497
 21
-6800.328523
 31
0.0
  0
POINT
  5
30
330
2A
100
AcDbEntity
  8
DEFPOINTS
  6
ByBlock
 62
     0
100
AcDbPoint
 10
13482.34701
 20
-6777.084062999999
 30
0.0
  0
POINT
  5
31
330
2A
100
AcDbEntity
  8
DEFPOINTS
  6
ByBlock
 62
     0
100
AcDbPoint
 10
14683.815497
 20
-6800.671423000001
 30
0.0
  0
ENDBLK
  5
33
330
2A
100
AcDbEntity
  8
0
100
AcDbBlockEnd
  0
BLOCK
  5
3A
330
34
100
AcDbEntity
  8
0
100
AcDbBlockBegin
  2
*D2
 70
     1
 10
0.0
 20
0.0
 30
0.0
  3
*D2
  1

  0
LINE
  5
35
330
34
100
AcDbEntity
  8
0
  6
ByBlock
 62
     0
100
AcDbLine
 10
13677.052022
 20
-8359.574506
 30
0.0
 11
13678.646219
 21
-8460.301735
 31
0.0
  0
MTEXT
  5
36
330
34
100
AcDbEntity
  8
0
  6
ByBlock
 62
     0
100
AcDbMText
 10
13685.585612
 20
-8393.162169
 30
0.0
 40
11.43
 41
0.0
 46
0.0
 71
     5
 72
     1
  1
\A1;R1992.0
 11
0.01582499646904806
 21
-0.9998747769029653
 31
0.0
 73
     1
 44
1.0
  0
SOLID
  5
37
330
34
100
AcDbEntity
  8
0
  6
ByBlock
 62
     0
100
AcDbTrace
 10
13680.370102
 20
-8448.84302
 30
0.0
 11
13676.560579
 21
-8448.903312
 31
0.0
 12
13678.646219
 22
-8460.301735
 32
0.0
 13
13678.646219
 23
-8460.301735
 33
0.0
  0
POINT
  5
38
330
34
100
AcDbEntity
  8
DEFPOINTS
  6
ByBlock
 62
     0
100
AcDbPoint
 10
13678.646219
 20
-8460.301735
 30
-240.0
  0
POINT
  5
39
330
34
100
AcDbEntity
  8
DEFPOINTS
  6
ByBlock
 62
     0
100
AcDbPoint
 10
13647.123023
 20
-6468.551176
 30
-240.0
  0
ENDBLK
  5
3B
330
34
100
AcDbEntity
  8
0
100
AcDbBlockEnd
  0
BLOCK
  5
46
330
3C
100
AcDbEntity
  8
0
100
AcDbBlockBegin
  2
*D3
 70
     1
 10
0.0
 20
0.0
 30
0.0
  3
*D3
  1

  0
LINE
  5
3D
330
3C
100
AcDbEntity
  8
0
  6
ByBlock
 62
     0
100
AcDbLine
 10
13668.815497
 20
-7011.227542000001
 30
0.0
 11
13668.815497
 21
-7154.564311
 31
0.0
  0
LINE
  5
3E
330
3C
100
AcDbEntity
  8
0
  6
ByBlock
 62
     0
100
AcDbLine
 10
14067.315497
 20
-7011.227542000001
 30
0.0
 11
14067.315497
 21
-7154.564311
 31
0.0
  0
LINE
  5
3F
330
3C
100
AcDbEntity
  8
0
  6
ByBlock
 62
     0
100
AcDbLine
 10
13680.245497
 20
-7146.944311
 30
0.0
 11
14055.885497
 21
-7146.944311
 31
0.0
  0
SOLID
  5
40
330
3C
100
AcDbEntity
  8
0
  6
ByBlock
 62
     0
100
AcDbTrace
 10
13680.245497
 20
-7145.039311
 30
0.0
 11
13680.245497
 21
-7148.849311
 31
0.0
 12
13668.815497
 22
-7146.944311
 32
0.0
 13
13668.815497
 23
-7146.944311
 33
0.0
  0
SOLID
  5
41
330
3C
100
AcDbEntity
  8
0
  6
ByBlock
 62
     0
100
AcDbTrace
 10
14055.885497
 20
-7145.039311
 30
0.0
 11
14055.885497
 21
-7148.849311
 31
0.0
 12
14067.315497
 22
-7146.944311
 32
0.0
 13
14067.315497
 23
-7146.944311
 33
0.0
  0
MTEXT
  5
42
330
3C
100
AcDbEntity
  8
0
  6
ByBlock
 62
     0
100
AcDbMText
 10
13868.065497
 20
-7138.943311
 30
0.0
 40
11.43
 41
0.0
 46
0.0
 71
     5
 72
     1
  1
\A1;398.5
 73
     1
 44
1.0
  0
POINT
  5
43
330
3C
100
AcDbEntity
  8
DEFPOINTS
  6
ByBlock
 62
     0
100
AcDbPoint
 10
13668.815497
 20
-7008.846292
 30
0.0
  0
POINT
  5
44
330
3C
100
AcDbEntity
  8
DEFPOINTS
  6
ByBlock
 62
     0
100
AcDbPoint
 10
14067.315497
 20
-7008.846292
 30
0.0
  0
POINT
  5
45
330
3C
100
AcDbEntity
  8
DEFPOINTS
  6
ByBlock
 62
     0
100
AcDbPoint
 10
14067.315497
 20
-7146.944311
 30
0.0
  0
ENDBLK
  5
47
330
3C
100
AcDbEntity
  8
0
100
AcDbBlockEnd
  0
BLOCK
  5
52
330
48
100
AcDbEntity
  8
0
100
AcDbBlockBegin
  2
*D4
 70
     1
 10
0.0
 20
0.0
 30
0.0
  3
*D4
  1

  0
LINE
  5
49
330
48
100
AcDbEntity
  8
0
  6
ByBlock
 62
     0
100
AcDbLine
 10
14013.139376
 20
-7008.846292
 30
0.0
 11
14397.146276
 21
-7008.846292
 31
0.0
  0
LINE
  5
4A
330
48
100
AcDbEntity
  8
0
  6
ByBlock
 62
     0
100
AcDbLine
 10
14013.139376
 20
-6598.846292
 30
0.0
 11
14397.146276
 21
-6598.846292
 31
0.0
  0
LINE
  5
4B
330
48
100
AcDbEntity
  8
0
  6
ByBlock
 62
     0
100
AcDbLine
 10
14389.526276
 20
-6997.416292
 30
0.0
 11
14389.526276
 21
-6610.276292
 31
0.0
  0
SOLID
  5
4C
330
48
100
AcDbEntity
  8
0
  6
ByBlock
 62
     0
100
AcDbTrace
 10
14387.621276
 20
-6997.416292
 30
0.0
 11
14391.431276
 21
-6997.416292
 31
0.0
 12
14389.526276
 22
-7008.846292
 32
0.0
 13
14389.526276
 23
-7008.846292
 33
0.0
  0
SOLID
  5
4D
330
48
100
AcDbEntity
  8
0
  6
ByBlock
 62
     0
100
AcDbTrace
 10
14387.621276
 20
-6610.276292
 30
0.0
 11
14391.431276
 21
-6610.276292
 31
0.0
 12
14389.526276
 22
-6598.846292
 32
0.0
 13
14389.526276
 23
-6598.846292
 33
0.0
  0
MTEXT
  5
4E
330
48
100
AcDbEntity
  8
0
  6
ByBlock
 62
     0
100
AcDbMText
 10
14381.525276
 20
-6803.846292
 30
0.0
 40
11.43
 41
0.0
 46
0.0
 71
     5
 72
     1
  1
\A1;410.0
 11
0.0
 21
1.0
 31
0.0
 73
     1
 44
1.0
  0
POINT
  5
4F
330
48
100
AcDbEntity
  8
DEFPOINTS
  6
ByBlock
 62
     0
100
AcDbPoint
 10
14010.758126
 20
-7008.846292
 30
0.0
  0
POINT
  5
50
330
48
100
AcDbEntity
  8
DEFPOINTS
  6
ByBlock
 62
     0
100
AcDbPoint
 10
14010.758126
 20
-6598.846292
 30
0.0
  0
POINT
  5
51
330
48
100
AcDbEntity
  8
DEFPOINTS
  6
ByBlock
 62
     0
100
AcDbPoint
 10
14389.526276
 20
-6598.846292
 30
0.0
  0
ENDBLK
  5
53
330
48
100
AcDbEntity
  8
0
100
AcDbBlockEnd
  0
BLOCK
  5
5A
330
54
100
AcDbEntity
  8
0
100
AcDbBlockBegin
  2
*D5
 70
     1
 10
0.0
 20
0.0
 30
0.0
  3
*D5
  1

  0
LINE
  5
55
330
54
100
AcDbEntity
  8
0
  6
ByBlock
 62
     0
100
AcDbLine
 10
13568.490578
 20
-6688.648233
 30
0.0
 11
13508.594126
 21
-6643.415852
 31
0.0
  0
MTEXT
  5
56
330
54
100
AcDbEntity
  8
0
  6
ByBlock
 62
     0
100
AcDbMText
 10
13552.485365
 20
-6666.535321
 30
0.0
 40
11.43
 41
0.0
 46
0.0
 71
     5
 72
     1
  1
\A1;R100.0
 11
0.7980131126120273
 21
-0.6026400850418629
 31
0.0
 73
     1
 44
1.0
  0
SOLID
  5
57
330
54
100
AcDbEntity
  8
0
  6
ByBlock
 62
     0
100
AcDbTrace
 10
13518.863443
 20
-6648.783817
 30
0.0
 11
13516.567383
 21
-6651.824246
 31
0.0
 12
13508.594126
 22
-6643.415852
 32
0.0
 13
13508.594126
 23
-6643.415852
 33
0.0
  0
POINT
  5
58
330
54
100
AcDbEntity
  8
DEFPOINTS
  6
ByBlock
 62
     0
100
AcDbPoint
 10
13508.594126
 20
-6643.415852
 30
0.0
  0
POINT
  5
59
330
54
100
AcDbEntity
  8
DEFPOINTS
  6
ByBlock
 62
     0
100
AcDbPoint
 10
13588.395413
 20
-6703.679893
 30
0.0
  0
ENDBLK
  5
5B
330
54
100
AcDbEntity
  8
0
100
AcDbBlockEnd
  0
BLOCK
  5
62
330
5C
100
AcDbEntity
  8
0
100
AcDbBlockBegin
  2
*D6
 70
     1
 10
0.0
 20
0.0
 30
0.0
  3
*D6
  1

  0
LINE
  5
5D
330
5C
100
AcDbEntity
  8
0
  6
ByBlock
 62
     0
100
AcDbLine
 10
13567.56031
 20
-6916.906498
 30
0.0
 11
13503.100062
 21
-6955.356852
 31
0.0
  0
MTEXT
  5
5E
330
5C
100
AcDbEntity
  8
0
  6
ByBlock
 62
     0
100
AcDbMText
 10
13541.047699
 20
-6923.404893999999
 30
0.0
 40
11.43
 41
0.0
 46
0.0
 71
     5
 72
     1
  1
\A1;R100.0
 11
0.8588172202810629
 21
0.5122821313970537
 31
0.0
 73
     1
 44
1.0
  0
SOLID
  5
5F
330
5C
100
AcDbEntity
  8
0
  6
ByBlock
 62
     0
100
AcDbTrace
 10
13511.940446
 20
-6947.865421
 30
0.0
 11
13513.892241
 21
-6951.137515
 31
0.0
 12
13503.100062
 22
-6955.356852
 32
0.0
 13
13503.100062
 23
-6955.356852
 33
0.0
  0
POINT
  5
60
330
5C
100
AcDbEntity
  8
DEFPOINTS
  6
ByBlock
 62
     0
100
AcDbPoint
 10
13503.100062
 20
-6955.356852
 30
0.0
  0
POINT
  5
61
330
5C
100
AcDbEntity
  8
DEFPOINTS
  6
ByBlock
 62
     0
100
AcDbPoint
 10
13588.981789
 20
-6904.128647
 30
0.0
  0
ENDBLK
  5
63
330
5C
100
AcDbEntity
  8
0
100
AcDbBlockEnd
  0
BLOCK
  5
6A
330
64
100
AcDbEntity
  8
0
100
AcDbBlockBegin
  2
*D7
 70
     1
 10
0.0
 20
0.0
 30
0.0
  3
*D7
  1

  0
LINE
  5
65
330
64
100
AcDbEntity
  8
0
  6
ByBlock
 62
     0
100
AcDbLine
 10
14155.379353
 20
-6910.746087
 30
0.0
 11
14221.683408
 21
-6972.025601
 31
0.0
  0
MTEXT
  5
66
330
64
100
AcDbEntity
  8
0
  6
ByBlock
 62
     0
100
AcDbMText
 10
14179.976244
 20
-6922.584188
 30
0.0
 40
11.43
 41
0.0
 46
0.0
 71
     5
 72
     1
  1
\A1;R100.0
 11
0.7343850684762703
 21
-0.67873306328711
 31
0.0
 73
     1
 44
1.0
  0
SOLID
  5
67
330
64
100
AcDbEntity
  8
0
  6
ByBlock
 62
     0
100
AcDbTrace
 10
14214.582374
 20
-6962.868678
 30
0.0
 11
14211.996401
 21
-6965.666684999999
 31
0.0
 12
14221.683408
 22
-6972.025601
 32
0.0
 13
14221.683408
 23
-6972.025601
 33
0.0
  0
POINT
  5
68
330
64
100
AcDbEntity
  8
DEFPOINTS
  6
ByBlock
 62
     0
100
AcDbPoint
 10
14221.683408
 20
-6972.025601
 30
0.0
  0
POINT
  5
69
330
64
100
AcDbEntity
  8
DEFPOINTS
  6
ByBlock
 62
     0
100
AcDbPoint
 10
14148.244905
 20
-6904.152290000001
 30
0.0
  0
ENDBLK
  5
6B
330
64
100
AcDbEntity
  8
0
100
AcDbBlockEnd
  0
BLOCK
  5
72
330
6C
100
AcDbEntity
  8
0
100
AcDbBlockBegin
  2
*D8
 70
     1
 10
0.0
 20
0.0
 30
0.0
  3
*D8
  1

  0
LINE
  5
6D
330
6C
100
AcDbEntity
  8
0
  6
ByBlock
 62
     0
100
AcDbLine
 10
14147.071113
 20
-6705.400954
 30
0.0
 11
14218.907586
 21
-6632.269192
 31
0.0
  0
MTEXT
  5
6E
330
6C
100
AcDbEntity
  8
0
  6
ByBlock
 62
     0
100
AcDbMText
 10
14159.652036
 20
-6681.175593999999
 30
0.0
 40
11.43
 41
0.0
 46
0.0
 71
     5
 72
     1
  1
\A1;R100.0
 11
0.7007610588860054
 21
0.7133960599477436
 31
0.0
 73
     1
 44
1.0
  0
SOLID
  5
6F
330
6C
100
AcDbEntity
  8
0
  6
ByBlock
 62
     0
100
AcDbTrace
 10
14209.53887
 20
-6639.088362
 30
0.0
 11
14212.25691
 21
-6641.758261
 31
0.0
 12
14218.907586
 22
-6632.269192
 32
0.0
 13
14218.907586
 23
-6632.269192
 33
0.0
  0
POINT
  5
70
330
6C
100
AcDbEntity
  8
DEFPOINTS
  6
ByBlock
 62
     0
100
AcDbPoint
 10
14218.907586
 20
-6632.269192
 30
0.0
  0
POINT
  5
71
330
6C
100
AcDbEntity
  8
DEFPOINTS
  6
ByBlock
 62
     0
100
AcDbPoint
 10
14148.831504
 20
-6703.608821
 30
0.0
  0
ENDBLK
  5
73
330
6C
100
AcDbEntity
  8
0
100
AcDbBlockEnd
  0
BLOCK
  5
7E
330
74
100
AcDbEntity
  8
0
100
AcDbBlockBegin
  2
*D9
 70
     1
 10
0.0
 20
0.0
 30
0.0
  3
*D9
  1

  0
LINE
  5
75
330
74
100
AcDbEntity
  8
0
  6
ByBlock
 62
     0
100
AcDbLine
 10
13484.120708
 20
-6806.591445
 30
0.0
 11
13484.120708
 21
-7187.83882
 31
0.0
  0
LINE
  5
76
330
74
100
AcDbEntity
  8
0
  6
ByBlock
 62
     0
100
AcDbLine
 10
14253.110425
 20
-6806.567684000001
 30
0.0
 11
14253.110425
 21
-7187.83882
 31
0.0
  0
LINE
  5
77
330
74
100
AcDbEntity
  8
0
  6
ByBlock
 62
     0
100
AcDbLine
 10
13495.550708
 20
-7180.21882
 30
0.0
 11
14241.680425
 21
-7180.21882
 31
0.0
  0
SOLID
  5
78
330
74
100
AcDbEntity
  8
0
  6
ByBlock
 62
     0
100
AcDbTrace
 10
13495.550708
 20
-7178.31382
 30
0.0
 11
13495.550708
 21
-7182.123820000001
 31
0.0
 12
13484.120708
 22
-7180.21882
 32
0.0
 13
13484.120708
 23
-7180.21882
 33
0.0
  0
SOLID
  5
79
330
74
100
AcDbEntity
  8
0
  6
ByBlock
 62
     0
100
AcDbTrace
 10
14241.680425
 20
-7178.31382
 30
0.0
 11
14241.680425
 21
-7182.123820000001
 31
0.0
 12
14253.110425
 22
-7180.21882
 32
0.0
 13
14253.110425
 23
-7180.21882
 33
0.0
  0
MTEXT
  5
7A
330
74
100
AcDbEntity
  8
0
  6
ByBlock
 62
     0
100
AcDbMText
 10
13868.615566
 20
-7172.21782
 30
0.0
 40
11.43
 41
0.0
 46
0.0
 71
     5
 72
     1
  1
\A1;769.0
 73
     1
 44
1.0
  0
POINT
  5
7B
330
74
100
AcDbEntity
  8
DEFPOINTS
  6
ByBlock
 62
     0
100
AcDbPoint
 10
13484.120708
 20
-6804.210195000001
 30
0.0
  0
POINT
  5
7C
330
74
100
AcDbEntity
  8
DEFPOINTS
  6
ByBlock
 62
     0
100
AcDbPoint
 10
14253.110425
 20
-6804.186434
 30
0.0
  0
POINT
  5
7D
330
74
100
AcDbEntity
  8
DEFPOINTS
  6
ByBlock
 62
     0
100
AcDbPoint
 10
14253.110425
 20
-7180.21882
 30
0.0
  0
ENDBLK
  5
7F
330
74
100
AcDbEntity
  8
0
100
AcDbBlockEnd
  0
BLOCK
  5
9F
330
85
100
AcDbEntity
  8
0
100
AcDbBlockBegin
  2
A$C656C1E65
 70
     0
 10
0.0
 20
0.0
 30
0.0
  3
A$C656C1E65
  1

  0
DIMENSION
  5
86
330
85
100
AcDbEntity
  8
DIM
100
AcDbDimension
  2
*D2
 10
595.1504150000001
 20
1991.750582
 30
-240.0
 11
625.6130049999999
 21
67.012975
 31
0.0
 12
-13051.972608
 22
8460.301758
 32
0.0
 70
   132
 71
     5
 42
-1.0
 73
     0
 74
     0
 75
     0
  3
B
100
AcDbRadialDimension
 15
626.673611
 25
0.000023
 35
-240.0
 40
0.0
1001
ACAD
1000
DSTYLE
1002
{
1070
   288
1070
     1
1070
   287
1070
     3
1002
}
  0
DIMENSION
  5
87
330
85
100
AcDbEntity
  8
DIM
100
AcDbDimension
  2
*D9
 10
1201.137817
 20
1280.082938
 30
0.0
 11
816.642958
 21
1288.083938
 31
0.0
 12
-13051.972608
 22
8460.301758
 32
0.0
 71
     5
 42
-1.0
 73
     0
 74
     0
 75
     0
  3
B
100
AcDbAlignedDimension
 13
432.148099
 23
1656.091563
 33
0.0
 14
1201.137817
 24
1656.115324
 34
0.0
100
AcDbRotatedDimension
1001
ACAD
1000
DSTYLE
1002
{
1070
   287
1070
     3
1002
}
  0
DIMENSION
  5
88
330
85
100
AcDbEntity
  8
DIM
100
AcDbDimension
  2
*D8
 10
1096.858896
 20
1756.692937
 30
0.0
 11
1113.387311
 21
1773.519377
 31
0.0
 12
-13051.972608
 22
8460.301758
 32
0.0
 70
   132
 71
     5
 42
-1.0
 73
     0
 74
     0
 75
     0
  3
B
100
AcDbRadialDimension
 15
1166.934978
 25
1828.032566
 35
0.0
 40
0.0
1001
ACAD
1000
DSTYLE
1002
{
1070
   288
1070
     1
1070
   287
1070
     3
1002
}
  0
DIMENSION
  5
89
330
85
100
AcDbEntity
  8
DIM
100
AcDbDimension
  2
*D4
 10
1337.553668
 20
1861.455466
 30
0.0
 11
1329.552668
 21
1656.455466
 31
0.0
 12
-13051.972608
 22
8460.301758
 32
0.0
 71
     5
 42
-1.0
 73
     0
 74
     0
 75
     0
  3
B
100
AcDbAlignedDimension
 13
958.785517
 23
1451.455466
 33
0.0
 14
958.785517
 24
1861.455466
 34
0.0
 50
90.0
100
AcDbRotatedDimension
1001
ACAD
1000
DSTYLE
1002
{
1070
   287
1070
     3
1002
}
  0
LINE
  5
8A
330
85
100
AcDbEntity
  8
CENTER
100
AcDbLine
 10
1279.165219
 20
1656.091563
 30
0.0
 11
383.128884
 21
1656.091563
 31
0.0
  0
DIMENSION
  5
8B
330
85
100
AcDbEntity
  8
DIM
100
AcDbDimension
  2
*D1
 10
1633.342957
 20
1659.606933
 30
0.0
 11
377.211503
 21
1684.267442
 31
0.0
 12
-13050.47254
 22
8460.278356
 32
0.0
 70
   132
 71
     5
 42
-1.0
 73
     0
 74
     0
 75
     0
  3
B
100
AcDbRadialDimension
 15
431.87447
 25
1683.194293
 35
0.0
 40
0.0
1001
ACAD
1000
DSTYLE
1002
{
1070
   288
1070
     1
1070
   287
1070
     3
1002
}
  0
ARC
  5
8C
330
85
100
AcDbEntity
  8
0
100
AcDbCircle
 10
1015.342889
 20
2251.455466
 30
0.0
 40
800.0
100
AcDbArc
 50
270.0
 51
276.6390089999999
  0
DIMENSION
  5
8D
330
85
100
AcDbEntity
  8
DIM
100
AcDbDimension
  2
*D0
 10
0.342889
 20
1659.630335
 30
0.0
 11
1256.269467
 21
1693.138562
 31
0.0
 12
-13053.472608
 22
8460.301758
 32
0.0
 70
   132
 71
     5
 42
-1.0
 73
     0
 74
     0
 75
     0
  3
B
100
AcDbRadialDimension
 15
1201.615416
 25
1691.680387
 35
0.0
 40
0.0
1001
ACAD
1000
DSTYLE
1002
{
1070
   288
1070
     1
1070
   287
1070
     3
1002
}
  0
ARC
  5
8E
330
85
100
AcDbEntity
  8
0
100
AcDbCircle
 10
1015.342889
 20
1061.455466
 30
0.0
 40
800.0
100
AcDbArc
 50
83.312651
 51
90.0
  0
DIMENSION
  5
8F
330
85
100
AcDbEntity
  8
DIM
100
AcDbDimension
  2
*D6
 10
537.00918
 20
1556.173112
 30
0.0
 11
493.173859
 21
1530.025467
 31
0.0
 12
-13051.972608
 22
8460.301758
 32
0.0
 70
   132
 71
     5
 42
-1.0
 73
     0
 74
     0
 75
     0
  3
B
100
AcDbRadialDimension
 15
451.127454
 25
1504.944906
 35
0.0
 40
0.0
1001
ACAD
1000
DSTYLE
1002
{
1070
   288
1070
     1
1070
   287
1070
     3
1002
}
  0
DIMENSION
  5
90
330
85
100
AcDbEntity
  8
DIM
100
AcDbDimension
  2
*D5
 10
536.422804
 20
1756.621866
 30
0.0
 11
495.69103
 21
1787.381536
 31
0.0
 12
-13051.972608
 22
8460.301758
 32
0.0
 70
   132
 71
     5
 42
-1.0
 73
     0
 74
     0
 75
     0
  3
B
100
AcDbRadialDimension
 15
456.621517
 25
1816.885906
 35
0.0
 40
0.0
1001
ACAD
1000
DSTYLE
1002
{
1070
   288
1070
     1
1070
   287
1070
     3
1002
}
  0
ARC
  5
91
330
85
100
AcDbEntity
  8
0
100
AcDbCircle
 10
537.00918
 20
1556.173112
 30
0.0
 40
100.0
100
AcDbArc
 50
185.387186
 51
263.311912
  0
ARC
  5
92
330
85
100
AcDbEntity
  8
0
100
AcDbCircle
 10
536.422804
 20
1756.621866
 30
0.0
 40
100.0
100
AcDbArc
 50
96.70306
 51
174.94803
  0
ARC
  5
93
330
85
100
AcDbEntity
  8
0
100
AcDbCircle
 10
1633.842957
 20
1659.606933
 30
0.0
 40
1201.7
100
AcDbArc
 50
174.94803
 51
185.387186
  0
LINE
  5
94
330
85
100
AcDbEntity
  8
CENTER
100
AcDbLine
 10
816.842889
 20
1938.975354
 30
0.0
 11
816.842889
 21
1347.654955
 31
0.0
  0
DIMENSION
  5
95
330
85
100
AcDbEntity
  8
DIM
100
AcDbDimension
  2
*D3
 10
1015.342889
 20
1313.357448
 30
0.0
 11
816.092889
 21
1321.358448
 31
0.0
 12
-13051.972608
 22
8460.301758
 32
0.0
 71
     5
 42
-1.0
 73
     0
 74
     0
 75
     0
  3
B
100
AcDbAlignedDimension
 13
616.842889
 23
1451.455466
 33
0.0
 14
1015.342889
 24
1451.455466
 34
0.0
100
AcDbRotatedDimension
1001
ACAD
1000
DSTYLE
1002
{
1070
   287
1070
     3
1002
}
  0
LINE
  5
96
330
85
100
AcDbEntity
  8
0
100
AcDbLine
 10
616.842889
 20
1451.455466
 30
0.0
 11
1015.342889
 21
1451.455466
 31
0.0
  0
ARC
  5
97
330
85
100
AcDbEntity
  8
0
100
AcDbCircle
 10
617.757021
 20
2244.782231
 30
0.0
 40
793.3272910000001
100
AcDbArc
 50
263.311912
 51
269.933979
  0
MTEXT
  5
98
330
85
100
AcDbEntity
  8
DIM
 62
     4
100
AcDbMText
 10
885.0721289999999
 20
1611.242917
 30
0.0
 40
50.0
 41
156.6151
 46
0.0
 71
     1
 72
     5
  1
\f华文新魏|b0|i0|c134|p2;\C3;502
 73
     1
 44
1.0
  0
LINE
  5
99
330
85
100
AcDbEntity
  8
0
100
AcDbLine
 10
1015.342889
 20
1861.455466
 30
0.0
 11
616.842889
 21
1861.455466
 31
0.0
  0
ARC
  5
9A
330
85
100
AcDbEntity
  8
0
100
AcDbCircle
 10
619.0106
 20
1053.909345
 30
0.0
 40
807.549031
100
AcDbArc
 50
90.1538
 51
96.70306
  0
ARC
  5
9B
330
85
100
AcDbEntity
  8
0
100
AcDbCircle
 10
-0.5570430000000001
 20
1659.630335
 30
0.0
 40
1201.7
100
AcDbArc
 50
354.610357
 51
5.054459
  0
DIMENSION
  5
9C
330
85
100
AcDbEntity
  8
DIM
100
AcDbDimension
  2
*D7
 10
1096.272297
 20
1556.149468
 30
0.0
 11
1122.573092
 21
1531.841755
 31
0.0
 12
-13051.972608
 22
8460.301758
 32
0.0
 70
   132
 71
     5
 42
-1.0
 73
     0
 74
     0
 75
     0
  3
B
100
AcDbRadialDimension
 15
1169.7108
 25
1488.276157
 35
0.0
 40
0.0
1001
ACAD
1000
DSTYLE
1002
{
1070
   288
1070
     1
1070
   287
1070
     3
1002
}
  0
ARC
  5
9D
330
85
100
AcDbEntity
  8
0
100
AcDbCircle
 10
1096.272297
 20
1556.149468
 30
0.0
 40
100.0
100
AcDbArc
 50
276.6390089999999
 51
354.610357
  0
ARC
  5
9E
330
85
100
AcDbEntity
  8
0
100
AcDbCircle
 10
1096.858896
 20
1756.692937
 30
0.0
 40
100.0
100
AcDbArc
 50
5.054459
 51
83.312651
  0
ENDBLK
  5
A0
330
85
100
AcDbEntity
  8
0
100
AcDbBlockEnd
  0
BLOCK
  5
A72
330
9F8
100
AcDbEntity
  8
0
100
AcDbBlockBegin
  2
A$C2CB4366D
 70
     0
 10
0.0
 20
0.0
 30
0.0
  3
A$C2CB4366D
  1

  0
MTEXT
  5
9F9
330
9F8
100
AcDbEntity
  8
DIM
  6
Continuous
 62
     0
100
AcDbMText
 10
4813.21739608237
 20
657.0541696522463
 30
-198.8766513823
 40
19.05
 41
0.0
 46
0.0
 71
     5
 72
     1
  1
\A1;456 [18"]
 11
6.123031769111886E-17
 21
1.0
 31
0.0
 73
     1
 44
1.0
  0
SOLID
  5
9FA
330
9F8
100
AcDbEntity
  8
DIM
  6
Continuous
 62
     0
100
AcDbTrace
 10
4828.457396082371
 20
440.484169652245
 30
-198.8766513823
 11
4832.26739608237
 21
440.484169652245
 31
-198.8766513823
 12
4830.362396082371
 22
429.054169652245
 32
-198.8766513823
 13
4830.362396082371
 23
429.054169652245
 33
-198.8766513823
  0
SOLID
  5
9FB
330
9F8
100
AcDbEntity
  8
DIM
  6
Continuous
 62
     0
100
AcDbTrace
 10
4828.457396082371
 20
873.6241696522451
 30
-198.8766513823
 11
4832.26739608237
 21
873.6241696522451
 31
-198.8766513823
 12
4830.362396082371
 22
885.054169652245
 32
-198.8766513823
 13
4830.362396082371
 23
885.054169652245
 33
-198.8766513823
  0
LINE
  5
9FC
330
9F8
100
AcDbEntity
  8
DIM
  6
Continuous
 62
     0
100
AcDbLine
 10
4830.362396082371
 20
873.6241696522451
 30
-198.8766513823
 11
4830.362396082371
 21
440.484169652245
 31
-198.8766513823
  0
LINE
  5
9FD
330
9F8
100
AcDbEntity
  8
DIM
  6
Continuous
 62
     0
100
AcDbLine
 10
4768.966121483924
 20
429.054169652245
 30
-198.8766513823
 11
4837.982396082371
 21
429.054169652245
 31
-198.8766513823
  0
LINE
  5
9FE
330
9F8
100
AcDbEntity
  8
DIM
  6
Continuous
 62
     0
100
AcDbLine
 10
4768.966121483927
 20
885.054169652245
 30
-198.8766513823
 11
4837.982396082371
 21
885.054169652245
 31
-198.8766513823
  0
MTEXT
  5
9FF
330
9F8
100
AcDbEntity
  8
DIM
  6
Continuous
 62
     0
100
AcDbMText
 10
4375.584871483928
 20
359.552818743135
 30
-198.8766513823
 40
19.05
 41
0.0
 46
0.0
 71
     5
 72
     1
  1
\A1;786 [31"]
 73
     1
 44
1.0
  0
SOLID
  5
A00
330
9F8
100
AcDbEntity
  8
DIM
  6
Continuous
 62
     0
100
AcDbTrace
 10
4757.154871483926
 20
344.312818743135
 30
-198.8766513823
 11
4757.154871483926
 21
340.5028187431351
 31
-198.8766513823
 12
4768.584871483927
 22
342.4078187431351
 32
-198.8766513823
 13
4768.584871483927
 23
342.4078187431351
 33
-198.8766513823
  0
SOLID
  5
A01
330
9F8
100
AcDbEntity
  8
DIM
  6
Continuous
 62
     0
100
AcDbTrace
 10
3994.014871483928
 20
344.312818743135
 30
-198.8766513823
 11
3994.014871483928
 21
340.5028187431351
 31
-198.8766513823
 12
3982.584871483928
 22
342.4078187431351
 32
-198.8766513823
 13
3982.584871483928
 23
342.4078187431351
 33
-198.8766513823
  0
LINE
  5
A02
330
9F8
100
AcDbEntity
  8
DIM
  6
Continuous
 62
     0
100
AcDbLine
 10
3994.014871483928
 20
342.4078187431351
 30
-198.8766513823
 11
4757.154871483926
 21
342.4078187431351
 31
-198.8766513823
  0
LINE
  5
A03
330
9F8
100
AcDbEntity
  8
DIM
  6
Continuous
 62
     0
100
AcDbLine
 10
4768.584871483927
 20
428.6729196522468
 30
-198.8766513823
 11
4768.584871483927
 21
334.7878187431351
 31
-198.8766513823
  0
LINE
  5
A04
330
9F8
100
AcDbEntity
  8
DIM
  6
Continuous
 62
     0
100
AcDbLine
 10
3982.584871483928
 20
428.6729196522468
 30
-198.8766513823
 11
3982.584871483928
 21
334.7878187431351
 31
-198.8766513823
  0
MTEXT
  5
A05
330
9F8
100
AcDbEntity
  8
DIM
  6
Continuous
 62
     0
100
AcDbMText
 10
4373.334871483928
 20
2067.87108561696
 30
-198.8766513823
 40
19.05
 41
0.0
 46
0.0
 71
     5
 72
     1
  1
\A1;836 [33"]
 73
     1
 44
1.0
  0
SOLID
  5
A06
330
9F8
100
AcDbEntity
  8
DIM
  6
Continuous
 62
     0
100
AcDbTrace
 10
4782.154871483927
 20
2052.63108561696
 30
-198.8766513823
 11
4782.154871483927
 21
2048.821085616961
 31
-198.8766513823
 12
4793.584871483928
 22
2050.726085616961
 32
-198.8766513823
 13
4793.584871483928
 23
2050.726085616961
 33
-198.8766513823
  0
SOLID
  5
A07
330
9F8
100
AcDbEntity
  8
DIM
  6
Continuous
 62
     0
100
AcDbTrace
 10
3969.014871483928
 20
2052.63108561696
 30
-198.8766513823
 11
3969.014871483928
 21
2048.821085616961
 31
-198.8766513823
 12
3957.584871483928
 22
2050.726085616961
 32
-198.8766513823
 13
3957.584871483928
 23
2050.726085616961
 33
-198.8766513823
  0
LINE
  5
A08
330
9F8
100
AcDbEntity
  8
DIM
  6
Continuous
 62
     0
100
AcDbLine
 10
3969.014871483928
 20
2050.726085616961
 30
-198.8766513823
 11
4782.154871483927
 21
2050.726085616961
 31
-198.8766513823
  0
LINE
  5
A09
330
9F8
100
AcDbEntity
  8
DIM
  6
Continuous
 62
     0
100
AcDbLine
 10
4793.584871483928
 20
1958.134714862408
 30
-198.8766513823
 11
4793.584871483928
 21
2058.34608561696
 31
-198.8766513823
  0
LINE
  5
A0A
330
9F8
100
AcDbEntity
  8
DIM
  6
Continuous
 62
     0
100
AcDbLine
 10
3957.584871483928
 20
1958.134714862408
 30
-198.8766513823
 11
3957.584871483928
 21
2058.34608561696
 31
-198.8766513823
  0
MTEXT
  5
A0B
330
9F8
100
AcDbEntity
  8
DIM
  6
Continuous
 62
     0
100
AcDbMText
 10
4597.543069903912
 20
2004.064134129842
 30
-198.8766513823
 40
19.05
 41
0.0
 46
0.0
 71
     5
 72
     1
  1
\A1;328 [13"]
 73
     1
 44
1.0
  0
SOLID
  5
A0C
330
9F8
100
AcDbEntity
  8
DIM
  6
Continuous
 62
     0
100
AcDbTrace
 10
4757.154871483927
 20
1988.824134129842
 30
-198.8766513823
 11
4757.154871483927
 21
1985.014134129842
 31
-198.8766513823
 12
4768.584871483928
 22
1986.919134129842
 32
-198.8766513823
 13
4768.584871483928
 23
1986.919134129842
 33
-198.8766513823
  0
SOLID
  5
A0D
330
9F8
100
AcDbEntity
  8
DIM
  6
Continuous
 62
     0
100
AcDbTrace
 10
4452.014871483928
 20
1988.824134129842
 30
-198.8766513823
 11
4452.014871483928
 21
1985.014134129842
 31
-198.8766513823
 12
4440.584871483928
 22
1986.919134129842
 32
-198.8766513823
 13
4440.584871483928
 23
1986.919134129842
 33
-198.8766513823
  0
LINE
  5
A0E
330
9F8
100
AcDbEntity
  8
DIM
  6
Continuous
 62
     0
100
AcDbLine
 10
4452.014871483928
 20
1986.919134129842
 30
-198.8766513823
 11
4757.154871483927
 21
1986.919134129842
 31
-198.8766513823
  0
LINE
  5
A0F
330
9F8
100
AcDbEntity
  8
DIM
  6
Continuous
 62
     0
100
AcDbLine
 10
4768.584871483928
 20
1931.137300282879
 30
-198.8766513823
 11
4768.584871483928
 21
1994.539134129842
 31
-198.8766513823
  0
LINE
  5
A10
330
9F8
100
AcDbEntity
  8
DIM
  6
Continuous
 62
     0
100
AcDbLine
 10
4440.584871483928
 20
1920.216946639949
 30
-198.8766513823
 11
4440.584871483928
 21
1994.539134129842
 31
-198.8766513823
  0
MTEXT
  5
A11
330
9F8
100
AcDbEntity
  8
DIM
  6
Continuous
 62
     0
100
AcDbMText
 10
4198.518492580753
 20
2010.985554086981
 30
-198.8766513823
 40
19.05
 41
0.0
 46
0.0
 71
     5
 72
     1
  1
\A1;428 [16{\H0.700000x;\S3/4;}"]
 73
     1
 44
1.0
  0
SOLID
  5
A12
330
9F8
100
AcDbEntity
  8
DIM
  6
Continuous
 62
     0
100
AcDbTrace
 10
4399.154871483927
 20
1989.71305408698
 30
-198.8766513823
 11
4399.154871483927
 21
1985.903054086981
 31
-198.8766513823
 12
4410.584871483928
 22
1987.808054086981
 32
-198.8766513823
 13
4410.584871483928
 23
1987.808054086981
 33
-198.8766513823
  0
SOLID
  5
A13
330
9F8
100
AcDbEntity
  8
DIM
  6
Continuous
 62
     0
100
AcDbTrace
 10
3994.014871483928
 20
1989.71305408698
 30
-198.8766513823
 11
3994.014871483928
 21
1985.903054086981
 31
-198.8766513823
 12
3982.584871483928
 22
1987.808054086981
 32
-198.8766513823
 13
3982.584871483928
 23
1987.808054086981
 33
-198.8766513823
  0
LINE
  5
A14
330
9F8
100
AcDbEntity
  8
DIM
  6
Continuous
 62
     0
100
AcDbLine
 10
3994.014871483928
 20
1987.808054086981
 30
-198.8766513823
 11
4399.154871483927
 21
1987.808054086981
 31
-198.8766513823
  0
LINE
  5
A15
330
9F8
100
AcDbEntity
  8
DIM
  6
Continuous
 62
     0
100
AcDbLine
 10
4410.584871483928
 20
1935.49006394085
 30
-198.8766513823
 11
4410.584871483928
 21
1995.42805408698
 31
-198.8766513823
  0
LINE
  5
A16
330
9F8
100
AcDbEntity
  8
DIM
  6
Continuous
 62
     0
100
AcDbLine
 10
3982.584871483928
 20
1931.348965924596
 30
-198.8766513823
 11
3982.584871483928
 21
1995.42805408698
 31
-198.8766513823
  0
MTEXT
  5
A17
330
9F8
100
AcDbEntity
  8
DIM
  6
Continuous
 62
     0
100
AcDbMText
 10
3843.177692255733
 20
1727.590173060096
 30
-198.8766513823
 40
19.05
 41
0.0
 46
0.0
 71
     5
 72
     1
  1
\A1;506 [20"]
 11
6.123031769111886E-17
 21
1.0
 31
0.0
 73
     1
 44
1.0
  0
SOLID
  5
A18
330
9F8
100
AcDbEntity
  8
DIM
  6
Continuous
 62
     0
100
AcDbTrace
 10
3858.417692255734
 20
1465.683464862408
 30
-198.8766513823
 11
3862.227692255733
 21
1465.683464862408
 31
-198.8766513823
 12
3860.322692255733
 22
1454.253464862408
 32
-198.8766513823
 13
3860.322692255733
 23
1454.253464862408
 33
-198.8766513823
  0
SOLID
  5
A19
330
9F8
100
AcDbEntity
  8
DIM
  6
Continuous
 62
     0
100
AcDbTrace
 10
3858.417692255734
 20
1948.823464862408
 30
-198.8766513823
 11
3862.227692255733
 21
1948.823464862408
 31
-198.8766513823
 12
3860.322692255733
 22
1960.253464862408
 32
-198.8766513823
 13
3860.322692255733
 23
1960.253464862408
 33
-198.8766513823
  0
LINE
  5
A1A
330
9F8
100
AcDbEntity
  8
DIM
  6
Continuous
 62
     0
100
AcDbLine
 10
3860.322692255733
 20
1948.823464862408
 30
-198.8766513823
 11
3860.322692255733
 21
1465.683464862408
 31
-198.8766513823
  0
LINE
  5
A1B
330
9F8
100
AcDbEntity
  8
DIM
  6
Continuous
 62
     0
100
AcDbLine
 10
4008.445854604061
 20
1454.253464862408
 30
-198.8766513823
 11
3852.702692255733
 21
1454.253464862408
 31
-198.8766513823
  0
LINE
  5
A1C
330
9F8
100
AcDbEntity
  8
DIM
  6
Continuous
 62
     0
100
AcDbLine
 10
3986.221079010043
 20
1960.253464862408
 30
-198.8766513823
 11
3852.702692255733
 21
1960.253464862408
 31
-198.8766513823
  0
MTEXT
  5
A1D
330
9F8
100
AcDbEntity
  8
DIM
  6
Continuous
 62
     0
100
AcDbMText
 10
3895.408371483927
 20
1707.253464862409
 30
-198.8766513823
 40
19.05
 41
0.0
 46
0.0
 71
     5
 72
     1
  1
\A1;456 [18"]
 11
6.123031769111886E-17
 21
1.0
 31
0.0
 73
     1
 44
1.0
  0
SOLID
  5
A1E
330
9F8
100
AcDbEntity
  8
DIM
  6
Continuous
 62
     0
100
AcDbTrace
 10
3910.648371483928
 20
1923.823464862408
 30
-198.8766513823
 11
3914.458371483927
 21
1923.823464862408
 31
-198.8766513823
 12
3912.553371483928
 22
1935.253464862408
 32
-198.8766513823
 13
3912.553371483928
 23
1935.253464862408
 33
-198.8766513823
  0
SOLID
  5
A1F
330
9F8
100
AcDbEntity
  8
DIM
  6
Continuous
 62
     0
100
AcDbTrace
 10
3910.648371483928
 20
1490.683464862408
 30
-198.8766513823
 11
3914.458371483927
 21
1490.683464862408
 31
-198.8766513823
 12
3912.553371483928
 22
1479.253464862408
 32
-198.8766513823
 13
3912.553371483928
 23
1479.253464862408
 33
-198.8766513823
  0
LINE
  5
A20
330
9F8
100
AcDbEntity
  8
DIM
  6
Continuous
 62
     0
100
AcDbLine
 10
3912.553371483928
 20
1490.683464862408
 30
-198.8766513823
 11
3912.553371483928
 21
1923.823464862408
 31
-198.8766513823
  0
LINE
  5
A21
330
9F8
100
AcDbEntity
  8
DIM
  6
Continuous
 62
     0
100
AcDbLine
 10
4048.845197285767
 20
1935.253464862408
 30
-198.8766513823
 11
3904.933371483928
 21
1935.253464862408
 31
-198.8766513823
  0
LINE
  5
A22
330
9F8
100
AcDbEntity
  8
DIM
  6
Continuous
 62
     0
100
AcDbLine
 10
4027.961428241033
 20
1479.253464862408
 30
-198.8766513823
 11
3904.933371483928
 21
1479.253464862408
 31
-198.8766513823
  0
TEXT
  5
A23
330
9F8
100
AcDbEntity
  8
DIM
 62
     0
100
AcDbText
 10
3891.417871483927
 20
1990.230798454469
 30
0.0
 40
14.478
  1
25.0
100
AcDbText
  0
TEXT
  5
A24
330
9F8
100
AcDbEntity
  8
DIM
 62
     0
100
AcDbText
 10
3905.512572078615
 20
1397.387680107863
 30
0.0
 40
14.478
  1
25.0
 50
90.0
100
AcDbText
  0
MTEXT
  5
A25
330
9F8
100
AcDbEntity
  8
DIM
  6
Continuous
 62
     0
100
AcDbMText
 10
2019.087769408878
 20
2110.142899445588
 30
0.0
 40
60.003
 41
0.0
 46
0.0
 71
     4
 72
     1
  1
{\fTimes New Roman|b0|i0|c0|p18;MODEL: AS-303}
 73
     1
 44
1.0
  0
LINE
  5
A26
330
9F8
100
AcDbEntity
  8
实体
 62
     0
 48
3.0
100
AcDbLine
 10
4766.584871483927
 20
429.054169652245
 30
-198.8766513823
 11
3984.584871483928
 21
429.0541696522469
 31
-198.8766513823
  0
LINE
  5
A27
330
9F8
100
AcDbEntity
  8
实体
 62
     0
 48
3.0
100
AcDbLine
 10
3984.584871483928
 20
885.054169652246
 30
-198.8766513823
 11
4766.584871483927
 21
885.054169652245
 31
-198.8766513823
  0
LINE
  5
A28
330
9F8
100
AcDbEntity
  8
实体
 62
     0
 48
3.0
100
AcDbLine
 10
3982.584871483928
 20
431.0541696522469
 30
-198.8766513823
 11
3982.584871483928
 21
883.054169652246
 31
-198.8766513823
  0
ARC
  5
A29
330
9F8
100
AcDbEntity
  8
实体
 62
     0
 48
3.0
100
AcDbCircle
 10
3984.584871483928
 20
431.0541696522469
 30
-198.8766513823
 40
2.0
100
AcDbArc
 50
180.0
 51
270.0
  0
ARC
  5
A2A
330
9F8
100
AcDbEntity
  8
实体
 62
     0
 48
3.0
100
AcDbCircle
 10
3984.584871483928
 20
883.054169652246
 30
-198.8766513823
 40
2.0
100
AcDbArc
 50
90.0
 51
180.0
  0
LINE
  5
A2B
330
9F8
100
AcDbEntity
  8
实体
 62
     0
 48
3.0
100
AcDbLine
 10
4768.584871483927
 20
883.054169652245
 30
-198.8766513823
 11
4768.584871483927
 21
431.054169652245
 31
-198.8766513823
  0
ARC
  5
A2C
330
9F8
100
AcDbEntity
  8
实体
 62
     0
 48
3.0
100
AcDbCircle
 10
4766.584871483927
 20
431.054169652245
 30
-198.8766513823
 40
2.0
100
AcDbArc
 50
270.0
 51
0.0
  0
ARC
  5
A2D
330
9F8
100
AcDbEntity
  8
实体
 62
     0
 48
3.0
100
AcDbCircle
 10
4766.584871483927
 20
883.054169652245
 30
-198.8766513823
 40
2.0
100
AcDbArc
 50
0.0
 51
90.0
  0
SOLID
  5
A2E
330
9F8
100
AcDbEntity
  8
DIM
 62
     0
100
AcDbTrace
 10
3910.437826993651
 20
1490.683464862408
 30
0.0
 11
3914.24782699365
 21
1490.683464862408
 31
0.0
 12
3912.34282699365
 22
1479.253464862408
 32
0.0
 13
3912.34282699365
 23
1479.253464862408
 33
0.0
  0
LINE
  5
A2F
330
9F8
100
AcDbEntity
  8
DIM
 62
     0
100
AcDbLine
 10
3912.34282699365
 20
1454.253464862408
 30
0.0
 11
3912.34282699365
 21
1385.800464862408
 31
0.0
  0
LINE
  5
A30
330
9F8
100
AcDbEntity
  8
DIM
 62
     0
100
AcDbLine
 10
3912.34282699365
 20
1490.683464862408
 30
0.0
 11
3912.34282699365
 21
1502.113464862408
 31
0.0
  0
LINE
  5
A31
330
9F8
100
AcDbEntity
  8
DIM
 62
     0
100
AcDbLine
 10
3909.774284471615
 20
1454.253464862408
 30
0.0
 11
3919.96282699365
 21
1454.253464862408
 31
0.0
  0
LINE
  5
A32
330
9F8
100
AcDbEntity
  8
DIM
 62
     0
100
AcDbLine
 10
3914.309621483928
 20
1479.253464862408
 30
0.0
 11
3919.96282699365
 21
1479.253464862408
 31
0.0
  0
SOLID
  5
A33
330
9F8
100
AcDbEntity
  8
DIM
 62
     0
100
AcDbTrace
 10
3994.014871483928
 20
1989.849798454469
 30
0.0
 11
3994.014871483928
 21
1986.039798454469
 31
0.0
 12
3982.584871483928
 22
1987.944798454469
 32
0.0
 13
3982.584871483928
 23
1987.944798454469
 33
0.0
  0
LINE
  5
A34
330
9F8
100
AcDbEntity
  8
DIM
 62
     0
100
AcDbLine
 10
3957.584871483928
 20
1987.944798454469
 30
0.0
 11
3889.131871483928
 21
1987.944798454469
 31
0.0
  0
LINE
  5
A35
330
9F8
100
AcDbEntity
  8
DIM
 62
     0
100
AcDbLine
 10
3994.014871483928
 20
1987.944798454469
 30
0.0
 11
4005.444871483927
 21
1987.944798454469
 31
0.0
  0
LINE
  5
A36
330
9F8
100
AcDbEntity
  8
DIM
 62
     0
100
AcDbLine
 10
3957.584871483928
 20
1965.769760005788
 30
0.0
 11
3957.584871483928
 21
1995.564798454468
 31
0.0
  0
LINE
  5
A37
330
9F8
100
AcDbEntity
  8
DIM
 62
     0
100
AcDbLine
 10
3982.584871483928
 20
1965.769760005788
 30
0.0
 11
3982.584871483928
 21
1995.564798454468
 31
0.0
  0
LINE
  5
A38
330
9F8
100
AcDbEntity
  8
DESHED
 62
     0
 48
6.3
100
AcDbLine
 10
4630.902935516996
 20
1761.333528794648
 30
-198.8766513823
 11
4768.584871483928
 21
1479.253464862408
 31
-198.8766513823
  0
LINE
  5
A39
330
9F8
100
AcDbEntity
  8
实体
 62
     0
 48
3.0
100
AcDbLine
 10
4768.584871483928
 20
1935.253464862408
 30
-198.8766513823
 11
4768.584871483928
 21
1479.253464862408
 31
-198.8766513823
  0
LINE
  5
A3A
330
9F8
100
AcDbEntity
  8
实体
 62
     0
 48
3.0
100
AcDbLine
 10
4793.584871483928
 20
1955.753464862408
 30
-198.8766513823
 11
4793.584871483928
 21
1458.753464862408
 31
-198.8766513823
  0
LINE
  5
A3B
330
9F8
100
AcDbEntity
  8
DESHED
 62
     0
 48
6.3
100
AcDbLine
 10
4228.816890227544
 20
1764.646183096726
 30
-198.8766513823
 11
4410.584871483928
 21
1479.253464862408
 31
-198.8766513823
  0
LINE
  5
A3C
330
9F8
100
AcDbEntity
  8
DESHED
 62
     0
 48
6.3
100
AcDbLine
 10
4164.802584328664
 20
1764.362540099924
 30
-198.8766513823
 11
3982.584871483928
 21
1479.253464862408
 31
-198.8766513823
  0
LINE
  5
A3D
330
9F8
100
AcDbEntity
  8
实体
 62
     0
 48
3.0
100
AcDbLine
 10
3982.584871483928
 20
1479.253464862408
 30
-198.8766513823
 11
3982.584871483928
 21
1935.253464862408
 31
-198.8766513823
  0
LINE
  5
A3E
330
9F8
100
AcDbEntity
  8
实体
 62
     0
 48
3.0
100
AcDbLine
 10
3957.584871483928
 20
1458.753464862408
 30
-198.8766513823
 11
3957.584871483928
 21
1955.753464862408
 31
-198.8766513823
  0
LINE
  5
A3F
330
9F8
100
AcDbEntity
  8
实体
 62
     0
 48
3.0
100
AcDbLine
 10
4440.584871483928
 20
1479.253464862408
 30
-198.8766513823
 11
4440.584871483928
 21
1935.253464862408
 31
-198.8766513823
  0
LINE
  5
A40
330
9F8
100
AcDbEntity
  8
实体
 62
     0
 48
3.0
100
AcDbLine
 10
4410.584871483928
 20
1479.253464862408
 30
-198.8766513823
 11
4410.584871483928
 21
1935.253464862408
 31
-198.8766513823
  0
LINE
  5
A41
330
9F8
100
AcDbEntity
  8
DESHED
 62
     0
 48
6.3
100
AcDbLine
 10
4440.584871483928
 20
1479.253464862408
 30
-198.8766513823
 11
4578.266807450852
 21
1761.333528794648
 31
-198.8766513823
  0
LINE
  5
A42
330
9F8
100
AcDbEntity
  8
实体
 62
     0
 48
3.0
100
AcDbLine
 10
4410.584871483928
 20
1479.253464862408
 30
-198.8766513823
 11
3982.584871483928
 21
1479.253464862408
 31
-198.8766513823
  0
LINE
  5
A43
330
9F8
100
AcDbEntity
  8
实体
 62
     0
 48
3.0
100
AcDbLine
 10
4789.084871483928
 20
1454.253464862408
 30
-198.8766513823
 11
3962.084871483928
 21
1454.253464862408
 31
-198.8766513823
  0
ARC
  5
A44
330
9F8
100
AcDbEntity
  8
实体
 62
     0
 48
3.0
100
AcDbCircle
 10
3962.084871483928
 20
1458.753464862408
 30
-198.8766513823
 40
4.5
100
AcDbArc
 50
180.0
 51
270.0
  0
ARC
  5
A45
330
9F8
100
AcDbEntity
  8
实体
 62
     0
 48
3.0
100
AcDbCircle
 10
4789.084871483928
 20
1458.753464862408
 30
-198.8766513823
 40
4.5
100
AcDbArc
 50
270.0
 51
0.0
  0
LINE
  5
A46
330
9F8
100
AcDbEntity
  8
实体
 62
     0
 48
3.0
100
AcDbLine
 10
4768.584871483928
 20
1479.253464862408
 30
-198.8766513823
 11
4440.584871483928
 21
1479.253464862408
 31
-198.8766513823
  0
LINE
  5
A47
330
9F8
100
AcDbEntity
  8
实体
 62
     0
 48
3.0
100
AcDbLine
 10
3982.584871483928
 20
1935.253464862408
 30
-198.8766513823
 11
4410.584871483928
 21
1935.49006394085
 31
-198.8766513823
  0
CIRCLE
  5
A48
330
9F8
100
AcDbEntity
  8
实体
 62
     0
 48
3.0
100
AcDbCircle
 10
4196.584871483928
 20
1815.253464862408
 30
-198.8766513823
 40
60.0
  0
CIRCLE
  5
A49
330
9F8
100
AcDbEntity
  8
实体
 62
     0
 48
3.0
100
AcDbCircle
 10
4196.584871483928
 20
1815.253464862408
 30
-198.8766513823
 40
46.0
  0
LINE
  5
A4A
330
9F8
100
AcDbEntity
  8
实体
 62
     0
 48
3.0
100
AcDbLine
 10
3962.084871483928
 20
1960.253464862408
 30
-198.8766513823
 11
4789.084871483928
 21
1960.253464862408
 31
-198.8766513823
  0
ARC
  5
A4B
330
9F8
100
AcDbEntity
  8
实体
 62
     0
 48
3.0
100
AcDbCircle
 10
3962.084871483928
 20
1955.753464862408
 30
-198.8766513823
 40
4.5
100
AcDbArc
 50
90.0
 51
180.0
  0
LINE
  5
A4C
330
9F8
100
AcDbEntity
  8
DESHED
 62
     0
 48
6.3
100
AcDbLine
 10
3982.584871483928
 20
1935.253464862408
 30
-198.8766513823
 11
4143.881683377666
 21
1843.930528230829
 31
-198.8766513823
  0
ARC
  5
A4D
330
9F8
100
AcDbEntity
  8
实体
 62
     0
 48
3.0
100
AcDbCircle
 10
4789.084871483928
 20
1955.753464862408
 30
-198.8766513823
 40
4.5
100
AcDbArc
 50
0.0
 51
90.0
  0
LINE
  5
A4E
330
9F8
100
AcDbEntity
  8
DESHED
 62
     0
 48
6.3
100
AcDbLine
 10
4653.006691023432
 20
1850.684064525465
 30
-198.8766513823
 11
4768.584871483928
 21
1935.253464862408
 31
-198.8766513823
  0
LINE
  5
A4F
330
9F8
100
AcDbEntity
  8
DESHED
 62
     0
 48
6.3
100
AcDbLine
 10
4555.365000211911
 20
1849.566789853825
 30
-198.8766513823
 11
4440.584871483928
 21
1935.253464862408
 31
-198.8766513823
  0
LINE
  5
A50
330
9F8
100
AcDbEntity
  8
DESHED
 62
     0
 48
6.3
100
AcDbLine
 10
4248.918543342302
 20
1844.599449082061
 30
-198.8766513823
 11
4410.584871483928
 21
1935.253464862408
 31
-198.8766513823
  0
LINE
  5
A51
330
9F8
100
AcDbEntity
  8
实体
 62
     0
 48
3.0
100
AcDbLine
 10
4440.584871483928
 20
1935.253464862408
 30
-198.8766513823
 11
4768.584871483928
 21
1935.253464862408
 31
-198.8766513823
  0
CIRCLE
  5
A52
330
9F8
100
AcDbEntity
  8
实体
 62
     0
 48
3.0
100
AcDbCircle
 10
4604.584871483928
 20
1815.253464862408
 30
-198.8766513823
 40
60.0
  0
CIRCLE
  5
A53
330
9F8
100
AcDbEntity
  8
实体
 62
     0
 48
3.0
100
AcDbCircle
 10
4604.584871483928
 20
1815.253464862408
 30
-198.8766513823
 40
46.0
  0
MTEXT
  5
A54
330
9F8
100
AcDbEntity
  8
DIM
  6
Continuous
 62
     0
100
AcDbMText
 10
195.8159834985706
 20
647.7327535484649
 30
0.0
 40
60.003
 41
0.0
 46
0.0
 71
     4
 72
     1
  1
{\fTimes New Roman|b0|i0|c0|p18;CUT-OUT LINE}
 11
6.123031769111886E-17
 21
1.0
 31
0.0
 73
     1
 44
1.0
  0
LINE
  5
A55
330
9F8
100
AcDbEntity
  8
DIM
 62
     0
100
AcDbLine
 10
190.7511882340586
 20
328.1009211286894
 30
0.0
 11
190.7511882340586
 21
602.0702460987488
 31
0.0
  0
LINE
  5
A56
330
9F8
100
AcDbEntity
  8
DIM
 62
     0
100
AcDbLine
 10
-0.0000043200998334
 20
328.1009211286894
 30
0.0
 11
190.7511882340586
 21
328.1009211286894
 31
0.0
  0
MTEXT
  5
A57
330
9F8
100
AcDbEntity
  8
DIM
  6
Continuous
 62
     0
100
AcDbMText
 10
1888.753781642539
 20
847.8816933933826
 30
0.0
 40
60.003
 41
0.0
 46
0.0
 71
     4
 72
     1
  1
\pi-102.862,l102.862,t102.862;{\fTimes New Roman|b0|i0|c0|p18;2.^IMARKING AND CUTTING THE OPENING\P\pi0,l0,tz;\H0.8333x;Mark the opening with a pencil as shown on the\Ptemplate. jigsawneatly around the inside of the\Pcut-out line.}
 73
     1
 44
1.0
  0
MTEXT
  5
A58
330
9F8
100
AcDbEntity
  8
DIM
  6
Continuous
 62
     0
100
AcDbMText
 10
2027.217474422594
 20
1342.609146513343
 30
0.0
 40
60.003
 41
0.0
 46
0.0
 71
     4
 72
     1
  1
{\fTimes New Roman|b0|i0|c0|p18;CENTERLINE OF SINK}
 73
     1
 44
1.0
  0
LWPOLYLINE
  5
A59
330
9F8
100
AcDbEntity
  8
DIM
  6
Continuous
 62
     0
100
AcDbPolyline
 90
        3
 70
     0
 43
1.7145
 10
2590.816492561203
 20
136.574113032706
 10
2630.02499818606
 20
136.574113032706
 10
2630.02499818606
 20
136.574113032706
  0
SPLINE
  5
A5A
330
9F8
100
AcDbEntity
  8
DIM
  6
Continuous
 62
     0
100
AcDbSpline
210
0.0
220
0.0
230
1.0
 70
  1064
 71
     3
 72
     9
 73
     5
 74
     3
 42
0.000000001
 43
0.0000000001
 44
0.0000000001
 40
0.0
 40
0.0
 40
0.0
 40
0.0
 40
99.60107856881446
 40
238.5502468764372
 40
238.5502468764372
 40
238.5502468764372
 40
238.5502468764372
 10
2630.02499818606
 20
136.574113032706
 30
0.0
 10
2665.843577707837
 20
154.9355241222383
 30
0.0
 10
2751.631112446028
 20
198.9121477828091
 30
0.0
 10
2766.665672260067
 20
96.3271457684591
 30
0.0
 10
2775.422903113466
 20
36.57411303270601
 30
0.0
 11
2630.02499818606
 21
136.574113032706
 31
0.0
 11
2725.146478218076
 21
166.1084809553477
 31
0.0
 11
2775.422903113466
 21
36.57411303270601
 31
0.0
  0
LINE
  5
A5B
330
9F8
100
AcDbEntity
  8
DIM
 62
     0
100
AcDbLine
 10
1997.846839866468
 20
461.574113032706
 30
0.0
 11
3018.955728292412
 21
461.574113032706
 31
0.0
  0
LINE
  5
A5C
330
9F8
100
AcDbEntity
  8
DIM
 62
     0
100
AcDbLine
 10
3018.955728292412
 20
461.574113032706
 30
0.0
 11
3018.955728292412
 21
36.57411303270601
 31
0.0
  0
LINE
  5
A5D
330
9F8
100
AcDbEntity
  8
DIM
 62
     0
100
AcDbLine
 10
1997.846839866468
 20
36.57411303270601
 30
0.0
 11
1997.846839866468
 21
461.574113032706
 31
0.0
  0
LINE
  5
A5E
330
9F8
100
AcDbEntity
  8
DIM
 62
     0
100
AcDbLine
 10
1997.846839866468
 20
36.57411303270601
 30
0.0
 11
3018.955728292412
 21
36.57411303270601
 31
0.0
  0
LINE
  5
A5F
330
9F8
100
AcDbEntity
  8
中心线
 62
     0
 48
20.0
100
AcDbLine
 10
2097.846839866468
 20
361.574113032706
 30
0.0
 11
2918.955728292412
 21
361.5741130327058
 31
0.0
  0
LINE
  5
A60
330
9F8
100
AcDbEntity
  8
中心线
 62
     0
 48
20.0
100
AcDbLine
 10
2918.955728292412
 20
361.574113032706
 30
0.0
 11
2918.955728292412
 21
136.574113032706
 31
0.0
  0
LINE
  5
A61
330
9F8
100
AcDbEntity
  8
中心线
 62
     0
 48
20.0
100
AcDbLine
 10
2097.846839866468
 20
136.574113032706
 30
0.0
 11
2582.913052764075
 21
136.574113032706
 31
0.0
  0
LINE
  5
A62
330
9F8
100
AcDbEntity
  8
中心线
 62
     0
 48
20.0
100
AcDbLine
 10
2097.846839866468
 20
136.574113032706
 30
0.0
 11
2097.846839866469
 21
244.0539374287973
 31
0.0
  0
LINE
  5
A63
330
9F8
100
AcDbEntity
  8
中心线
 62
     0
 48
20.0
100
AcDbLine
 10
2097.846839866469
 20
244.0539374287973
 30
0.0
 11
2097.846839866468
 21
361.574113032706
 31
0.0
  0
LINE
  5
A64
330
9F8
100
AcDbEntity
  8
DRAW
 62
     0
 48
20.0
100
AcDbLine
 10
2582.913052764075
 20
136.574113032706
 30
0.0
 11
2918.955728292412
 21
136.574113032706
 31
0.0
  0
LINE
  5
A65
330
9F8
100
AcDbEntity
  8
DIM
 62
     0
100
AcDbLine
 10
2097.846839866469
 20
1651.126540080898
 30
0.0
 11
2063.295059354492
 21
1728.342111943257
 31
0.0
  0
LINE
  5
A66
330
9F8
100
AcDbEntity
  8
中心线
 62
     0
 48
20.0
100
AcDbLine
 10
2649.686560786968
 20
1543.646715684807
 30
0.0
 11
2918.955728292412
 21
1543.646715684807
 31
0.0
  0
LINE
  5
A67
330
9F8
100
AcDbEntity
  8
中心线
 62
     0
 48
20.0
100
AcDbLine
 10
2097.846839866469
 20
1651.126540080898
 30
0.0
 11
2097.846839866468
 21
1768.646715684807
 31
0.0
  0
LINE
  5
A68
330
9F8
100
AcDbEntity
  8
实体
 62
     0
100
AcDbLine
 10
2097.846839866468
 20
1543.646715684807
 30
0.0
 11
2097.846839866469
 21
1651.126540080898
 31
0.0
  0
LINE
  5
A69
330
9F8
100
AcDbEntity
  8
实体
 62
     0
100
AcDbLine
 10
2097.846839866468
 20
1543.646715684807
 30
0.0
 11
2649.686560786968
 21
1543.646715684807
 31
0.0
  0
LINE
  5
A6A
330
9F8
100
AcDbEntity
  8
中心线
 62
     0
 48
20.0
100
AcDbLine
 10
2918.955728292412
 20
1768.646715684807
 30
0.0
 11
2918.955728292412
 21
1543.646715684807
 31
0.0
  0
LINE
  5
A6B
330
9F8
100
AcDbEntity
  8
中心线
 62
     0
 48
20.0
100
AcDbLine
 10
2097.846839866468
 20
1768.646715684807
 30
0.0
 11
2918.955728292412
 21
1768.646715684806
 31
0.0
  0
LINE
  5
A6C
330
9F8
100
AcDbEntity
  8
DIM
 62
     0
100
AcDbLine
 10
1997.846839866468
 20
1443.646715684807
 30
0.0
 11
3018.955728292412
 21
1443.646715684807
 31
0.0
  0
LINE
  5
A6D
330
9F8
100
AcDbEntity
  8
DIM
 62
     0
100
AcDbLine
 10
1997.846839866468
 20
1443.646715684807
 30
0.0
 11
1997.846839866468
 21
1868.646715684807
 31
0.0
  0
LINE
  5
A6E
330
9F8
100
AcDbEntity
  8
DIM
 62
     0
100
AcDbLine
 10
3018.955728292412
 20
1868.646715684807
 30
0.0
 11
3018.955728292412
 21
1443.646715684807
 31
0.0
  0
LINE
  5
A6F
330
9F8
100
AcDbEntity
  8
DIM
 62
     0
100
AcDbLine
 10
1997.846839866468
 20
1868.646715684807
 30
0.0
 11
3018.955728292412
 21
1868.646715684807
 31
0.0
  0
MTEXT
  5
A70
330
9F8
100
AcDbEntity
  8
DIM
  6
Continuous
 62
     0
100
AcDbMText
 10
4268.545375932034
 20
282.7414088178658
 30
0.0
 40
30.0
 41
0.0
 46
0.0
 71
     4
 72
     1
  1
{\fTimes New Roman|b0|i0|c0|p18;CUTOUT DETAIL}
 73
     1
 44
1.0
  0
MTEXT
  5
A71
330
9F8
100
AcDbEntity
  8
DIM
  6
Continuous
 62
     0
100
AcDbMText
 10
450.0303136817756
 20
1134.865218213911
 30
0.0
 40
61.75
 41
0.0
 46
0.0
 71
     4
 72
     1
  3
{\fTimes New Roman|b0|i0|c0|p18;\H1.2x;CUT-OUT TEMPLATE\P   FOR HANDMADE SINK\P\P\H0.6666x;REQUIRED TO INSTALL SINK\P\PYOU will need the following tools\fSimSun|b0|i0|c134|p2;\P\pi-123.5,l123.5,t123.5;●\fTimes New Roman|b0|i0|c0|p18;  Pencil\P\ptz;\f
  3
SimSun|b0|i0|c134|p2;● \fTimes New Roman|b0|i0|c0|p18;Tape measure\P\fSimSun|b0|i0|c134|p2;● \fTimes New Roman|b0|i0|c0|p18;Drill\P\fSimSun|b0|i0|c134|p2;● \fTimes New Roman|b0|i0|c0|p18;Jigsaw\P\fSimSun|b0|i0|c134|p2;● \fTimes New Roman|b0|i0|c0|p18
  3
;Screwdriver\P\P\pi0,l0;Legal Disclaimer\P\P\H0.8332x;All products should be measured and\P inspected prior to installation.\PAmeriSink assumes no liability for any\Pdamages incurred through its application.\P\P\pi-123.5,l123.5,t123.5;\H1.2x;1.POSITI
  1
ON THE TEMPLATE\P\pi0,l0,tz;\H0.8332x;Position the marking template on the benchtop\Pto align with the plumbing connections. Check \Pabove and below the benchtop to make sure\Pthere are no divisions or pipes to interfere \Pwith the new sink\H1.8x;.}
 73
     1
 44
1.0
  0
ENDBLK
  5
A73
330
9F8
100
AcDbEntity
  8
0
100
AcDbBlockEnd
  0
BLOCK
  5
1D33
330
1D29
100
AcDbEntity
  8
0
100
AcDbBlockBegin
  2
*D32
 70
     1
 10
0.0
 20
0.0
 30
0.0
  3
*D32
  1

  0
LINE
  5
1D5B
330
1D29
100
AcDbEntity
  8
0
 62
     0
370
    -2
100
AcDbLine
 10
4508.94198031499
 20
3637.195205849639
 30
0.0
 11
4508.94198031499
 21
3506.958777652133
 31
0.0
  0
LINE
  5
1D5C
330
1D29
100
AcDbEntity
  8
0
 62
     0
370
    -2
100
AcDbLine
 10
5270.941980314991
 20
3637.195205849641
 30
0.0
 11
5270.941980314991
 21
3506.958777652133
 31
0.0
  0
LINE
  5
1D5D
330
1D29
100
AcDbEntity
  8
0
 62
     0
370
    -2
100
AcDbLine
 10
4511.44198031499
 20
3508.208777652133
 30
0.0
 11
5268.441980314991
 21
3508.208777652133
 31
0.0
  0
SOLID
  5
1D5E
330
1D29
100
AcDbEntity
  8
0
 62
     0
100
AcDbTrace
 10
4511.44198031499
 20
3508.625444318799
 30
0.0
 11
4511.44198031499
 21
3507.792110985466
 31
0.0
 12
4508.94198031499
 22
3508.208777652133
 32
0.0
 13
4508.94198031499
 23
3508.208777652133
 33
0.0
  0
SOLID
  5
1D5F
330
1D29
100
AcDbEntity
  8
0
 62
     0
100
AcDbTrace
 10
5268.441980314991
 20
3508.625444318799
 30
0.0
 11
5268.441980314991
 21
3507.792110985466
 31
0.0
 12
5270.941980314991
 22
3508.208777652133
 32
0.0
 13
5270.941980314991
 23
3508.208777652133
 33
0.0
  0
MTEXT
  5
1D60
330
1D29
100
AcDbEntity
  8
0
 62
     0
100
AcDbMText
 10
4889.94198031499
 20
3518.708777652133
 30
0.0
 40
15.0
 41
0.0
 46
0.0
 71
     5
 72
     1
  1
\A1;762
 73
     1
 44
1.0
  0
POINT
  5
1D61
330
1D29
100
AcDbEntity
  8
DEFPOINTS
 62
     0
100
AcDbPoint
 10
4508.94198031499
 20
3637.820205849639
 30
0.0
  0
POINT
  5
1D62
330
1D29
100
AcDbEntity
  8
DEFPOINTS
 62
     0
100
AcDbPoint
 10
5270.941980314991
 20
3637.820205849641
 30
0.0
  0
POINT
  5
1D63
330
1D29
100
AcDbEntity
  8
DEFPOINTS
 62
     0
100
AcDbPoint
 10
5270.941980314991
 20
3508.208777652133
 30
0.0
  0
ENDBLK
  5
1D34
330
1D29
100
AcDbEntity
  8
0
100
AcDbBlockEnd
  0
BLOCK
  5
1D40
330
1D36
100
AcDbEntity
  8
0
100
AcDbBlockBegin
  2
*D33
 70
     1
 10
0.0
 20
0.0
 30
0.0
  3
*D33
  1

  0
LINE
  5
1D52
330
1D36
100
AcDbEntity
  8
0
 62
     0
370
    -2
100
AcDbLine
 10
5225.376019681726
 20
3579.199246541002
 30
0.0
 11
5330.478236763789
 21
3579.199246541002
 31
0.0
  0
LINE
  5
1D53
330
1D36
100
AcDbEntity
  8
0
 62
     0
370
    -2
100
AcDbLine
 10
5225.376019681726
 20
3985.199246541002
 30
0.0
 11
5330.478236763789
 21
3985.199246541002
 31
0.0
  0
LINE
  5
1D54
330
1D36
100
AcDbEntity
  8
0
 62
     0
370
    -2
100
AcDbLine
 10
5329.228236763789
 20
3581.699246541002
 30
0.0
 11
5329.228236763789
 21
3982.699246541002
 31
0.0
  0
SOLID
  5
1D55
330
1D36
100
AcDbEntity
  8
0
 62
     0
100
AcDbTrace
 10
5328.811570097122
 20
3581.699246541002
 30
0.0
 11
5329.644903430456
 21
3581.699246541002
 31
0.0
 12
5329.228236763789
 22
3579.199246541002
 32
0.0
 13
5329.228236763789
 23
3579.199246541002
 33
0.0
  0
SOLID
  5
1D56
330
1D36
100
AcDbEntity
  8
0
 62
     0
100
AcDbTrace
 10
5328.811570097122
 20
3982.699246541002
 30
0.0
 11
5329.644903430456
 21
3982.699246541002
 31
0.0
 12
5329.228236763789
 22
3985.199246541002
 32
0.0
 13
5329.228236763789
 23
3985.199246541002
 33
0.0
  0
MTEXT
  5
1D57
330
1D36
100
AcDbEntity
  8
0
 62
     0
100
AcDbMText
 10
5318.728236763788
 20
3782.199246541003
 30
0.0
 40
15.0
 41
0.0
 46
0.0
 71
     5
 72
     1
  1
\A1;406
 11
6.123031769111886E-17
 21
1.0
 31
0.0
 73
     1
 44
1.0
  0
POINT
  5
1D58
330
1D36
100
AcDbEntity
  8
DEFPOINTS
 62
     0
100
AcDbPoint
 10
5224.751019681726
 20
3579.199246541002
 30
0.0
  0
POINT
  5
1D59
330
1D36
100
AcDbEntity
  8
DEFPOINTS
 62
     0
100
AcDbPoint
 10
5224.751019681726
 20
3985.199246541002
 30
0.0
  0
POINT
  5
1D5A
330
1D36
100
AcDbEntity
  8
DEFPOINTS
 62
     0
100
AcDbPoint
 10
5329.228236763789
 20
3985.199246541002
 30
0.0
  0
ENDBLK
  5
1D41
330
1D36
100
AcDbEntity
  8
0
100
AcDbBlockEnd
  0
BLOCK
  5
1D4A
330
1D43
100
AcDbEntity
  8
0
100
AcDbBlockBegin
  2
*D34
 70
     1
 10
0.0
 20
0.0
 30
0.0
  3
*D34
  1

  0
LINE
  5
1D4C
330
1D43
100
AcDbEntity
  8
0
 62
     0
370
    -2
100
AcDbLine
 10
5306.580010809294
 20
4022.433415049958
 30
0.0
 11
5268.122885416506
 21
3982.764100336724
 31
0.0
  0
MTEXT
  5
1D4D
330
1D43
100
AcDbEntity
  8
0
 62
     0
100
AcDbMText
 10
5284.772038270085
 20
4015.023129378737
 30
0.0
 40
15.0
 41
0.0
 46
0.0
 71
     5
 72
     1
  1
\A1;R15
 11
0.6960517200866523
 21
0.7179916454697873
 31
0.0
 73
     1
 44
1.0
  0
LINE
  5
1D4E
330
1D43
100
AcDbEntity
  8
0
 62
     0
370
    -2
100
AcDbLine
 10
5255.941980314987
 20
3970.199246541
 30
0.0
 11
5266.382756116289
 21
3980.96912122305
 31
0.0
  0
SOLID
  5
1D4F
330
1D43
100
AcDbEntity
  8
0
 62
     0
100
AcDbTrace
 10
5267.823722230894
 20
3983.05412188676
 30
0.0
 11
5268.422048602119
 21
3982.474078786688
 31
0.0
 12
5266.382756116289
 22
3980.96912122305
 32
0.0
 13
5266.382756116289
 23
3980.96912122305
 33
0.0
  0
POINT
  5
1D50
330
1D43
100
AcDbEntity
  8
DEFPOINTS
 62
     0
100
AcDbPoint
 10
5266.382756116289
 20
3980.96912122305
 30
0.0
  0
POINT
  5
1D51
330
1D43
100
AcDbEntity
  8
DEFPOINTS
 62
     0
100
AcDbPoint
 10
5255.941980314987
 20
3970.199246541
 30
0.0
  0
ENDBLK
  5
1D4B
330
1D43
100
AcDbEntity
  8
0
100
AcDbBlockEnd
  0
BLOCK
  5
1DAF
330
1DAE
100
AcDbEntity
  8
0
100
AcDbBlockBegin
  2
12345ssdlh@&&@12345ssdlh+createbycq
 70
     0
 10
0.0
 20
0.0
 30
0.0
  3
12345ssdlh@&&@12345ssdlh+createbycq
  1

  0
ENDBLK
  5
1DB0
330
1DAE
100
AcDbEntity
  8
0
100
AcDbBlockEnd
  0
ENDSEC
  0
SECTION
  2
ENTITIES
  0
TEXT
  5
1BEB
330
18
100
AcDbEntity
  8
0
 62
     0
100
AcDbText
 10
4804.042599794481
 20
4013.432641889732
 30
0.0
 40
25.00000000000003
  1
RR3218A/BL/C
100
AcDbText
  0
ARC
  5
1BEC
330
18
100
AcDbEntity
  8
0
 62
     0
100
AcDbCircle
 10
4732.337571307577
 20
3766.081797255873
 30
0.0
 40
1.99017
100
AcDbArc
 50
0.0
 51
90.0
  0
ARC
  5
1BED
330
18
100
AcDbEntity
  8
0
 62
     0
100
AcDbCircle
 10
4635.217381431122
 20
3712.745524543765
 30
0.0
 40
1.99017
100
AcDbArc
 50
180.0
 51
270.0
  0
ARC
  5
1BEE
330
18
100
AcDbEntity
  8
0
 62
     0
100
AcDbCircle
 10
4732.337571307578
 20
3712.745524543765
 30
0.0
 40
1.99017
100
AcDbArc
 50
270.0
 51
0.0
  0
LINE
  5
1BEF
330
18
100
AcDbEntity
  8
0
 62
     0
100
AcDbLine
 10
4635.217381431122
 20
3710.755354543765
 30
0.0
 11
4732.337571307578
 21
3710.755354543765
 31
0.0
  0
ARC
  5
1BF0
330
18
100
AcDbEntity
  8
0
 62
     0
100
AcDbCircle
 10
4737.113979307578
 20
3770.858438982301
 30
0.0
 40
0.530712
100
AcDbArc
 50
0.0
 51
90.0
  0
ARC
  5
1BF1
330
18
100
AcDbEntity
  8
0
 62
     0
100
AcDbCircle
 10
4737.113979307579
 20
3707.969116543765
 30
0.0
 40
0.530712
100
AcDbArc
 50
270.0
 51
0.0
  0
ARC
  5
1BF2
330
18
100
AcDbEntity
  8
0
 62
     0
100
AcDbCircle
 10
4630.440973431122
 20
3707.969116543765
 30
0.0
 40
0.530712
100
AcDbArc
 50
180.0
 51
270.0
  0
ARC
  5
1BF3
330
18
100
AcDbEntity
  8
0
 62
     0
100
AcDbCircle
 10
4630.440973431122
 20
3770.858438982301
 30
0.0
 40
0.530712
100
AcDbArc
 50
90.0
 51
180.0
  0
LINE
  5
1BF4
330
18
100
AcDbEntity
  8
0
 62
     0
100
AcDbLine
 10
4630.440973431122
 20
3707.438404543765
 30
0.0
 11
4737.113979307579
 21
3707.438404543765
 31
0.0
  0
LINE
  5
1BF5
330
18
100
AcDbEntity
  8
0
 62
     0
100
AcDbLine
 10
4635.217682220276
 20
3768.071967255872
 30
0.0
 11
4732.337571307577
 21
3768.071967255872
 31
0.0
  0
LINE
  5
1BF6
330
18
100
AcDbEntity
  8
0
 62
     0
100
AcDbLine
 10
4630.440973431122
 20
3771.389150982302
 30
0.0
 11
4737.113979307578
 21
3771.389150982302
 31
0.0
  0
ARC
  5
1BF7
330
18
100
AcDbEntity
  8
0
 62
     0
100
AcDbCircle
 10
4635.217381431122
 20
3766.081763688548
 30
0.0
 40
1.99017
100
AcDbArc
 50
90.0
 51
179.992307515891
  0
LINE
  5
1BF8
330
18
100
AcDbEntity
  8
0
 62
     0
100
AcDbLine
 10
4734.327741307578
 20
3766.081797255873
 30
0.0
 11
4734.327741307578
 21
3712.745524543765
 31
0.0
  0
LINE
  5
1BF9
330
18
100
AcDbEntity
  8
0
 62
     0
100
AcDbLine
 10
4633.227211431122
 20
3766.081763688548
 30
0.0
 11
4633.227211431122
 21
3712.745524543765
 31
0.0
  0
LINE
  5
1BFA
330
18
100
AcDbEntity
  8
0
 62
     0
100
AcDbLine
 10
4737.644691307578
 20
3770.858438982301
 30
0.0
 11
4737.644691307578
 21
3707.969116543765
 31
0.0
  0
LINE
  5
1BFB
330
18
100
AcDbEntity
  8
0
 62
     0
100
AcDbLine
 10
4629.910261431122
 20
3770.858438982301
 30
0.0
 11
4629.910261431122
 21
3707.969116543765
 31
0.0
  0
CIRCLE
  5
1BFC
330
18
100
AcDbEntity
  8
0
 62
     0
100
AcDbCircle
 10
4683.777423307579
 20
3752.149461391147
 30
0.0
 40
7.96068
  0
CIRCLE
  5
1BFD
330
18
100
AcDbEntity
  8
0
 62
     0
100
AcDbCircle
 10
4683.777423307579
 20
3752.149461391147
 30
0.0
 40
5.97051
  0
LINE
  5
1BFE
330
18
100
AcDbEntity
  8
0
 62
     0
100
AcDbLine
 10
4689.965619010052
 20
3747.1416015678
 30
0.0
 11
4732.012056940308
 21
3712.755354543765
 31
0.0
  0
LINE
  5
1BFF
330
18
100
AcDbEntity
  8
0
 62
     0
100
AcDbLine
 10
4677.58923301605
 20
3747.141594881521
 30
0.0
 11
4635.542892135792
 21
3712.755354543765
 31
0.0
  0
LINE
  5
1C00
330
18
100
AcDbEntity
  8
0
 62
     0
100
AcDbLine
 10
4676.109642498624
 20
3754.288985527075
 30
0.0
 11
4635.227211431122
 21
3766.071967255872
 31
0.0
  0
LINE
  5
1C01
330
18
100
AcDbEntity
  8
0
 62
     0
100
AcDbLine
 10
4691.450217369532
 20
3754.270936666811
 30
0.0
 11
4732.337571307577
 21
3766.081797255873
 31
0.0
  0
ARC
  5
1C02
330
18
100
AcDbEntity
  8
0
 62
     0
100
AcDbCircle
 10
4731.497293951252
 20
3845.525534982304
 30
0.0
 40
1.99017
100
AcDbArc
 50
0.0
 51
90.0
  0
ARC
  5
1C03
330
18
100
AcDbEntity
  8
0
 62
     0
100
AcDbCircle
 10
4731.497293951252
 20
3792.188978982303
 30
0.0
 40
1.99017
100
AcDbArc
 50
270.0
 51
0.0
  0
LINE
  5
1C04
330
18
100
AcDbEntity
  8
0
 62
     0
100
AcDbLine
 10
4736.804413951252
 20
3850.235603982303
 30
0.0
 11
4736.804413951252
 21
3787.478909982304
 31
0.0
  0
LINE
  5
1C05
330
18
100
AcDbEntity
  8
0
 62
     0
100
AcDbLine
 10
4733.487463951252
 20
3845.525534982304
 30
0.0
 11
4733.487463951252
 21
3792.188978982303
 31
0.0
  0
CIRCLE
  5
1C06
330
18
100
AcDbEntity
  8
0
 62
     0
100
AcDbCircle
 10
4711.728271951252
 20
3831.753558582303
 30
0.0
 40
5.97051
  0
LINE
  5
1C07
330
18
100
AcDbEntity
  8
0
 62
     0
100
AcDbLine
 10
4715.421073452958
 20
3824.701208397338
 30
0.0
 11
4731.497293951252
 21
3792.198808982303
 31
0.0
  0
LINE
  5
1C08
330
18
100
AcDbEntity
  8
0
 62
     0
100
AcDbLine
 10
4718.17518919355
 20
3836.42364253587
 30
0.0
 11
4730.726521190309
 21
3845.515704982303
 31
0.0
  0
ARC
  5
1C09
330
18
100
AcDbEntity
  8
0
 62
     0
100
AcDbCircle
 10
4736.207362951252
 20
3850.235603982303
 30
0.0
 40
0.597051
100
AcDbArc
 50
0.0
 51
90.0
  0
ARC
  5
1C0A
330
18
100
AcDbEntity
  8
0
 62
     0
100
AcDbCircle
 10
4736.207362951252
 20
3787.478909982304
 30
0.0
 40
0.597051
100
AcDbArc
 50
270.0
 51
0.0
  0
ARC
  5
1C0B
330
18
100
AcDbEntity
  8
0
 62
     0
100
AcDbCircle
 10
4683.998569951252
 20
3845.525534982304
 30
0.0
 40
1.99017
100
AcDbArc
 50
0.0
 51
90.0
  0
ARC
  5
1C0C
330
18
100
AcDbEntity
  8
0
 62
     0
100
AcDbCircle
 10
4691.959249951252
 20
3845.525534982304
 30
0.0
 40
1.99017
100
AcDbArc
 50
90.0
 51
180.0
  0
ARC
  5
1C0D
330
18
100
AcDbEntity
  8
0
 62
     0
100
AcDbCircle
 10
4691.959249951252
 20
3792.188978982303
 30
0.0
 40
1.99017
100
AcDbArc
 50
180.0
 51
270.0
  0
ARC
  5
1C0E
330
18
100
AcDbEntity
  8
0
 62
     0
100
AcDbCircle
 10
4683.998569951252
 20
3792.188978982303
 30
0.0
 40
1.99017
100
AcDbArc
 50
270.0
 51
0.0
  0
ARC
  5
1C0F
330
18
100
AcDbEntity
  8
0
 62
     0
100
AcDbCircle
 10
4634.244319951252
 20
3792.188978982303
 30
0.0
 40
1.99017
100
AcDbArc
 50
180.0
 51
270.0
  0
ARC
  5
1C10
330
18
100
AcDbEntity
  8
0
 62
     0
100
AcDbCircle
 10
4634.244319951252
 20
3845.525534982304
 30
0.0
 40
1.99017
100
AcDbArc
 50
90.0
 51
180.0
  0
LINE
  5
1C11
330
18
100
AcDbEntity
  8
0
 62
     0
100
AcDbLine
 10
4629.534250951252
 20
3850.832654982303
 30
0.0
 11
4687.978909951252
 21
3850.832654982303
 31
0.0
  0
LINE
  5
1C12
330
18
100
AcDbEntity
  8
0
 62
     0
100
AcDbLine
 10
4628.937199951251
 20
3787.478909982304
 30
0.0
 11
4628.937199951251
 21
3850.235603982303
 31
0.0
  0
LINE
  5
1C13
330
18
100
AcDbEntity
  8
0
 62
     0
100
AcDbLine
 10
4634.244319951252
 20
3847.515704982303
 30
0.0
 11
4683.998569951252
 21
3847.515704982303
 31
0.0
  0
LINE
  5
1C14
330
18
100
AcDbEntity
  8
0
 62
     0
100
AcDbLine
 10
4685.988739951252
 20
3792.188978982303
 30
0.0
 11
4685.988739951252
 21
3845.525534982304
 31
0.0
  0
LINE
  5
1C15
330
18
100
AcDbEntity
  8
0
 62
     0
100
AcDbLine
 10
4689.969079951252
 20
3792.188978982303
 30
0.0
 11
4689.969079951252
 21
3845.525534982304
 31
0.0
  0
LINE
  5
1C16
330
18
100
AcDbEntity
  8
0
 62
     0
100
AcDbLine
 10
4632.254149951252
 20
3792.188978982303
 30
0.0
 11
4632.254149951252
 21
3845.525534982304
 31
0.0
  0
CIRCLE
  5
1C17
330
18
100
AcDbEntity
  8
0
 62
     0
100
AcDbCircle
 10
4659.121444951252
 20
3831.753558582303
 30
0.0
 40
7.96068
  0
CIRCLE
  5
1C18
330
18
100
AcDbEntity
  8
0
 62
     0
100
AcDbCircle
 10
4659.121444951252
 20
3831.753558582303
 30
0.0
 40
5.97051
  0
LINE
  5
1C19
330
18
100
AcDbEntity
  8
0
 62
     0
100
AcDbLine
 10
4683.998569951252
 20
3790.198808982303
 30
0.0
 11
4634.244319951252
 21
3790.198808982303
 31
0.0
  0
LINE
  5
1C1A
330
18
100
AcDbEntity
  8
0
 62
     0
100
AcDbLine
 10
4663.443704717869
 20
3825.068463476601
 30
0.0
 11
4683.998569951252
 21
3792.198808982303
 31
0.0
  0
LINE
  5
1C1B
330
18
100
AcDbEntity
  8
0
 62
     0
100
AcDbLine
 10
4665.987729718086
 20
3835.781778978847
 30
0.0
 11
4682.59640472398
 21
3845.525534982304
 31
0.0
  0
LINE
  5
1C1C
330
18
100
AcDbEntity
  8
0
 62
     0
100
AcDbLine
 10
4634.244319951252
 20
3845.525534982304
 30
0.0
 11
4652.205703671928
 21
3835.696266867208
 31
0.0
  0
LINE
  5
1C1D
330
18
100
AcDbEntity
  8
0
 62
     0
100
AcDbLine
 10
4654.858516069879
 20
3825.030474214637
 30
0.0
 11
4634.254149951252
 21
3792.198808982303
 31
0.0
  0
LINE
  5
1C1E
330
18
100
AcDbEntity
  8
0
 62
     0
100
AcDbLine
 10
4687.978909951252
 20
3786.881858982303
 30
0.0
 11
4629.534250951252
 21
3786.881858982303
 31
0.0
  0
ARC
  5
1C1F
330
18
100
AcDbEntity
  8
0
 62
     0
100
AcDbCircle
 10
4629.534250951252
 20
3787.478909982304
 30
0.0
 40
0.597051
100
AcDbArc
 50
180.0
 51
270.0
  0
ARC
  5
1C20
330
18
100
AcDbEntity
  8
0
 62
     0
100
AcDbCircle
 10
4629.534250951252
 20
3850.235603982303
 30
0.0
 40
0.597051
100
AcDbArc
 50
90.0
 51
180.0
  0
LINE
  5
1C21
330
18
100
AcDbEntity
  8
0
 62
     0
100
AcDbLine
 10
4736.207362951252
 20
3786.881858982303
 30
0.0
 11
4687.978909951252
 21
3786.881858982303
 31
0.0
  0
LINE
  5
1C22
330
18
100
AcDbEntity
  8
0
 62
     0
100
AcDbLine
 10
4731.497293951252
 20
3790.198808982303
 30
0.0
 11
4691.959249951252
 21
3790.198808982303
 31
0.0
  0
LINE
  5
1C23
330
18
100
AcDbEntity
  8
0
 62
     0
100
AcDbLine
 10
4691.959249951252
 20
3847.515704982303
 30
0.0
 11
4731.497293951252
 21
3847.515704982303
 31
0.0
  0
CIRCLE
  5
1C24
330
18
100
AcDbEntity
  8
0
 62
     0
100
AcDbCircle
 10
4711.728271951252
 20
3831.753558582303
 30
0.0
 40
7.96068
  0
LINE
  5
1C25
330
18
100
AcDbEntity
  8
0
 62
     0
100
AcDbLine
 10
4691.969079951252
 20
3792.198808982303
 30
0.0
 11
4708.035470449546
 21
3824.701208397338
 31
0.0
  0
LINE
  5
1C26
330
18
100
AcDbEntity
  8
0
 62
     0
100
AcDbLine
 10
4705.176999502008
 20
3836.2760861232
 30
0.0
 11
4691.959249951252
 21
3845.515704982303
 31
0.0
  0
LINE
  5
1C27
330
18
100
AcDbEntity
  8
0
 62
     0
100
AcDbLine
 10
4687.978909951252
 20
3850.832654982303
 30
0.0
 11
4736.207362951252
 21
3850.832654982303
 31
0.0
  0
ARC
  5
1C28
330
18
100
AcDbEntity
  8
0
 62
     0
100
AcDbCircle
 10
4731.519390307579
 20
3929.888330982303
 30
0.0
 40
1.99017
100
AcDbArc
 50
0.0
 51
90.0
  0
ARC
  5
1C29
330
18
100
AcDbEntity
  8
0
 62
     0
100
AcDbCircle
 10
4731.519390307579
 20
3876.551774982303
 30
0.0
 40
1.99017
100
AcDbArc
 50
270.0
 51
0.0
  0
LINE
  5
1C2A
330
18
100
AcDbEntity
  8
0
 62
     0
100
AcDbLine
 10
4736.826510307578
 20
3934.598399982302
 30
0.0
 11
4736.826510307578
 21
3871.841705982303
 31
0.0
  0
LINE
  5
1C2B
330
18
100
AcDbEntity
  8
0
 62
     0
100
AcDbLine
 10
4733.509560307579
 20
3929.888330982303
 30
0.0
 11
4733.509560307579
 21
3876.551774982303
 31
0.0
  0
CIRCLE
  5
1C2C
330
18
100
AcDbEntity
  8
0
 62
     0
100
AcDbCircle
 10
4709.196316807578
 20
3916.116354582303
 30
0.0
 40
5.97051
  0
LINE
  5
1C2D
330
18
100
AcDbEntity
  8
0
 62
     0
100
AcDbLine
 10
4713.216471939382
 20
3909.245344556214
 30
0.0
 11
4730.516761982465
 21
3876.561604982303
 31
0.0
  0
LINE
  5
1C2E
330
18
100
AcDbEntity
  8
0
 62
     0
100
AcDbLine
 10
4715.43077965979
 20
3920.158123678308
 30
0.0
 11
4731.519390307579
 21
3929.888330982303
 31
0.0
  0
ARC
  5
1C2F
330
18
100
AcDbEntity
  8
0
 62
     0
100
AcDbCircle
 10
4736.229459307579
 20
3934.598399982302
 30
0.0
 40
0.597051
100
AcDbArc
 50
0.0
 51
90.0
  0
ARC
  5
1C30
330
18
100
AcDbEntity
  8
0
 62
     0
100
AcDbCircle
 10
4736.229459307579
 20
3871.841705982303
 30
0.0
 40
0.597051
100
AcDbArc
 50
270.0
 51
0.0
  0
ARC
  5
1C31
330
18
100
AcDbEntity
  8
0
 62
     0
100
AcDbCircle
 10
4678.912563307579
 20
3929.888330982303
 30
0.0
 40
1.99017
100
AcDbArc
 50
0.0
 51
90.0
  0
ARC
  5
1C32
330
18
100
AcDbEntity
  8
0
 62
     0
100
AcDbCircle
 10
4686.873243307578
 20
3929.888330982303
 30
0.0
 40
1.99017
100
AcDbArc
 50
90.0
 51
180.0
  0
ARC
  5
1C33
330
18
100
AcDbEntity
  8
0
 62
     0
100
AcDbCircle
 10
4686.873243307578
 20
3876.551774982303
 30
0.0
 40
1.99017
100
AcDbArc
 50
180.0
 51
270.0
  0
ARC
  5
1C34
330
18
100
AcDbEntity
  8
0
 62
     0
100
AcDbCircle
 10
4678.912563307579
 20
3876.551774982303
 30
0.0
 40
1.99017
100
AcDbArc
 50
270.0
 51
0.0
  0
ARC
  5
1C35
330
18
100
AcDbEntity
  8
0
 62
     0
100
AcDbCircle
 10
4634.266416307578
 20
3876.551774982303
 30
0.0
 40
1.99017
100
AcDbArc
 50
180.0
 51
270.0
  0
ARC
  5
1C36
330
18
100
AcDbEntity
  8
0
 62
     0
100
AcDbCircle
 10
4634.266416307578
 20
3929.888330982303
 30
0.0
 40
1.99017
100
AcDbArc
 50
90.0
 51
180.0
  0
LINE
  5
1C37
330
18
100
AcDbEntity
  8
0
 62
     0
100
AcDbLine
 10
4629.556347307577
 20
3935.195450982303
 30
0.0
 11
4682.892903307578
 21
3935.195450982303
 31
0.0
  0
LINE
  5
1C38
330
18
100
AcDbEntity
  8
0
 62
     0
100
AcDbLine
 10
4628.959296307578
 20
3871.841705982303
 30
0.0
 11
4628.959296307578
 21
3934.598399982302
 31
0.0
  0
LINE
  5
1C39
330
18
100
AcDbEntity
  8
0
 62
     0
100
AcDbLine
 10
4634.266416307578
 20
3931.878500982303
 30
0.0
 11
4678.912563307579
 21
3931.878500982303
 31
0.0
  0
LINE
  5
1C3A
330
18
100
AcDbEntity
  8
0
 62
     0
100
AcDbLine
 10
4680.902733307578
 20
3876.551774982303
 30
0.0
 11
4680.902733307578
 21
3929.888330982303
 31
0.0
  0
LINE
  5
1C3B
330
18
100
AcDbEntity
  8
0
 62
     0
100
AcDbLine
 10
4684.883073307578
 20
3876.551774982303
 30
0.0
 11
4684.883073307578
 21
3929.888330982303
 31
0.0
  0
LINE
  5
1C3C
330
18
100
AcDbEntity
  8
0
 62
     0
100
AcDbLine
 10
4632.276246307579
 20
3876.551774982303
 30
0.0
 11
4632.276246307579
 21
3929.888330982303
 31
0.0
  0
CIRCLE
  5
1C3D
330
18
100
AcDbEntity
  8
0
 62
     0
100
AcDbCircle
 10
4656.589489807578
 20
3916.116354582303
 30
0.0
 40
7.96068
  0
CIRCLE
  5
1C3E
330
18
100
AcDbEntity
  8
0
 62
     0
100
AcDbCircle
 10
4656.589489807578
 20
3916.116354582303
 30
0.0
 40
5.97051
  0
LINE
  5
1C3F
330
18
100
AcDbEntity
  8
0
 62
     0
100
AcDbLine
 10
4678.912563307579
 20
3874.561604982303
 30
0.0
 11
4634.266416307578
 21
3874.561604982303
 31
0.0
  0
LINE
  5
1C40
330
18
100
AcDbEntity
  8
0
 62
     0
100
AcDbLine
 10
4660.341634597262
 20
3909.703411891286
 30
0.0
 11
4678.912563307579
 21
3876.551774982303
 31
0.0
  0
LINE
  5
1C41
330
18
100
AcDbEntity
  8
0
 62
     0
100
AcDbLine
 10
4663.269271434949
 20
3920.446821470879
 30
0.0
 11
4678.912563307579
 21
3929.878500982303
 31
0.0
  0
LINE
  5
1C42
330
18
100
AcDbEntity
  8
0
 62
     0
100
AcDbLine
 10
4634.276246307579
 20
3929.878500982303
 30
0.0
 11
4649.859260080497
 21
3920.367993546645
 31
0.0
  0
LINE
  5
1C43
330
18
100
AcDbEntity
  8
0
 62
     0
100
AcDbLine
 10
4652.89449993161
 20
3909.670311276715
 30
0.0
 11
4634.276246307579
 21
3876.551774982303
 31
0.0
  0
LINE
  5
1C44
330
18
100
AcDbEntity
  8
0
 62
     0
100
AcDbLine
 10
4682.892903307578
 20
3871.244654982303
 30
0.0
 11
4629.556347307577
 21
3871.244654982303
 31
0.0
  0
ARC
  5
1C45
330
18
100
AcDbEntity
  8
0
 62
     0
100
AcDbCircle
 10
4629.556347307577
 20
3871.841705982303
 30
0.0
 40
0.597051
100
AcDbArc
 50
180.0
 51
270.0
  0
ARC
  5
1C46
330
18
100
AcDbEntity
  8
0
 62
     0
100
AcDbCircle
 10
4629.556347307577
 20
3934.598399982302
 30
0.0
 40
0.597051
100
AcDbArc
 50
90.0
 51
180.0
  0
LINE
  5
1C47
330
18
100
AcDbEntity
  8
0
 62
     0
100
AcDbLine
 10
4736.229459307579
 20
3871.244654982303
 30
0.0
 11
4682.892903307578
 21
3871.244654982303
 31
0.0
  0
LINE
  5
1C48
330
18
100
AcDbEntity
  8
0
 62
     0
100
AcDbLine
 10
4731.519390307579
 20
3874.561604982303
 30
0.0
 11
4686.873243307578
 21
3874.561604982303
 31
0.0
  0
LINE
  5
1C49
330
18
100
AcDbEntity
  8
0
 62
     0
100
AcDbLine
 10
4686.873243307578
 20
3931.878500982303
 30
0.0
 11
4731.519390307579
 21
3931.878500982303
 31
0.0
  0
CIRCLE
  5
1C4A
330
18
100
AcDbEntity
  8
0
 62
     0
100
AcDbCircle
 10
4709.196316807578
 20
3916.116354582303
 30
0.0
 40
7.96068
  0
LINE
  5
1C4B
330
18
100
AcDbEntity
  8
0
 62
     0
100
AcDbLine
 10
4686.883073307578
 20
3876.561604982303
 30
0.0
 11
4705.176161675775
 21
3909.245344556214
 31
0.0
  0
LINE
  5
1C4C
330
18
100
AcDbEntity
  8
0
 62
     0
100
AcDbLine
 10
4702.867352080803
 20
3920.008478676966
 30
0.0
 11
4686.883073307578
 21
3929.878500982303
 31
0.0
  0
LINE
  5
1C4D
330
18
100
AcDbEntity
  8
0
 62
     0
100
AcDbLine
 10
4682.892903307578
 20
3935.195450982303
 30
0.0
 11
4736.229459307579
 21
3935.195450982303
 31
0.0
  0
MTEXT
  5
1C4E
330
18
100
AcDbEntity
  8
0
 62
     0
100
AcDbMText
 10
5021.621079283164
 20
3881.586004889313
 30
0.0
 40
4.0
 41
0.0
 46
0.0
 71
     9
 72
     1
  1
{\fBatang|b0|i0|c0|p18;Countertop\P\C7;Encimera}
 73
     1
 44
1.0
  0
MTEXT
  5
1C4F
330
18
100
AcDbEntity
  8
0
 62
     0
100
AcDbMText
 10
5020.141236003377
 20
3831.884239358803
 30
0.0
 40
4.0
 41
31.40419090909091
 46
0.0
 71
     9
 72
     1
  1
{\fBatang|b0|i0|c0|p18;Fastener\PCierre}
 73
     1
 44
1.0
  0
MTEXT
  5
1C50
330
18
100
AcDbEntity
  8
0
 62
     0
100
AcDbMText
 10
5034.782447870239
 20
3818.63480292331
 30
0.0
 40
4.0
 41
27.28367851239669
 46
0.0
 71
     9
 72
     1
  1
{\fBatang|b0|i0|c0|p18;Screws Tornillo}
 73
     1
 44
1.0
  0
MTEXT
  5
1C51
330
18
100
AcDbEntity
  8
0
 62
     0
100
AcDbMText
 10
5141.124763704949
 20
3864.250448774205
 30
0.0
 40
4.0
 41
39.00952380952381
 46
0.0
 71
     1
 72
     1
  1
{\fBatang|b0|i0|c0|p18;Sink\PFregadero}
 73
     1
 44
1.0
  0
LEADER
  5
1C52
330
18
100
AcDbEntity
  8
0
 62
     0
100
AcDbLeader
  3
B
 76
     3
 10
5117.883772361574
 20
3846.659158907168
 30
2670.10609264951
 10
5132.366433775065
 20
3857.199302735903
 30
2670.10609264951
 10
5138.79472627217
 20
3857.199302735903
 30
2670.10609264951
211
-1.0
221
0.0
231
0.0
210
0.0
220
0.0
230
-1.0
1001
ACAD
1000
DSTYLE
1002
{
1070
    41
1040
0.5
1070
   147
1040
0.3
1070
    77
1070
     0
1002
}
  0
LEADER
  5
1C53
330
18
100
AcDbEntity
  8
0
 62
     0
100
AcDbLeader
  3
B
 76
     3
 10
5045.673092770665
 20
3871.710668144775
 30
1335.053046324755
 10
5031.190431357174
 20
3882.250811973509
 30
1335.053046324755
 10
5024.762138860069
 20
3882.250811973509
 30
1335.053046324755
1001
ACAD
1000
DSTYLE
1002
{
1070
    41
1040
0.5
1070
   147
1040
0.3
1070
    77
1070
     0
1002
}
  0
LEADER
  5
1C54
330
18
100
AcDbEntity
  8
0
 62
     0
100
AcDbLeader
  3
B
 76
     3
 10
5045.037822441123
 20
3843.303732567924
 30
1335.053046324755
 10
5030.555161027632
 20
3832.763588739189
 30
1335.053046324755
 10
5024.126868530528
 20
3832.763588739189
 30
1335.053046324755
210
0.0
220
0.0
230
-1.0
1001
ACAD
1000
DSTYLE
1002
{
1070
    41
1040
0.5
1070
   147
1040
0.3
1070
    77
1070
     0
1002
}
  0
LEADER
  5
1C55
330
18
100
AcDbEntity
  8
0
 62
     0
100
AcDbLeader
  3
B
 76
     3
 10
5063.921185633764
 20
3840.18913785492
 30
1335.053046324755
 10
5043.561616633948
 20
3825.371917495876
 30
1335.053046324755
 10
5037.133324136843
 20
3825.371917495876
 30
1335.053046324755
210
0.0
220
0.0
230
-1.0
1001
ACAD
1000
DSTYLE
1002
{
1070
    41
1040
0.5
1070
   147
1040
0.3
1070
    77
1070
     0
1002
}
  0
LINE
  5
1C56
330
18
100
AcDbEntity
  8
0
 62
     0
100
AcDbLine
 10
5070.093372679899
 20
3850.259171728687
 30
0.0
 11
5070.093372679899
 21
3859.175067735498
 31
0.0
  0
LINE
  5
1C57
330
18
100
AcDbEntity
  8
0
 62
     0
100
AcDbLine
 10
5062.965372679895
 20
3859.175067735498
 30
0.0
 11
5070.093372679899
 21
3859.175067735498
 31
0.0
  0
LINE
  5
1C58
330
18
100
AcDbEntity
  8
0
 62
     0
100
AcDbLine
 10
5064.585372679896
 20
3850.60937690342
 30
0.0
 11
5065.203122186203
 21
3849.968832851544
 31
0.0
  0
LINE
  5
1C59
330
18
100
AcDbEntity
  8
0
 62
     0
100
AcDbLine
 10
5065.203122186203
 20
3849.968832851544
 30
0.0
 11
5064.585372679896
 21
3849.414642155544
 31
0.0
  0
LINE
  5
1C5A
330
18
100
AcDbEntity
  8
0
 62
     0
100
AcDbLine
 10
5064.585372679896
 20
3849.414642155544
 30
0.0
 11
5065.203122186203
 21
3848.820062799977
 31
0.0
  0
LINE
  5
1C5B
330
18
100
AcDbEntity
  8
0
 62
     0
100
AcDbLine
 10
5065.203122186203
 20
3848.820062799977
 30
0.0
 11
5064.585372679896
 21
3848.120812034374
 31
0.0
  0
LINE
  5
1C5C
330
18
100
AcDbEntity
  8
0
 62
     0
100
AcDbLine
 10
5064.585372679896
 20
3848.120812034374
 30
0.0
 11
5065.203122186203
 21
3847.471507400786
 31
0.0
  0
LINE
  5
1C5D
330
18
100
AcDbEntity
  8
0
 62
     0
100
AcDbLine
 10
5065.203122186203
 20
3847.471507400786
 30
0.0
 11
5064.585372679896
 21
3846.897121965219
 31
0.0
  0
LINE
  5
1C5E
330
18
100
AcDbEntity
  8
0
 62
     0
100
AcDbLine
 10
5064.585372679896
 20
3846.897121965219
 30
0.0
 11
5065.203122186203
 21
3846.322737349219
 31
0.0
  0
LINE
  5
1C5F
330
18
100
AcDbEntity
  8
0
 62
     0
100
AcDbLine
 10
5065.203122186203
 20
3846.322737349219
 30
0.0
 11
5064.585372679896
 21
3845.873218063254
 31
0.0
  0
LINE
  5
1C60
330
18
100
AcDbEntity
  8
0
 62
     0
100
AcDbLine
 10
5067.855623173584
 20
3846.322737349219
 30
0.0
 11
5068.473372679899
 21
3845.873218063254
 31
0.0
  0
LINE
  5
1C61
330
18
100
AcDbEntity
  8
0
 62
     0
100
AcDbLine
 10
5068.473372679899
 20
3846.897121965219
 30
0.0
 11
5067.855623173584
 21
3846.322737349219
 31
0.0
  0
LINE
  5
1C62
330
18
100
AcDbEntity
  8
0
 62
     0
100
AcDbLine
 10
5067.855623173584
 20
3847.471507400786
 30
0.0
 11
5068.473372679899
 21
3846.897121965219
 31
0.0
  0
LINE
  5
1C63
330
18
100
AcDbEntity
  8
0
 62
     0
100
AcDbLine
 10
5068.473372679899
 20
3848.120812034374
 30
0.0
 11
5067.855623173584
 21
3847.471507400786
 31
0.0
  0
LINE
  5
1C64
330
18
100
AcDbEntity
  8
0
 62
     0
100
AcDbLine
 10
5067.855623173584
 20
3848.820062799977
 30
0.0
 11
5068.473372679899
 21
3848.120812034374
 31
0.0
  0
LINE
  5
1C65
330
18
100
AcDbEntity
  8
0
 62
     0
100
AcDbLine
 10
5068.473372679899
 20
3849.414642155544
 30
0.0
 11
5067.855623173584
 21
3848.820062799977
 31
0.0
  0
LINE
  5
1C66
330
18
100
AcDbEntity
  8
0
 62
     0
100
AcDbLine
 10
5065.049596088716
 20
3857.813935581975
 30
0.0
 11
5064.585372679896
 21
3857.448409716654
 31
0.0
  0
LINE
  5
1C67
330
18
100
AcDbEntity
  8
0
 62
     0
100
AcDbLine
 10
5068.009149271078
 20
3857.813935581975
 30
0.0
 11
5068.439458740153
 21
3857.458558393709
 31
0.0
  0
LINE
  5
1C68
330
18
100
AcDbEntity
  8
0
 62
     0
100
AcDbLine
 10
5065.190087021378
 20
3858.528500146146
 30
0.0
 11
5065.190087021378
 21
3859.175067735498
 31
0.0
  0
LINE
  5
1C69
330
18
100
AcDbEntity
  8
0
 62
     0
100
AcDbLine
 10
5067.855299607651
 20
3858.538314006094
 30
0.0
 11
5067.855299607651
 21
3859.175067735498
 31
0.0
  0
LINE
  5
1C6A
330
18
100
AcDbEntity
  8
0
 62
     0
100
AcDbLine
 10
5063.613372679896
 20
3849.611171728688
 30
0.0
 11
5069.47100927933
 21
3849.611171728688
 31
0.0
  0
LINE
  5
1C6B
330
18
100
AcDbEntity
  8
0
 62
     0
100
AcDbLine
 10
5068.000208151056
 20
3858.527067735499
 30
0.0
 11
5068.473372679899
 21
3858.17946207594
 31
0.0
  0
LINE
  5
1C6C
330
18
100
AcDbEntity
  8
0
 62
     0
100
AcDbLine
 10
5065.058537208739
 20
3858.527067735499
 30
0.0
 11
5064.585372679896
 21
3858.17946207594
 31
0.0
  0
LINE
  5
1C6D
330
18
100
AcDbEntity
  8
0
 62
     0
100
AcDbLine
 10
5062.3173726799
 20
3850.259171728687
 30
0.0
 11
5062.965372679895
 21
3850.259171728687
 31
0.0
  0
LINE
  5
1C6E
330
18
100
AcDbEntity
  8
0
 62
     0
100
AcDbLine
 10
5070.093372679899
 20
3850.259171728687
 30
0.0
 11
5070.741372679895
 21
3850.259171728687
 31
0.0
  0
LINE
  5
1C6F
330
18
100
AcDbEntity
  8
0
 62
     0
100
AcDbLine
 10
5070.093372679899
 20
3850.291592523594
 30
0.0
 11
5070.741372679895
 21
3850.259171728687
 31
0.0
  0
LINE
  5
1C70
330
18
100
AcDbEntity
  8
0
 62
     0
100
AcDbLine
 10
5065.384487021376
 20
3859.175067735498
 30
0.0
 11
5070.093372679899
 21
3859.175067735498
 31
0.0
  0
LINE
  5
1C71
330
18
100
AcDbEntity
  8
0
 62
     0
100
AcDbLine
 10
5068.062518414701
 20
3855.657396859339
 30
0.0
 11
5069.445372679898
 21
3855.657396859339
 31
0.0
  0
LINE
  5
1C72
330
18
100
AcDbEntity
  8
0
 62
     0
100
AcDbLine
 10
5067.855299607651
 20
3858.527067735499
 30
0.0
 11
5069.445372679898
 21
3858.527067735499
 31
0.0
  0
LINE
  5
1C73
330
18
100
AcDbEntity
  8
0
 62
     0
100
AcDbLine
 10
5062.965372679895
 20
3859.175067735498
 30
0.0
 11
5065.384487021376
 21
3859.175067735498
 31
0.0
  0
LINE
  5
1C74
330
18
100
AcDbEntity
  8
0
 62
     0
100
AcDbLine
 10
5069.445372679898
 20
3858.527067735499
 30
0.0
 11
5069.445372679898
 21
3849.611171728688
 31
0.0
  0
LINE
  5
1C75
330
18
100
AcDbEntity
  8
0
 62
     0
100
AcDbLine
 10
5063.613372679896
 20
3849.611171728688
 30
0.0
 11
5063.613372679896
 21
3858.527067735499
 31
0.0
  0
LINE
  5
1C76
330
18
100
AcDbEntity
  8
0
 62
     0
100
AcDbLine
 10
5069.121372679898
 20
3844.834901889429
 30
0.0
 11
5069.121372679898
 21
3842.565837601229
 31
0.0
  0
LINE
  5
1C77
330
18
100
AcDbEntity
  8
0
 62
     0
100
AcDbLine
 10
5063.937372679897
 20
3844.993734265446
 30
0.0
 11
5063.937372679897
 21
3842.724669977246
 31
0.0
  0
LINE
  5
1C78
330
18
100
AcDbEntity
  8
0
 62
     0
100
AcDbLine
 10
5069.47100927933
 20
3849.611171728688
 30
0.0
 11
5070.741372679895
 21
3849.611171728688
 31
0.0
  0
LINE
  5
1C79
330
18
100
AcDbEntity
  8
0
 62
     0
100
AcDbLine
 10
5062.3173726799
 20
3849.611171728688
 30
0.0
 11
5063.587736080464
 21
3849.611171728688
 31
0.0
  0
LINE
  5
1C7A
330
18
100
AcDbEntity
  8
0
 62
     0
100
AcDbLine
 10
5062.3173726799
 20
3849.611171728688
 30
0.0
 11
5062.3173726799
 21
3850.259171728687
 31
0.0
  0
LINE
  5
1C7B
330
18
100
AcDbEntity
  8
0
 62
     0
100
AcDbLine
 10
5070.741372679895
 20
3850.259171728687
 30
0.0
 11
5070.741372679895
 21
3849.611171728688
 31
0.0
  0
LINE
  5
1C7C
330
18
100
AcDbEntity
  8
0
 62
     0
100
AcDbLine
 10
5064.585372679896
 20
3845.873218063254
 30
0.0
 11
5064.585372679896
 21
3841.778859272215
 31
0.0
  0
LINE
  5
1C7D
330
18
100
AcDbEntity
  8
0
 62
     0
100
AcDbLine
 10
5068.473372679899
 20
3845.873218063254
 30
0.0
 11
5068.473372679899
 21
3841.778859272215
 31
0.0
  0
LINE
  5
1C7E
330
18
100
AcDbEntity
  8
0
 62
     0
100
AcDbLine
 10
5063.613372679896
 20
3855.657396859339
 30
0.0
 11
5064.996226945093
 21
3855.657396859339
 31
0.0
  0
LINE
  5
1C7F
330
18
100
AcDbEntity
  8
0
 62
     0
100
AcDbLine
 10
5063.613372679896
 20
3858.527067735499
 30
0.0
 11
5065.190087021378
 21
3858.527067735499
 31
0.0
  0
LINE
  5
1C80
330
18
100
AcDbEntity
  8
0
 62
     0
100
AcDbLine
 10
5096.74979041912
 20
3848.87032610917
 30
0.0
 11
5096.769721082323
 21
3847.574479371061
 31
0.0
  0
LINE
  5
1C81
330
18
100
AcDbEntity
  8
0
 62
     0
100
AcDbLine
 10
5097.539564069284
 20
3850.259171728687
 30
0.0
 11
5098.154212852703
 21
3848.891926711841
 31
0.0
  0
LINE
  5
1C82
330
18
100
AcDbEntity
  8
0
 62
     0
100
AcDbLine
 10
5109.205270326784
 20
3850.259171728687
 30
0.0
 11
5109.484279048522
 21
3849.066187854567
 31
0.0
  0
LINE
  5
1C83
330
18
100
AcDbEntity
  8
0
 62
     0
100
AcDbLine
 10
5113.959590201071
 20
3847.838866726279
 30
0.0
 11
5096.769721082323
 21
3847.574479371061
 31
0.0
  0
LINE
  5
1C84
330
18
100
AcDbEntity
  8
0
 62
     0
100
AcDbLine
 10
5075.601372679897
 20
3844.636361419408
 30
0.0
 11
5075.601372679897
 21
3842.367297131207
 31
0.0
  0
LINE
  5
1C85
330
18
100
AcDbEntity
  8
0
 62
     0
100
AcDbLine
 10
5057.457372679897
 20
3845.192274735467
 30
0.0
 11
5057.457372679897
 21
3842.923210447267
 31
0.0
  0
LINE
  5
1C86
330
18
100
AcDbEntity
  8
0
 62
     0
100
AcDbLine
 10
5104.123698285966
 20
3841.493402697267
 30
0.0
 11
5106.506638445559
 21
3846.757093331208
 31
0.0
  0
LINE
  5
1C87
330
18
100
AcDbEntity
  8
0
 62
     0
100
AcDbLine
 10
5069.121372679898
 20
3842.565837601229
 30
0.0
 11
5104.123698285966
 21
3841.493402697267
 31
0.0
  0
LINE
  5
1C88
330
18
100
AcDbEntity
  8
0
 62
     0
100
AcDbLine
 10
5102.681351718713
 20
3843.8066589863
 30
0.0
 11
5069.121372679898
 21
3844.834901889429
 31
0.0
  0
LINE
  5
1C89
330
18
100
AcDbEntity
  8
0
 62
     0
100
AcDbLine
 10
5104.440503238768
 20
3847.692459199342
 30
0.0
 11
5102.681351718713
 21
3843.8066589863
 31
0.0
  0
LINE
  5
1C8A
330
18
100
AcDbEntity
  8
0
 62
     0
100
AcDbLine
 10
5106.506638445559
 20
3846.757093331208
 30
0.0
 11
5104.440503238768
 21
3847.692459199342
 31
0.0
  0
ARC
  5
1C8B
330
18
100
AcDbEntity
  8
0
 62
     0
100
AcDbCircle
 10
5113.999451527476
 20
3845.247173250063
 30
0.0
 40
3.88799999999999
100
AcDbArc
 50
1.83944125196927
 51
90.8811635037197
  0
LINE
  5
1C8C
330
18
100
AcDbEntity
  8
0
 62
     0
100
AcDbLine
 10
5118.89705545068
 20
3813.441895783414
 30
0.0
 11
5117.885448045045
 21
3845.371973351865
 31
0.0
  0
LINE
  5
1C8D
330
18
100
AcDbEntity
  8
0
 62
     0
100
AcDbLine
 10
5117.629353105862
 20
3812.970846271114
 30
0.0
 11
5118.89705545068
 21
3813.441895783414
 31
0.0
  0
LINE
  5
1C8E
330
18
100
AcDbEntity
  8
0
 62
     0
100
AcDbLine
 10
5116.590115872523
 20
3845.330373317931
 30
0.0
 11
5117.629353105862
 21
3812.970846271114
 31
0.0
  0
ARC
  5
1C8F
330
18
100
AcDbEntity
  8
0
 62
     0
100
AcDbCircle
 10
5113.999451527476
 20
3845.247173250063
 30
0.0
 40
2.59199999999997
100
AcDbArc
 50
1.83944125196927
 51
90.8811635037197
  0
LINE
  5
1C90
330
18
100
AcDbEntity
  8
0
 62
     0
100
AcDbLine
 10
5096.769721082323
 20
3847.574479371061
 30
0.0
 11
5113.959590201071
 21
3847.838866726279
 31
0.0
  0
LINE
  5
1C91
330
18
100
AcDbEntity
  8
0
 62
     0
100
AcDbLine
 10
5113.939659537875
 20
3849.134713464387
 30
0.0
 11
5096.74979041912
 21
3848.87032610917
 31
0.0
  0
LINE
  5
1C92
330
18
100
AcDbEntity
  8
0
 62
     0
100
AcDbLine
 10
5062.965372679895
 20
3850.259171728687
 30
0.0
 11
5062.965372679895
 21
3859.175067735498
 31
0.0
  0
LINE
  5
1C93
330
18
100
AcDbEntity
  8
0
 62
     0
100
AcDbLine
 10
5016.961339368725
 20
3850.259171728687
 30
0.0
 11
5062.965372679895
 21
3850.259171728687
 31
0.0
  0
LINE
  5
1C94
330
18
100
AcDbEntity
  8
0
 62
     0
100
AcDbLine
 10
5104.952939053013
 20
3871.841705982303
 30
0.0
 11
5011.157570016661
 21
3871.841705982303
 31
0.0
  0
ARC
  5
1C95
330
18
100
AcDbEntity
  8
0
 62
     0
100
AcDbCircle
 10
5104.952939053013
 20
3868.601705982303
 30
0.0
 40
3.24
100
AcDbArc
 50
0.0
 51
90.0
  0
LINE
  5
1C96
330
18
100
AcDbEntity
  8
0
 62
     0
100
AcDbLine
 10
5108.192939053013
 20
3850.259171728687
 30
0.0
 11
5108.192939053013
 21
3868.601705982303
 31
0.0
  0
LINE
  5
1C97
330
18
100
AcDbEntity
  8
0
 62
     0
100
AcDbLine
 10
5070.093372679899
 20
3850.259171728687
 30
0.0
 11
5108.192939053013
 21
3850.259171728687
 31
0.0
  0
LINE
  5
1C98
330
18
100
AcDbEntity
  8
0
 62
     0
100
AcDbLine
 10
5070.093372679899
 20
3859.175067735498
 30
0.0
 11
5070.093372679899
 21
3850.259171728687
 31
0.0
  0
SPLINE
  5
1C99
330
18
100
AcDbEntity
  8
0
 62
     0
100
AcDbSpline
210
0.0
220
0.0
230
1.0
 70
     8
 71
     3
 72
    10
 73
     6
 74
     0
 42
0.000000001
 43
0.0000000001
 40
168.1890314628042
 40
168.1890314628042
 40
168.1890314628042
 40
168.1890314628042
 40
240.3970488653276
 40
404.4385438063731
 40
531.2097876496541
 40
531.2097876496541
 40
531.2097876496541
 40
531.2097876496541
 10
5011.157570016672
 20
3871.841705982303
 30
0.0
 10
5012.194136445591
 20
3870.786794633624
 30
0.0
 10
5014.741463816168
 20
3866.922936741034
 30
0.0
 10
5012.590110851224
 20
3858.022232910643
 30
0.0
 10
5015.336415977876
 20
3852.508185530787
 30
0.0
 10
5016.961339368738
 20
3850.259171728688
 30
0.0
  0
LINE
  5
1C9A
330
18
100
AcDbEntity
  8
0
 62
     0
100
AcDbLine
 10
5064.585372679896
 20
3858.17946207594
 30
0.0
 11
5065.049596088716
 21
3857.813935581975
 31
0.0
  0
LINE
  5
1C9B
330
18
100
AcDbEntity
  8
0
 62
     0
100
AcDbLine
 10
5066.529372679897
 20
3858.030147737723
 30
0.0
 11
5064.585372679896
 21
3857.448409716654
 31
0.0
  0
LINE
  5
1C9C
330
18
100
AcDbEntity
  8
0
 62
     0
100
AcDbLine
 10
5064.585372679896
 20
3857.448409716654
 30
0.0
 11
5065.069921490136
 21
3857.103190319981
 31
0.0
  0
LINE
  5
1C9D
330
18
100
AcDbEntity
  8
0
 62
     0
100
AcDbLine
 10
5065.069921490136
 20
3857.103190319981
 30
0.0
 11
5064.585372679896
 21
3856.798585117892
 31
0.0
  0
LINE
  5
1C9E
330
18
100
AcDbEntity
  8
0
 62
     0
100
AcDbLine
 10
5064.585372679896
 20
3856.798585117892
 30
0.0
 11
5065.110573476828
 21
3856.351830234759
 31
0.0
  0
LINE
  5
1C9F
330
18
100
AcDbEntity
  8
0
 62
     0
100
AcDbLine
 10
5065.110573476828
 20
3856.351830234759
 30
0.0
 11
5064.585372679896
 21
3856.087839227254
 31
0.0
  0
LINE
  5
1CA0
330
18
100
AcDbEntity
  8
0
 62
     0
100
AcDbLine
 10
5064.585372679896
 20
3856.087839227254
 30
0.0
 11
5065.130898878249
 21
3855.742619830581
 31
0.0
  0
LINE
  5
1CA1
330
18
100
AcDbEntity
  8
0
 62
     0
100
AcDbLine
 10
5065.130898878249
 20
3855.742619830581
 30
0.0
 11
5064.585372679896
 21
3855.397400433908
 31
0.0
  0
LINE
  5
1CA2
330
18
100
AcDbEntity
  8
0
 62
     0
100
AcDbLine
 10
5064.585372679896
 20
3855.397400433908
 30
0.0
 11
5065.151224279676
 21
3854.970953276711
 31
0.0
  0
LINE
  5
1CA3
330
18
100
AcDbEntity
  8
0
 62
     0
100
AcDbLine
 10
5065.151224279676
 20
3854.970953276711
 30
0.0
 11
5064.585372679896
 21
3854.605426782747
 31
0.0
  0
LINE
  5
1CA4
330
18
100
AcDbEntity
  8
0
 62
     0
100
AcDbLine
 10
5064.585372679896
 20
3854.605426782747
 30
0.0
 11
5065.130898878249
 21
3854.138365430967
 31
0.0
  0
LINE
  5
1CA5
330
18
100
AcDbEntity
  8
0
 62
     0
100
AcDbLine
 10
5065.130898878249
 20
3854.138365430967
 30
0.0
 11
5064.585372679896
 21
3853.813453131586
 31
0.0
  0
LINE
  5
1CA6
330
18
100
AcDbEntity
  8
0
 62
     0
100
AcDbLine
 10
5064.585372679896
 20
3853.813453131586
 30
0.0
 11
5065.110573476828
 21
3853.265164019283
 31
0.0
  0
LINE
  5
1CA7
330
18
100
AcDbEntity
  8
0
 62
     0
100
AcDbLine
 10
5065.110573476828
 20
3853.265164019283
 30
0.0
 11
5064.585372679896
 21
3852.859023330733
 31
0.0
  0
LINE
  5
1CA8
330
18
100
AcDbEntity
  8
0
 62
     0
100
AcDbLine
 10
5064.585372679896
 20
3852.859023330733
 30
0.0
 11
5065.120142480246
 21
3852.167725809254
 31
0.0
  0
LINE
  5
1CA9
330
18
100
AcDbEntity
  8
0
 62
     0
100
AcDbLine
 10
5065.120142480246
 20
3852.167725809254
 30
0.0
 11
5064.585372679896
 21
3851.700221263231
 31
0.0
  0
LINE
  5
1CAA
330
18
100
AcDbEntity
  8
0
 62
     0
100
AcDbLine
 10
5064.585372679896
 20
3851.700221263231
 30
0.0
 11
5065.203122186203
 21
3850.993589032667
 31
0.0
  0
LINE
  5
1CAB
330
18
100
AcDbEntity
  8
0
 62
     0
100
AcDbLine
 10
5065.203122186203
 20
3850.993589032667
 30
0.0
 11
5064.585372679896
 21
3850.60937690342
 31
0.0
  0
LINE
  5
1CAC
330
18
100
AcDbEntity
  8
0
 62
     0
100
AcDbLine
 10
5067.855623173584
 20
3849.968832851544
 30
0.0
 11
5068.473372679899
 21
3849.414642155544
 31
0.0
  0
LINE
  5
1CAD
330
18
100
AcDbEntity
  8
0
 62
     0
100
AcDbLine
 10
5068.473372679899
 20
3850.60937690342
 30
0.0
 11
5067.855623173584
 21
3849.968832851544
 31
0.0
  0
LINE
  5
1CAE
330
18
100
AcDbEntity
  8
0
 62
     0
100
AcDbLine
 10
5067.855623173584
 20
3850.993589032667
 30
0.0
 11
5068.473372679899
 21
3850.60937690342
 31
0.0
  0
LINE
  5
1CAF
330
18
100
AcDbEntity
  8
0
 62
     0
100
AcDbLine
 10
5068.473372679899
 20
3851.700221263231
 30
0.0
 11
5067.855623173584
 21
3850.993589032667
 31
0.0
  0
LINE
  5
1CB0
330
18
100
AcDbEntity
  8
0
 62
     0
100
AcDbLine
 10
5067.938602879547
 20
3852.167725809254
 30
0.0
 11
5068.473372679899
 21
3851.700221263231
 31
0.0
  0
LINE
  5
1CB1
330
18
100
AcDbEntity
  8
0
 62
     0
100
AcDbLine
 10
5068.473372679899
 20
3852.859023330733
 30
0.0
 11
5067.938602879547
 21
3852.167725809254
 31
0.0
  0
LINE
  5
1CB2
330
18
100
AcDbEntity
  8
0
 62
     0
100
AcDbLine
 10
5067.948171882965
 20
3853.265164019283
 30
0.0
 11
5068.473372679899
 21
3852.859023330733
 31
0.0
  0
LINE
  5
1CB3
330
18
100
AcDbEntity
  8
0
 62
     0
100
AcDbLine
 10
5068.473372679899
 20
3853.813453131586
 30
0.0
 11
5067.948171882965
 21
3853.265164019283
 31
0.0
  0
LINE
  5
1CB4
330
18
100
AcDbEntity
  8
0
 62
     0
100
AcDbLine
 10
5067.927846481545
 20
3854.138365430967
 30
0.0
 11
5068.473372679899
 21
3853.813453131586
 31
0.0
  0
LINE
  5
1CB5
330
18
100
AcDbEntity
  8
0
 62
     0
100
AcDbLine
 10
5068.473372679899
 20
3854.605426782747
 30
0.0
 11
5067.927846481545
 21
3854.138365430967
 31
0.0
  0
LINE
  5
1CB6
330
18
100
AcDbEntity
  8
0
 62
     0
100
AcDbLine
 10
5067.907521080118
 20
3854.970953276711
 30
0.0
 11
5068.473372679899
 21
3854.605426782747
 31
0.0
  0
LINE
  5
1CB7
330
18
100
AcDbEntity
  8
0
 62
     0
100
AcDbLine
 10
5068.473372679899
 20
3855.397400433908
 30
0.0
 11
5067.907521080118
 21
3854.970953276711
 31
0.0
  0
LINE
  5
1CB8
330
18
100
AcDbEntity
  8
0
 62
     0
100
AcDbLine
 10
5067.927846481545
 20
3855.742619830581
 30
0.0
 11
5068.473372679899
 21
3855.397400433908
 31
0.0
  0
LINE
  5
1CB9
330
18
100
AcDbEntity
  8
0
 62
     0
100
AcDbLine
 10
5068.473372679899
 20
3856.087839227254
 30
0.0
 11
5067.927846481545
 21
3855.742619830581
 31
0.0
  0
LINE
  5
1CBA
330
18
100
AcDbEntity
  8
0
 62
     0
100
AcDbLine
 10
5067.948171882965
 20
3856.351830234759
 30
0.0
 11
5068.473372679899
 21
3856.087839227254
 31
0.0
  0
LINE
  5
1CBB
330
18
100
AcDbEntity
  8
0
 62
     0
100
AcDbLine
 10
5068.473372679899
 20
3856.798585117892
 30
0.0
 11
5067.948171882965
 21
3856.351830234759
 31
0.0
  0
LINE
  5
1CBC
330
18
100
AcDbEntity
  8
0
 62
     0
100
AcDbLine
 10
5067.988823869653
 20
3857.103190319981
 30
0.0
 11
5068.473372679899
 21
3856.798585117892
 31
0.0
  0
LINE
  5
1CBD
330
18
100
AcDbEntity
  8
0
 62
     0
100
AcDbLine
 10
5068.473372679899
 20
3857.448409716654
 30
0.0
 11
5067.988823869653
 21
3857.103190319981
 31
0.0
  0
LINE
  5
1CBE
330
18
100
AcDbEntity
  8
0
 62
     0
100
AcDbLine
 10
5066.529372679897
 20
3858.030147737723
 30
0.0
 11
5068.473372679899
 21
3857.448409716654
 31
0.0
  0
LINE
  5
1CBF
330
18
100
AcDbEntity
  8
0
 62
     0
100
AcDbLine
 10
5068.473372679899
 20
3858.17946207594
 30
0.0
 11
5068.009149271078
 21
3857.813935581975
 31
0.0
  0
LINE
  5
1CC0
330
18
100
AcDbEntity
  8
0
 62
     0
100
AcDbLine
 10
5064.585372679896
 20
3842.426859272214
 30
0.0
 11
5059.401372679897
 21
3842.426859272214
 31
0.0
  0
LINE
  5
1CC1
330
18
100
AcDbEntity
  8
0
 62
     0
100
AcDbLine
 10
5062.965372679895
 20
3850.259171728687
 30
0.0
 11
5016.961339368725
 21
3850.259171728687
 31
0.0
  0
LINE
  5
1CC2
330
18
100
AcDbEntity
  8
0
 62
     0
100
AcDbLine
 10
5064.585372679896
 20
3844.973880218445
 30
0.0
 11
5032.922037060822
 21
3845.944011937001
 31
0.0
  0
LINE
  5
1CC3
330
18
100
AcDbEntity
  8
0
 62
     0
100
AcDbLine
 10
5064.585372679896
 20
3842.704815930244
 30
0.0
 11
5031.739984929825
 21
3843.711164498443
 31
0.0
  0
LINE
  5
1CC4
330
18
100
AcDbEntity
  8
0
 62
     0
100
AcDbLine
 10
5068.797372679899
 20
3842.426859272214
 30
0.0
 11
5068.797372679899
 21
3841.778859272215
 31
0.0
  0
LINE
  5
1CC5
330
18
100
AcDbEntity
  8
0
 62
     0
100
AcDbLine
 10
5064.261372679895
 20
3842.426859272214
 30
0.0
 11
5064.261372679895
 21
3841.778859272215
 31
0.0
  0
ARC
  5
1CC6
330
18
100
AcDbEntity
  8
0
 62
     0
100
AcDbCircle
 10
5066.529372679897
 20
3843.598892041738
 30
0.0
 40
4.292908487510314
100
AcDbArc
 50
279.9111678270143
 51
334.9149811222647
  0
LINE
  5
1CC7
330
18
100
AcDbEntity
  8
0
 62
     0
100
AcDbLine
 10
5066.529372679897
 20
3840.084800497126
 30
0.0
 11
5067.268272853651
 21
3839.370051797017
 31
0.0
  0
LINE
  5
1CC8
330
18
100
AcDbEntity
  8
0
 62
     0
100
AcDbLine
 10
5066.529372679897
 20
3840.084800497126
 30
0.0
 11
5065.790472506143
 21
3839.370051797017
 31
0.0
  0
LINE
  5
1CC9
330
18
100
AcDbEntity
  8
0
 62
     0
100
AcDbLine
 10
5073.657372679898
 20
3841.778859272215
 30
0.0
 11
5059.401372679897
 21
3841.778859272215
 31
0.0
  0
LINE
  5
1CCA
330
18
100
AcDbEntity
  8
0
 62
     0
100
AcDbLine
 10
5073.657372679898
 20
3842.426859272214
 30
0.0
 11
5068.473372679899
 21
3842.426859272214
 31
0.0
  0
ARC
  5
1CCB
330
18
100
AcDbEntity
  8
0
 62
     0
100
AcDbCircle
 10
5066.529372679897
 20
3843.598892041738
 30
0.0
 40
4.292908487510314
100
AcDbArc
 50
205.0850188777353
 51
260.0888321729857
  0
LINE
  5
1CCC
330
18
100
AcDbEntity
  8
0
 62
     0
100
AcDbLine
 10
5059.401372679897
 20
3842.426859272214
 30
0.0
 11
5059.401372679897
 21
3841.778859272215
 31
0.0
  0
LINE
  5
1CCD
330
18
100
AcDbEntity
  8
0
 62
     0
100
AcDbLine
 10
5073.657372679898
 20
3842.426859272214
 30
0.0
 11
5073.657372679898
 21
3841.778859272215
 31
0.0
  0
LINE
  5
1CCE
330
18
100
AcDbEntity
  8
0
 62
     0
100
AcDbLine
 10
5028.569169967044
 20
3849.169576535485
 30
0.0
 11
5030.558291963041
 21
3850.259171728687
 31
0.0
  0
LINE
  5
1CCF
330
18
100
AcDbEntity
  8
0
 62
     0
100
AcDbLine
 10
5031.556075693352
 20
3843.716799286444
 30
0.0
 11
5028.569169967044
 21
3849.169576535485
 31
0.0
  0
LINE
  5
1CD0
330
18
100
AcDbEntity
  8
0
 62
     0
100
AcDbLine
 10
5104.440503238768
 20
3847.692459199342
 30
0.0
 11
5106.506638445559
 21
3846.757093331208
 31
0.0
  0
LINE
  5
1CD1
330
18
100
AcDbEntity
  8
0
 62
     0
100
AcDbLine
 10
5106.506638445559
 20
3846.757093331208
 30
0.0
 11
5104.123698285966
 21
3841.493402697267
 31
0.0
  0
LINE
  5
1CD2
330
18
100
AcDbEntity
  8
0
 62
     0
100
AcDbLine
 10
5104.123698285966
 20
3841.493402697267
 30
0.0
 11
5068.473372679899
 21
3842.585691648231
 31
0.0
  0
LINE
  5
1CD3
330
18
100
AcDbEntity
  8
0
 62
     0
100
AcDbLine
 10
5032.922037060822
 20
3845.944011937001
 30
0.0
 11
5030.558291963041
 21
3850.259171728687
 31
0.0
  0
LINE
  5
1CD4
330
18
100
AcDbEntity
  8
0
 62
     0
100
AcDbLine
 10
5102.681351718713
 20
3843.8066589863
 30
0.0
 11
5068.473372679899
 21
3844.854755936432
 31
0.0
  0
LINE
  5
1CD5
330
18
100
AcDbEntity
  8
0
 62
     0
100
AcDbLine
 10
5104.440503238768
 20
3847.692459199342
 30
0.0
 11
5102.681351718713
 21
3843.8066589863
 31
0.0
  0
LINE
  5
1CD6
330
18
100
AcDbEntity
  8
0
 62
     0
100
AcDbLine
 10
5118.850897981576
 20
3815.310017976135
 30
0.0
 11
5117.629353105862
 21
3812.970846271114
 31
0.0
  0
LINE
  5
1CD7
330
18
100
AcDbEntity
  8
0
 62
     0
100
AcDbLine
 10
5116.590115872523
 20
3845.330373317931
 30
0.0
 11
5117.629353105862
 21
3812.970846271114
 31
0.0
  0
ARC
  5
1CD8
330
18
100
AcDbEntity
  8
0
 62
     0
100
AcDbCircle
 10
5113.999451527476
 20
3845.247173250063
 30
0.0
 40
2.592
100
AcDbArc
 50
1.83944125196927
 51
90.8811635037197
  0
ARC
  5
1CD9
330
18
100
AcDbEntity
  8
0
 62
     0
100
AcDbCircle
 10
5113.999451527476
 20
3845.247173250063
 30
0.0
 40
3.888
100
AcDbArc
 50
1.83944125196927
 51
90.8811635037197
  0
LINE
  5
1CDA
330
18
100
AcDbEntity
  8
0
 62
     0
100
AcDbLine
 10
5117.885448045045
 20
3845.371973351865
 30
0.0
 11
5118.89705545068
 21
3813.441895783414
 31
0.0
  0
LINE
  5
1CDB
330
18
100
AcDbEntity
  8
0
 62
     0
100
AcDbLine
 10
5113.939659537875
 20
3849.134713464387
 30
0.0
 11
5096.74979041912
 21
3848.87032610917
 31
0.0
  0
LINE
  5
1CDC
330
18
100
AcDbEntity
  8
0
 62
     0
100
AcDbLine
 10
5093.46092970374
 20
3850.259171728687
 30
0.0
 11
5109.205270326784
 21
3850.259171728687
 31
0.0
  0
LINE
  5
1CDD
330
18
100
AcDbEntity
  8
0
 62
     0
100
AcDbLine
 10
5108.192939053013
 20
3850.259171728687
 30
0.0
 11
5070.093372679899
 21
3850.259171728687
 31
0.0
  0
LINE
  5
1CDE
330
18
100
AcDbEntity
  8
0
 62
     0
100
AcDbLine
 10
5108.192939053013
 20
3868.601705982303
 30
0.0
 11
5108.192939053013
 21
3850.259171728687
 31
0.0
  0
ARC
  5
1CDF
330
18
100
AcDbEntity
  8
0
 62
     0
100
AcDbCircle
 10
5104.952939053013
 20
3868.601705982303
 30
0.0
 40
3.24
100
AcDbArc
 50
0.0
 51
90.0
  0
LINE
  5
1CE0
330
18
100
AcDbEntity
  8
0
 62
     0
100
AcDbLine
 10
5011.157570016661
 20
3871.841705982303
 30
0.0
 11
5104.952939053013
 21
3871.841705982303
 31
0.0
  0
LINE
  5
1CE1
330
18
100
AcDbEntity
  8
0
 62
     0
100
AcDbLine
 10
5062.965372679895
 20
3859.175067735498
 30
0.0
 11
5062.965372679895
 21
3850.259171728687
 31
0.0
  0
SPLINE
  5
1CE2
330
18
100
AcDbEntity
  8
0
 62
     0
100
AcDbSpline
210
0.0
220
0.0
230
1.0
 70
     8
 71
     3
 72
    10
 73
     6
 74
     0
 42
0.000000001
 43
0.0000000001
 40
168.1890314628042
 40
168.1890314628042
 40
168.1890314628042
 40
168.1890314628042
 40
240.3970488653276
 40
404.4385438063731
 40
531.2097876496541
 40
531.2097876496541
 40
531.2097876496541
 40
531.2097876496541
 10
5011.157570016672
 20
3871.841705982303
 30
0.0
 10
5012.194136445591
 20
3870.786794633624
 30
0.0
 10
5014.741463816168
 20
3866.922936741034
 30
0.0
 10
5012.590110851224
 20
3858.022232910643
 30
0.0
 10
5015.336415977876
 20
3852.508185530787
 30
0.0
 10
5016.961339368738
 20
3850.259171728688
 30
0.0
  0
MTEXT
  5
1CE3
330
18
100
AcDbEntity
  8
0
 62
     0
100
AcDbMText
 10
4617.994972249722
 20
3647.021961901581
 30
0.0
 40
8.0
 41
459.0222222222222
 46
0.0
 71
     1
 72
     5
  1
{\fArial|b0|i0|c0|p34;\H0.75x;Please check actual template against physical sink unit for\Pmost accurate cut!}
 73
     1
 44
1.0
  0
MTEXT
  5
1CE4
330
18
100
AcDbEntity
  8
0
 62
     0
100
AcDbMText
 10
4617.744119263512
 20
3675.798306351958
 30
0.0
 40
8.0
 41
408.3061224489796
 46
0.0
 71
     1
 72
     5
  1
{\fArial|b0|i0|c0|p34;\H0.75x;Use line for flush cut:\fArial|b1|i0|c0|p34;\P\fArial|b0|i0|c0|p34;Sink wall is flush to the edge of countertop opening.}
 73
     1
 44
1.0
  0
MTEXT
  5
1CE5
330
18
100
AcDbEntity
  8
0
 62
     0
100
AcDbMText
 10
4895.375577825057
 20
3688.981228416312
 30
0.0
 40
8.0
 41
408.3061224489796
 46
0.0
 71
     1
 72
     5
  1
{\fBatang|b0|i0|c0|p18;\P\fArial|b0|i0|c0|p34;\H0.75x;Use la línea para cortar al ras:\PLa pared del fregadero está nivelado al borde de la apertura de la encimera.}
 73
     1
 44
1.0
  0
MTEXT
  5
1CE6
330
18
100
AcDbEntity
  8
0
 62
     0
100
AcDbMText
 10
4895.62643081127
 20
3660.331732169703
 30
0.0
 40
8.0
 41
459.0222222222222
 46
0.0
 71
     1
 72
     5
  1
{\fBatang|b0|i0|c0|p18;\P\fArial|b0|i0|c0|p34;\H0.75x;Por favor compruebe el modelo presente para un corte más preciso en \Pel fregadero!}
 73
     1
 44
1.0
  0
LWPOLYLINE
  5
1CED
330
18
100
AcDbEntity
  8
0
 62
     0
100
AcDbPolyline
 90
        8
 70
     1
 43
0.0
 10
4523.941980314991
 20
3985.199246541002
 10
5255.94198031499
 20
3985.199246541002
 42
-0.414213562373095
 10
5270.94198031499
 20
3970.199246541002
 10
5270.941980314991
 20
3594.199246541002
 42
-0.4142135623730955
 10
5255.941980314991
 20
3579.199246541002
 10
4523.94198031499
 20
3579.199246541002
 42
-0.414213562373095
 10
4508.94198031499
 20
3594.199246541002
 10
4508.941980314991
 20
3970.199246541002
 42
-0.414213562373095
  0
DIMENSION
  5
1D28
330
18
100
AcDbEntity
  8
0
 62
     0
100
AcDbDimension
  2
*D32
 10
5270.941980314991
 20
3508.208777652133
 30
0.0
 11
4889.94198031499
 21
3518.708777652133
 31
0.0
 70
    32
 71
     5
 42
762.0000000000009
 73
     0
 74
     0
 75
     0
  3
STANDARD
100
AcDbAlignedDimension
 13
4508.94198031499
 23
3637.820205849639
 33
0.0
 14
5270.941980314991
 24
3637.820205849641
 34
0.0
100
AcDbRotatedDimension
1001
ACAD
1000
DSTYLE
1002
{
1070
    41
1040
2.5
1070
    42
1040
0.625
1070
    43
1040
3.75
1070
    44
1040
1.25
1070
    73
1070
     0
1070
    74
1070
     0
1070
    77
1070
     1
1070
    78
1070
     8
1070
   140
1040
15.0
1070
   141
1040
2.5
1070
   143
1040
0.0394
1070
   147
1040
3.0
1070
   171
1070
     4
1070
   172
1070
     1
1070
   273
1070
     8
1070
   274
1070
     4
1002
}
  0
DIMENSION
  5
1D35
330
18
100
AcDbEntity
  8
0
 62
     0
100
AcDbDimension
  2
*D33
 10
5329.228236763789
 20
3985.199246541002
 30
0.0
 11
5318.728236763788
 21
3782.199246541003
 31
0.0
 70
    32
 71
     5
 42
406.0
 73
     0
 74
     0
 75
     0
  3
STANDARD
100
AcDbAlignedDimension
 13
5224.751019681726
 23
3579.199246541002
 33
0.0
 14
5224.751019681726
 24
3985.199246541002
 34
0.0
 50
90.0
100
AcDbRotatedDimension
1001
ACAD
1000
DSTYLE
1002
{
1070
    41
1040
2.5
1070
    42
1040
0.625
1070
    43
1040
3.75
1070
    44
1040
1.25
1070
    73
1070
     0
1070
    74
1070
     0
1070
    77
1070
     1
1070
    78
1070
     8
1070
   140
1040
15.0
1070
   141
1040
2.5
1070
   143
1040
0.0394
1070
   147
1040
3.0
1070
   171
1070
     4
1070
   172
1070
     1
1070
   273
1070
     8
1070
   274
1070
     4
1002
}
  0
DIMENSION
  5
1D42
330
18
100
AcDbEntity
  8
0
 62
     0
100
AcDbDimension
  2
*D34
 10
5255.941980314987
 20
3970.199246541
 30
0.0
 11
5292.310950547517
 21
4007.714586317828
 31
0.0
 70
   164
 71
     5
 42
15.00000000000364
 73
     0
 74
     0
 75
     0
  3
STANDARD
100
AcDbRadialDimension
 15
5266.382756116289
 25
3980.96912122305
 35
0.0
 40
0.0
1001
ACAD
1000
DSTYLE
1002
{
1070
    41
1040
2.5
1070
    42
1040
0.625
1070
    43
1040
3.75
1070
    44
1040
1.25
1070
    73
1070
     0
1070
    74
1070
     0
1070
    77
1070
     1
1070
    78
1070
     8
1070
   140
1040
15.0
1070
   141
1040
2.5
1070
   143
1040
0.0394
1070
   147
1040
3.0
1070
   171
1070
     4
1070
   172
1070
     1
1070
   273
1070
     8
1070
   274
1070
     4
1070
   288
1070
     1
1002
}
  0
ENDSEC
  0
SECTION
  2
OBJECTS
  0
DICTIONARY
  5
C
330
0
100
AcDbDictionary
281
     1
  3
ACAD_COLOR
350
178
  3
ACAD_DETAILVIEWSTYLE
350
1DEC
  3
ACAD_GROUP
350
D
  3
ACAD_IMAGE_DICT
350
1DAD
  3
ACAD_LAYOUT
350
179
  3
ACAD_MATERIAL
350
177
  3
ACAD_MLEADERSTYLE
350
1DA6
  3
ACAD_MLINESTYLE
350
1B
  3
ACAD_PLOTSETTINGS
350
17A
  3
ACAD_PLOTSTYLENAME
350
175
  3
ACAD_SCALELIST
350
1D7F
  3
ACAD_SECTIONVIEWSTYLE
350
1DED
  3
ACAD_TABLESTYLE
350
1DA4
  3
ACAD_VISUALSTYLE
350
1D66
  3
ACDB_RECOMPOSE_DATA
350
1DE7
  3
AcDbVariableDictionary
350
19E
  3
ASE_INDEX_DICTIONARY
350
2BA
  0
SUN
  5
1DAC
330
1D65
100
AcDbSun
 90
        1
290
     0
 63
     7
421
 16777215
 40
1.0
291
     1
 91
  2455826
 92
 54000000
292
     0
 70
     2
 71
   256
280
     1
  0
DICTIONARY
  5
9F6
330
2
100
AcDbDictionary
280
     1
281
     1
  3
ACAD_LAYERSTATES
360
9F7
  0
DICTIONARY
  5
178
102
{ACAD_REACTORS
330
C
102
}
330
C
100
AcDbDictionary
281
     1
  0
DICTIONARY
  5
1DEC
102
{ACAD_REACTORS
330
C
102
}
330
C
100
AcDbDictionary
281
     1
  0
DICTIONARY
  5
D
102
{ACAD_REACTORS
330
C
102
}
330
C
100
AcDbDictionary
281
     1
  0
DICTIONARY
  5
1DAD
102
{ACAD_REACTORS
330
C
102
}
330
C
100
AcDbDictionary
281
     1
  0
DICTIONARY
  5
179
102
{ACAD_REACTORS
330
C
102
}
330
C
100
AcDbDictionary
281
     1
  3
Model
350
17B
  3
布局1
350
17C
  0
DICTIONARY
  5
177
102
{ACAD_REACTORS
330
C
102
}
330
C
100
AcDbDictionary
281
     1
  3
ByBlock
350
1DA2
  3
ByLayer
350
1DA1
  3
Global
350
1DA3
  0
DICTIONARY
  5
1DA6
102
{ACAD_REACTORS
330
C
102
}
330
C
100
AcDbDictionary
281
     1
  3
Standard
350
1DA7
  0
DICTIONARY
  5
1B
102
{ACAD_REACTORS
330
C
102
}
330
C
100
AcDbDictionary
281
     1
  3
STANDARD
350
1C
  0
DICTIONARY
  5
17A
102
{ACAD_REACTORS
330
C
102
}
330
C
100
AcDbDictionary
281
     1
  0
ACDBDICTIONARYWDFLT
  5
175
102
{ACAD_REACTORS
330
C
102
}
330
C
100
AcDbDictionary
281
     1
  3
Normal
350
176
100
AcDbDictionaryWithDefault
340
176
  0
DICTIONARY
  5
1D7F
102
{ACAD_REACTORS
330
C
102
}
330
C
100
AcDbDictionary
281
     1
  3
A0
350
1D80
  3
A1
350
1D81
  3
A2
350
1D82
  3
A3
350
1D83
  3
A4
350
1D84
  3
A5
350
1D85
  3
A6
350
1D86
  3
A7
350
1D87
  3
A8
350
1D88
  3
A9
350
1D89
  3
B0
350
1D8A
  3
B1
350
1D8B
  3
B2
350
1D8C
  3
B3
350
1D8D
  3
B4
350
1D8E
  3
B5
350
1D8F
  3
B6
350
1D90
  3
B7
350
1D91
  3
B8
350
1D92
  3
B9
350
1D93
  3
C0
350
1D94
  3
C1
350
1D95
  3
C2
350
1D96
  3
C3
350
1D97
  3
C4
350
1D98
  3
C5
350
1D99
  3
C6
350
1D9A
  3
C7
350
1D9B
  3
C8
350
1D9C
  3
C9
350
1D9D
  3
D0
350
1D9E
  3
D1
350
1D9F
  3
D2
350
1DA0
  0
DICTIONARY
  5
1DED
102
{ACAD_REACTORS
330
C
102
}
330
C
100
AcDbDictionary
281
     1
  0
DICTIONARY
  5
1DA4
102
{ACAD_REACTORS
330
C
102
}
330
C
100
AcDbDictionary
281
     1
  3
Standard
350
1DA5
  0
DICTIONARY
  5
1D66
102
{ACAD_REACTORS
330
C
102
}
330
C
100
AcDbDictionary
281
     1
  3
2dWireframe
350
1D6B
  3
Basic
350
1D6E
  3
Brighten
350
1D72
  3
ColorChange
350
1D76
  3
Conceptual
350
1D70
  3
Dim
350
1D71
  3
EdgeColorOff
350
1D79
  3
Facepattern
350
1D75
  3
Flat
350
1D67
  3
FlatWithEdges
350
1D68
  3
Gouraud
350
1D69
  3
GouraudWithEdges
350
1D6A
  3
Hidden
350
1D6D
  3
JitterOff
350
1D77
  3
Linepattern
350
1D74
  3
OverhangOff
350
1D78
  3
Realistic
350
1D6F
  3
Shaded
350
1D7E
  3
Shaded with edges
350
1D7D
  3
Shades of Gray
350
1D7A
  3
Sketchy
350
1D7B
  3
Thicken
350
1D73
  3
Wireframe
350
1D6C
  3
X-Ray
350
1D7C
  0
XRECORD
  5
1DE7
102
{ACAD_REACTORS
330
C
102
}
330
C
100
AcDbXrecord
280
     1
 90
        1
330
1DA5
  0
DICTIONARY
  5
19E
102
{ACAD_REACTORS
330
C
102
}
330
C
100
AcDbDictionary
281
     1
  3
CANNOSCALE
350
1DB1
  3
CMLEADERSTYLE
350
1DE9
  3
CTABLESTYLE
350
1DE8
  3
DIMASSOC
350
19F
  3
MSLTSCALE
350
1DEA
  3
PROJECTNAME
350
1A0
  3
XCLIPFRAME
350
1DEB
  0
DICTIONARY
  5
2BA
102
{ACAD_REACTORS
330
C
102
}
330
C
100
AcDbDictionary
281
     1
  3
ASEBlockHierarchyIndexRecord
350
2BC
1001
DCO15
1040
1560505907.343
  0
DICTIONARY
  5
9F7
102
{ACAD_REACTORS
330
9F6
102
}
330
9F6
100
AcDbDictionary
281
     1
  0
LAYOUT
  5
17B
102
{ACAD_REACTORS
330
179
102
}
330
179
100
AcDbPlotSettings
  1

  2
采购IP2700
  4
User256
  6

 40
4.180416584014893
 41
5.831417560577393
 42
10.10707092285156
 43
3.757080078125
 44
215.8999938964844
 45
279.3999938964844
 46
0.0
 47
0.0
 48
3511.307322194814
 49
3809.617132792778
140
4564.122743981261
141
4527.495242683399
142
1.0
143
3.902040633511668
 70
 11952
 72
     1
 73
     1
 74
     4
  7

 75
     0
 76
     0
 77
     2
 78
   300
147
0.2562761626344324
148
-3511.307322194814
149
-3809.617132792778
100
AcDbLayout
  1
Model
 70
     1
 71
     0
 10
0.0
 20
0.0
 11
12.0
 21
9.0
 12
0.0
 22
0.0
 32
0.0
 14
0.0
 24
0.0
 34
0.0
 15
0.0
 25
0.0
 35
0.0
146
0.0
 13
0.0
 23
0.0
 33
0.0
 16
1.0
 26
0.0
 36
0.0
 17
0.0
 27
1.0
 37
0.0
 76
     0
330
18
331
1D65
  0
LAYOUT
  5
17C
102
{ACAD_REACTORS
330
179
102
}
330
179
100
AcDbPlotSettings
  1

  2
C:\Documents and Settings\yingao\Application Data\Autodesk\AutoCAD 2004\R16.0\chs\plotters\PublishToWeb PNG.pc3
  4

  6

 40
0.0
 41
0.0
 42
0.0
 43
0.0
 44
0.0
 45
0.0
 46
0.0
 47
0.0
 48
0.0
 49
0.0
140
0.0
141
0.0
142
1.0
143
1.0
 70
   688
 72
     0
 73
     0
 74
     5
  7

 75
    16
 76
     0
 77
     2
 78
   300
147
1.0
148
0.0
149
0.0
100
AcDbLayout
  1
布局1
 70
     1
 71
     1
 10
0.0
 20
0.0
 11
420.0
 21
297.0
 12
0.0
 22
0.0
 32
0.0
 14
1.000000000000000E+20
 24
1.000000000000000E+20
 34
1.000000000000000E+20
 15
-1.000000000000000E+20
 25
-1.000000000000000E+20
 35
-1.000000000000000E+20
146
0.0
 13
0.0
 23
0.0
 33
0.0
 16
1.0
 26
0.0
 36
0.0
 17
0.0
 27
1.0
 37
0.0
 76
     0
330
15
  0
MATERIAL
  5
1DA2
102
{ACAD_REACTORS
330
177
102
}
330
177
100
AcDbMaterial
  1
ByBlock
 72
     1
 94
      127
  0
MATERIAL
  5
1DA1
102
{ACAD_REACTORS
330
177
102
}
330
177
100
AcDbMaterial
  1
ByLayer
 72
     1
 94
      127
  0
MATERIAL
  5
1DA3
102
{ACAD_REACTORS
330
177
102
}
330
177
100
AcDbMaterial
  1
Global
 72
     1
 94
      127
  0
MLEADERSTYLE
  5
1DA7
102
{ACAD_REACTORS
330
1DA6
102
}
102
{ACAD_XDICTIONARY
360
1DE5
102
}
330
1DA6
100
AcDbMLeaderStyle
170
     2
171
     1
172
     0
 90
        2
 40
0.0
 41
0.0
173
     1
 91
-1056964608
340
12
 92
       -2
290
     1
 42
2.0
291
     1
 43
8.0
  3
Standard
341
0
 44
4.0
300

342
F
174
     1
178
     6
175
     1
176
     0
 93
-1056964608
 45
4.0
292
     0
297
     0
 46
4.0
343
0
 94
-1056964608
 47
1.0
 49
1.0
140
1.0
293
     1
141
0.0
294
     1
177
     0
142
1.0
295
     0
296
     0
143
3.75
1001
ACAD_MLEADERVER
1070
     2
  0
MLINESTYLE
  5
1C
102
{ACAD_REACTORS
330
1B
102
}
330
1B
100
AcDbMlineStyle
  2
STANDARD
 70
     0
  3

 62
   256
 51
90.0
 52
90.0
 71
     2
 49
0.5
 62
   256
  6
BYLAYER
 49
-0.5
 62
   256
  6
BYLAYER
  0
ACDBPLACEHOLDER
  5
176
102
{ACAD_REACTORS
330
175
102
}
330
175
  0
SCALE
  5
1D80
102
{ACAD_REACTORS
330
1D7F
102
}
330
1D7F
100
AcDbScale
 70
     0
300
1:1
140
1.0
141
1.0
290
     1
  0
SCALE
  5
1D81
102
{ACAD_REACTORS
330
1D7F
102
}
330
1D7F
100
AcDbScale
 70
     0
300
1:2
140
1.0
141
2.0
290
     0
  0
SCALE
  5
1D82
102
{ACAD_REACTORS
330
1D7F
102
}
330
1D7F
100
AcDbScale
 70
     0
300
1:4
140
1.0
141
4.0
290
     0
  0
SCALE
  5
1D83
102
{ACAD_REACTORS
330
1D7F
102
}
330
1D7F
100
AcDbScale
 70
     0
300
1:5
140
1.0
141
5.0
290
     0
  0
SCALE
  5
1D84
102
{ACAD_REACTORS
330
1D7F
102
}
330
1D7F
100
AcDbScale
 70
     0
300
1:8
140
1.0
141
8.0
290
     0
  0
SCALE
  5
1D85
102
{ACAD_REACTORS
330
1D7F
102
}
330
1D7F
100
AcDbScale
 70
     0
300
1:10
140
1.0
141
10.0
290
     0
  0
SCALE
  5
1D86
102
{ACAD_REACTORS
330
1D7F
102
}
330
1D7F
100
AcDbScale
 70
     0
300
1:16
140
1.0
141
16.0
290
     0
  0
SCALE
  5
1D87
102
{ACAD_REACTORS
330
1D7F
102
}
330
1D7F
100
AcDbScale
 70
     0
300
1:20
140
1.0
141
20.0
290
     0
  0
SCALE
  5
1D88
102
{ACAD_REACTORS
330
1D7F
102
}
330
1D7F
100
AcDbScale
 70
     0
300
1:30
140
1.0
141
30.0
290
     0
  0
SCALE
  5
1D89
102
{ACAD_REACTORS
330
1D7F
102
}
330
1D7F
100
AcDbScale
 70
     0
300
1:40
140
1.0
141
40.0
290
     0
  0
SCALE
  5
1D8A
102
{ACAD_REACTORS
330
1D7F
102
}
330
1D7F
100
AcDbScale
 70
     0
300
1:50
140
1.0
141
50.0
290
     0
  0
SCALE
  5
1D8B
102
{ACAD_REACTORS
330
1D7F
102
}
330
1D7F
100
AcDbScale
 70
     0
300
1:100
140
1.0
141
100.0
290
     0
  0
SCALE
  5
1D8C
102
{ACAD_REACTORS
330
1D7F
102
}
330
1D7F
100
AcDbScale
 70
     0
300
2:1
140
2.0
141
1.0
290
     0
  0
SCALE
  5
1D8D
102
{ACAD_REACTORS
330
1D7F
102
}
330
1D7F
100
AcDbScale
 70
     0
300
4:1
140
4.0
141
1.0
290
     0
  0
SCALE
  5
1D8E
102
{ACAD_REACTORS
330
1D7F
102
}
330
1D7F
100
AcDbScale
 70
     0
300
8:1
140
8.0
141
1.0
290
     0
  0
SCALE
  5
1D8F
102
{ACAD_REACTORS
330
1D7F
102
}
330
1D7F
100
AcDbScale
 70
     0
300
10:1
140
10.0
141
1.0
290
     0
  0
SCALE
  5
1D90
102
{ACAD_REACTORS
330
1D7F
102
}
330
1D7F
100
AcDbScale
 70
     0
300
100:1
140
100.0
141
1.0
290
     0
  0
SCALE
  5
1D91
102
{ACAD_REACTORS
330
1D7F
102
}
330
1D7F
100
AcDbScale
 70
     0
300
1/128" = 1'-0"
140
0.0078125
141
12.0
290
     0
  0
SCALE
  5
1D92
102
{ACAD_REACTORS
330
1D7F
102
}
330
1D7F
100
AcDbScale
 70
     0
300
1/64" = 1'-0"
140
0.015625
141
12.0
290
     0
  0
SCALE
  5
1D93
102
{ACAD_REACTORS
330
1D7F
102
}
330
1D7F
100
AcDbScale
 70
     0
300
1/32" = 1'-0"
140
0.03125
141
12.0
290
     0
  0
SCALE
  5
1D94
102
{ACAD_REACTORS
330
1D7F
102
}
330
1D7F
100
AcDbScale
 70
     0
300
1/16" = 1'-0"
140
0.0625
141
12.0
290
     0
  0
SCALE
  5
1D95
102
{ACAD_REACTORS
330
1D7F
102
}
330
1D7F
100
AcDbScale
 70
     0
300
3/32" = 1'-0"
140
0.09375
141
12.0
290
     0
  0
SCALE
  5
1D96
102
{ACAD_REACTORS
330
1D7F
102
}
330
1D7F
100
AcDbScale
 70
     0
300
1/8" = 1'-0"
140
0.125
141
12.0
290
     0
  0
SCALE
  5
1D97
102
{ACAD_REACTORS
330
1D7F
102
}
330
1D7F
100
AcDbScale
 70
     0
300
3/16" = 1'-0"
140
0.1875
141
12.0
290
     0
  0
SCALE
  5
1D98
102
{ACAD_REACTORS
330
1D7F
102
}
330
1D7F
100
AcDbScale
 70
     0
300
1/4" = 1'-0"
140
0.25
141
12.0
290
     0
  0
SCALE
  5
1D99
102
{ACAD_REACTORS
330
1D7F
102
}
330
1D7F
100
AcDbScale
 70
     0
300
3/8" = 1'-0"
140
0.375
141
12.0
290
     0
  0
SCALE
  5
1D9A
102
{ACAD_REACTORS
330
1D7F
102
}
330
1D7F
100
AcDbScale
 70
     0
300
1/2" = 1'-0"
140
0.5
141
12.0
290
     0
  0
SCALE
  5
1D9B
102
{ACAD_REACTORS
330
1D7F
102
}
330
1D7F
100
AcDbScale
 70
     0
300
3/4" = 1'-0"
140
0.75
141
12.0
290
     0
  0
SCALE
  5
1D9C
102
{ACAD_REACTORS
330
1D7F
102
}
330
1D7F
100
AcDbScale
 70
     0
300
1" = 1'-0"
140
1.0
141
12.0
290
     0
  0
SCALE
  5
1D9D
102
{ACAD_REACTORS
330
1D7F
102
}
330
1D7F
100
AcDbScale
 70
     0
300
1-1/2" = 1'-0"
140
1.5
141
12.0
290
     0
  0
SCALE
  5
1D9E
102
{ACAD_REACTORS
330
1D7F
102
}
330
1D7F
100
AcDbScale
 70
     0
300
3" = 1'-0"
140
3.0
141
12.0
290
     0
  0
SCALE
  5
1D9F
102
{ACAD_REACTORS
330
1D7F
102
}
330
1D7F
100
AcDbScale
 70
     0
300
6" = 1'-0"
140
6.0
141
12.0
290
     0
  0
SCALE
  5
1DA0
102
{ACAD_REACTORS
330
1D7F
102
}
330
1D7F
100
AcDbScale
 70
     0
300
1'-0" = 1'-0"
140
12.0
141
12.0
290
     0
  0
TABLESTYLE
  5
1DA5
102
{ACAD_REACTORS
330
1DA4
102
}
102
{ACAD_XDICTIONARY
360
1DE2
102
}
330
1DA4
100
AcDbTableStyle
  3
Standard
 70
     0
 71
     0
 40
0.06
 41
0.06
280
     0
281
     0
  7
STANDARD
140
4.5
170
     2
 62
     0
 63
   257
283
     0
 90
        4
 91
        0
  1

274
    -2
284
     1
 64
     0
275
    -2
285
     1
 65
     0
276
    -2
286
     1
 66
     0
277
    -2
287
     1
 67
     0
278
    -2
288
     1
 68
     0
279
    -2
289
     1
 69
     0
  7
STANDARD
140
6.0
170
     5
 62
     0
 63
   257
283
     0
 90
        4
 91
        0
  1

274
    -2
284
     1
 64
     0
275
    -2
285
     1
 65
     0
276
    -2
286
     1
 66
     0
277
    -2
287
     1
 67
     0
278
    -2
288
     1
 68
     0
279
    -2
289
     1
 69
     0
  7
STANDARD
140
4.5
170
     5
 62
     0
 63
   257
283
     0
 90
        4
 91
        0
  1

274
    -2
284
     1
 64
     0
275
    -2
285
     1
 65
     0
276
    -2
286
     1
 66
     0
277
    -2
287
     1
 67
     0
278
    -2
288
     1
 68
     0
279
    -2
289
     1
 69
     0
  0
VISUALSTYLE
  5
1D6B
102
{ACAD_REACTORS
330
1D66
102
}
102
{ACAD_XDICTIONARY
360
1DBA
102
}
330
1D66
100
AcDbVisualStyle
  2
2dWireframe
 70
     4
 71
     0
 72
     2
 73
     0
 90
        0
 40
0.6
 41
30.0
 62
     5
 63
     7
421
 16777215
 74
     1
 91
        4
 64
     7
 65
   257
 75
     1
175
     1
 42
1.0
 92
        0
 66
   257
 43
1.0
 76
     1
 77
     6
 78
     2
 67
     7
 79
     5
170
     0
171
     0
290
     0
174
     0
 93
        1
 44
0.0
173
     0
291
     0
 45
0.0
  0
VISUALSTYLE
  5
1D6E
102
{ACAD_REACTORS
330
1D66
102
}
102
{ACAD_XDICTIONARY
360
1DC0
102
}
330
1D66
100
AcDbVisualStyle
  2
Basic
 70
     7
 71
     1
 72
     0
 73
     1
 90
        0
 40
0.6
 41
30.0
 62
     5
 63
     7
421
 16777215
 74
     0
 91
        4
 64
     7
 65
   257
 75
     1
175
     1
 42
1.0
 92
        8
 66
     7
 43
1.0
 76
     1
 77
     6
 78
     2
 67
     7
 79
     5
170
     0
171
     0
290
     0
174
     0
 93
        1
 44
0.0
173
     0
291
     1
 45
0.0
  0
VISUALSTYLE
  5
1D72
102
{ACAD_REACTORS
330
1D66
102
}
102
{ACAD_XDICTIONARY
360
1DC8
102
}
330
1D66
100
AcDbVisualStyle
  2
Brighten
 70
    12
 71
     2
 72
     2
 73
     0
 90
        0
 40
0.6
 41
30.0
 62
     5
 63
     7
421
 16777215
 74
     1
 91
        4
 64
     7
 65
   257
 75
     1
175
     1
 42
1.0
 92
        8
 66
     7
 43
1.0
 76
     1
 77
     6
 78
     2
 67
     7
 79
     5
170
     0
171
     0
290
     0
174
     0
 93
        1
 44
50.0
173
     0
291
     1
 45
0.0
  0
VISUALSTYLE
  5
1D76
102
{ACAD_REACTORS
330
1D66
102
}
102
{ACAD_XDICTIONARY
360
1DD0
102
}
330
1D66
100
AcDbVisualStyle
  2
ColorChange
 70
    16
 71
     2
 72
     2
 73
     3
 90
        0
 40
0.6
 41
30.0
 62
     5
 63
     8
421
  8421504
 74
     1
 91
        4
 64
     7
 65
   257
 75
     1
175
     1
 42
1.0
 92
        8
 66
     8
424
  8421504
 43
1.0
 76
     1
 77
     6
 78
     2
 67
     7
 79
     5
170
     0
171
     0
290
     0
174
     0
 93
        1
 44
0.0
173
     0
291
     1
 45
0.0
  0
VISUALSTYLE
  5
1D70
102
{ACAD_REACTORS
330
1D66
102
}
102
{ACAD_XDICTIONARY
360
1DC4
102
}
330
1D66
100
AcDbVisualStyle
  2
Conceptual
 70
     9
 71
     3
 72
     2
 73
     0
 90
        0
 40
0.6
 41
30.0
 62
     5
 63
     7
421
 16777215
 74
     2
 91
        2
 64
     7
 65
   257
 75
     1
175
     1
 42
179.0
 92
        8
 66
     7
 43
1.0
 76
     1
 77
     6
 78
     2
 67
     7
 79
     3
170
     0
171
     0
290
     0
174
     0
 93
        1
 44
0.0
173
     0
291
     0
 45
0.0
  0
VISUALSTYLE
  5
1D71
102
{ACAD_REACTORS
330
1D66
102
}
102
{ACAD_XDICTIONARY
360
1DC6
102
}
330
1D66
100
AcDbVisualStyle
  2
Dim
 70
    11
 71
     2
 72
     2
 73
     0
 90
        0
 40
0.6
 41
30.0
 62
     5
 63
     7
421
 16777215
 74
     1
 91
        4
 64
     7
 65
   257
 75
     1
175
     1
 42
1.0
 92
        8
 66
     7
 43
1.0
 76
     1
 77
     6
 78
     2
 67
     7
 79
     5
170
     0
171
     0
290
     0
174
     0
 93
        1
 44
-50.0
173
     0
291
     1
 45
0.0
  0
VISUALSTYLE
  5
1D79
102
{ACAD_REACTORS
330
1D66
102
}
102
{ACAD_XDICTIONARY
360
1DD6
102
}
330
1D66
100
AcDbVisualStyle
  2
EdgeColorOff
 70
    22
 71
     2
 72
     2
 73
     0
 90
        0
 40
0.6
 41
30.0
 62
     5
 63
     7
421
 16777215
 74
     1
 91
        4
 64
     7
 65
   257
 75
     1
175
     1
 42
1.0
 92
        8
 66
     7
 43
1.0
 76
     1
 77
     6
 78
     2
 67
     7
 79
     5
170
     0
171
     0
290
     0
174
     0
 93
        1
 44
0.0
173
     0
291
     1
 45
0.0
  0
VISUALSTYLE
  5
1D75
102
{ACAD_REACTORS
330
1D66
102
}
102
{ACAD_XDICTIONARY
360
1DCE
102
}
330
1D66
100
AcDbVisualStyle
  2
Facepattern
 70
    15
 71
     2
 72
     2
 73
     0
 90
        0
 40
0.6
 41
30.0
 62
     5
 63
     7
421
 16777215
 74
     1
 91
        4
 64
     7
 65
   257
 75
     1
175
     1
 42
1.0
 92
        8
 66
     7
 43
1.0
 76
     1
 77
     6
 78
     2
 67
     7
 79
     5
170
     0
171
     0
290
     0
174
     0
 93
        1
 44
0.0
173
     0
291
     1
 45
0.0
  0
VISUALSTYLE
  5
1D67
102
{ACAD_REACTORS
330
1D66
102
}
102
{ACAD_XDICTIONARY
360
1DB2
102
}
330
1D66
100
AcDbVisualStyle
  2
Flat
 70
     0
 71
     2
 72
     1
 73
     1
 90
        2
 40
0.6
 41
30.0
 62
     5
 63
     7
421
 16777215
 74
     0
 91
        0
 64
     7
 65
   257
 75
     1
175
     1
 42
1.0
 92
        8
 66
     7
 43
1.0
 76
     1
 77
     6
 78
     2
 67
     7
 79
     5
170
     0
171
     0
290
     0
174
     0
 93
       13
 44
0.0
173
     0
291
     1
 45
0.0
  0
VISUALSTYLE
  5
1D68
102
{ACAD_REACTORS
330
1D66
102
}
102
{ACAD_XDICTIONARY
360
1DB4
102
}
330
1D66
100
AcDbVisualStyle
  2
FlatWithEdges
 70
     1
 71
     2
 72
     1
 73
     1
 90
        2
 40
0.6
 41
30.0
 62
     5
 63
     7
421
 16777215
 74
     1
 91
        0
 64
     7
 65
   257
 75
     1
175
     1
 42
1.0
 92
        0
 66
   257
 43
1.0
 76
     1
 77
     6
 78
     2
 67
     7
 79
     5
170
     0
171
     0
290
     0
174
     0
 93
       13
 44
0.0
173
     0
291
     1
 45
0.0
  0
VISUALSTYLE
  5
1D69
102
{ACAD_REACTORS
330
1D66
102
}
102
{ACAD_XDICTIONARY
360
1DB6
102
}
330
1D66
100
AcDbVisualStyle
  2
Gouraud
 70
     2
 71
     2
 72
     2
 73
     1
 90
        2
 40
0.6
 41
30.0
 62
     5
 63
     7
421
 16777215
 74
     0
 91
        0
 64
     7
 65
   257
 75
     1
175
     1
 42
1.0
 92
        0
 66
     7
 43
1.0
 76
     1
 77
     6
 78
     2
 67
     7
 79
     5
170
     0
171
     0
290
     0
174
     0
 93
       13
 44
0.0
173
     0
291
     1
 45
0.0
  0
VISUALSTYLE
  5
1D6A
102
{ACAD_REACTORS
330
1D66
102
}
102
{ACAD_XDICTIONARY
360
1DB8
102
}
330
1D66
100
AcDbVisualStyle
  2
GouraudWithEdges
 70
     3
 71
     2
 72
     2
 73
     1
 90
        2
 40
0.6
 41
30.0
 62
     5
 63
     7
421
 16777215
 74
     1
 91
        0
 64
     7
 65
   257
 75
     1
175
     1
 42
1.0
 92
        0
 66
   257
 43
1.0
 76
     1
 77
     6
 78
     2
 67
     7
 79
     5
170
     0
171
     0
290
     0
174
     0
 93
       13
 44
0.0
173
     0
291
     1
 45
0.0
  0
VISUALSTYLE
  5
1D6D
102
{ACAD_REACTORS
330
1D66
102
}
102
{ACAD_XDICTIONARY
360
1DBE
102
}
330
1D66
100
AcDbVisualStyle
  2
Hidden
 70
     6
 71
     1
 72
     2
 73
     2
 90
        0
 40
0.6
 41
30.0
 62
     5
 63
     7
421
 16777215
 74
     2
 91
        2
 64
     7
 65
   257
 75
     2
175
     1
 42
40.0
 92
        0
 66
   257
 43
1.0
 76
     1
 77
     6
 78
     2
 67
     7
 79
     3
170
     0
171
     0
290
     0
174
     0
 93
        1
 44
0.0
173
     0
291
     0
 45
0.0
  0
VISUALSTYLE
  5
1D77
102
{ACAD_REACTORS
330
1D66
102
}
102
{ACAD_XDICTIONARY
360
1DD2
102
}
330
1D66
100
AcDbVisualStyle
  2
JitterOff
 70
    20
 71
     2
 72
     2
 73
     0
 90
        0
 40
0.6
 41
30.0
 62
     5
 63
     7
421
 16777215
 74
     1
 91
        4
 64
     7
 65
   257
 75
     1
175
     1
 42
1.0
 92
       10
 66
     7
 43
1.0
 76
     1
 77
     6
 78
     2
 67
     7
 79
     5
170
     0
171
     0
290
     0
174
     0
 93
        1
 44
0.0
173
     0
291
     1
 45
0.0
  0
VISUALSTYLE
  5
1D74
102
{ACAD_REACTORS
330
1D66
102
}
102
{ACAD_XDICTIONARY
360
1DCC
102
}
330
1D66
100
AcDbVisualStyle
  2
Linepattern
 70
    14
 71
     2
 72
     2
 73
     0
 90
        0
 40
0.6
 41
30.0
 62
     5
 63
     7
421
 16777215
 74
     1
 91
        4
 64
     7
 65
   257
 75
     7
175
     7
 42
1.0
 92
        8
 66
     7
 43
1.0
 76
     1
 77
     6
 78
     2
 67
     7
 79
     5
170
     0
171
     0
290
     0
174
     0
 93
        1
 44
0.0
173
     0
291
     1
 45
0.0
  0
VISUALSTYLE
  5
1D78
102
{ACAD_REACTORS
330
1D66
102
}
102
{ACAD_XDICTIONARY
360
1DD4
102
}
330
1D66
100
AcDbVisualStyle
  2
OverhangOff
 70
    21
 71
     2
 72
     2
 73
     0
 90
        0
 40
0.6
 41
30.0
 62
     5
 63
     7
421
 16777215
 74
     1
 91
        4
 64
     7
 65
   257
 75
     1
175
     1
 42
1.0
 92
        9
 66
     7
 43
1.0
 76
     1
 77
     6
 78
     2
 67
     7
 79
     5
170
     0
171
     0
290
     0
174
     0
 93
        1
 44
0.0
173
     0
291
     1
 45
0.0
  0
VISUALSTYLE
  5
1D6F
102
{ACAD_REACTORS
330
1D66
102
}
102
{ACAD_XDICTIONARY
360
1DC2
102
}
330
1D66
100
AcDbVisualStyle
  2
Realistic
 70
     8
 71
     2
 72
     3
 73
     0
 90
        2
 40
0.6
 41
30.0
 62
     5
 63
     7
421
 16777215
 74
     0
 91
        0
 64
     7
 65
   257
 75
     1
175
     1
 42
1.0
 92
        8
 66
   257
 43
1.0
 76
     1
 77
     6
 78
     2
 67
     7
 79
     3
170
     0
171
     0
290
     0
174
     0
 93
       13
 44
0.0
173
     0
291
     0
 45
0.0
  0
VISUALSTYLE
  5
1D7E
102
{ACAD_REACTORS
330
1D66
102
}
102
{ACAD_XDICTIONARY
360
1DE0
102
}
330
1D66
100
AcDbVisualStyle
  2
Shaded
 70
    27
 71
     2
 72
     2
 73
     1
 90
        2
 40
0.6
 41
30.0
 62
     5
 63
     7
421
 16777215
 74
     0
 91
        4
 64
     7
 65
   257
 75
     1
175
     1
 42
1.0
 92
        8
 66
   257
 43
1.0
 76
     1
 77
     6
 78
     2
 67
     8
425
  7895160
 79
     3
170
     0
171
     0
290
     0
174
     0
 93
        5
 44
0.0
173
     0
291
     0
 45
0.0
  0
VISUALSTYLE
  5
1D7D
102
{ACAD_REACTORS
330
1D66
102
}
102
{ACAD_XDICTIONARY
360
1DDE
102
}
330
1D66
100
AcDbVisualStyle
  2
Shaded with edges
 70
    26
 71
     2
 72
     2
 73
     1
 90
        2
 40
0.6
 41
30.0
 62
     5
 63
     7
421
 16777215
 74
     1
 91
       10
 64
     7
 65
   257
 75
     2
175
     1
 42
1.0
 92
        8
 66
   257
 43
1.0
 76
     1
 77
     6
 78
     2
 67
     7
 79
     3
170
     0
171
     0
290
     0
174
     0
 93
        5
 44
0.0
173
     0
291
     0
 45
0.0
  0
VISUALSTYLE
  5
1D7A
102
{ACAD_REACTORS
330
1D66
102
}
102
{ACAD_XDICTIONARY
360
1DD8
102
}
330
1D66
100
AcDbVisualStyle
  2
Shades of Gray
 70
    23
 71
     2
 72
     2
 73
     3
 90
        0
 40
0.6
 41
30.0
 62
     5
 63
     7
421
 16777215
 74
     2
 91
        2
 64
     7
 65
     7
 75
     1
175
     1
 42
40.0
 92
        8
 66
     7
 43
1.0
 76
     1
 77
     6
 78
     2
 67
     7
 79
     3
170
     0
171
     0
290
     0
174
     0
 93
        1
 44
0.0
173
     0
291
     0
 45
0.0
  0
VISUALSTYLE
  5
1D7B
102
{ACAD_REACTORS
330
1D66
102
}
102
{ACAD_XDICTIONARY
360
1DDA
102
}
330
1D66
100
AcDbVisualStyle
  2
Sketchy
 70
    24
 71
     1
 72
     2
 73
     2
 90
        0
 40
0.6
 41
30.0
 62
     5
 63
     7
421
 16777215
 74
     2
 91
        2
 64
     7
 65
     7
 75
     1
175
     1
 42
40.0
 92
       11
 66
     7
 43
1.0
 76
     1
 77
     6
 78
     2
 67
     7
 79
     6
170
     0
171
     0
290
     0
174
     0
 93
        1
 44
0.0
173
     0
291
     0
 45
0.0
  0
VISUALSTYLE
  5
1D73
102
{ACAD_REACTORS
330
1D66
102
}
102
{ACAD_XDICTIONARY
360
1DCA
102
}
330
1D66
100
AcDbVisualStyle
  2
Thicken
 70
    13
 71
     2
 72
     2
 73
     0
 90
        0
 40
0.6
 41
30.0
 62
     5
 63
     7
421
 16777215
 74
     1
 91
        4
 64
     7
 65
   257
 75
     1
175
     1
 42
1.0
 92
       12
 66
     7
 43
1.0
 76
     1
 77
     6
 78
     2
 67
     7
 79
     5
170
     0
171
     0
290
     0
174
     0
 93
        1
 44
0.0
173
     0
291
     1
 45
0.0
  0
VISUALSTYLE
  5
1D6C
102
{ACAD_REACTORS
330
1D66
102
}
102
{ACAD_XDICTIONARY
360
1DBC
102
}
330
1D66
100
AcDbVisualStyle
  2
Wireframe
 70
     5
 71
     0
 72
     2
 73
     0
 90
        0
 40
0.6
 41
30.0
 62
     5
 63
     7
421
 16777215
 74
     1
 91
        4
 64
     7
 65
   257
 75
     1
175
     1
 42
1.0
 92
        0
 66
   257
 43
1.0
 76
     1
 77
     6
 78
     2
 67
     7
 79
     3
170
     0
171
     0
290
     0
174
     0
 93
        1
 44
0.0
173
     0
291
     0
 45
0.0
  0
VISUALSTYLE
  5
1D7C
102
{ACAD_REACTORS
330
1D66
102
}
102
{ACAD_XDICTIONARY
360
1DDC
102
}
330
1D66
100
AcDbVisualStyle
  2
X-Ray
 70
    25
 71
     2
 72
     2
 73
     1
 90
        1
 40
0.5
 41
30.0
 62
     5
 63
     7
421
 16777215
 74
     1
 91
        0
 64
     7
 65
   257
 75
     1
175
     1
 42
1.0
 92
        8
 66
     7
 43
1.0
 76
     1
 77
     6
 78
     2
 67
     7
 79
     3
170
     0
171
     0
290
     0
174
     0
 93
       13
 44
0.0
173
     0
291
     0
 45
0.0
  0
DICTIONARYVAR
  5
1DB1
102
{ACAD_REACTORS
330
19E
102
}
330
19E
100
DictionaryVariables
280
     0
  1
1:1
  0
DICTIONARYVAR
  5
1DE9
102
{ACAD_REACTORS
330
19E
102
}
330
19E
100
DictionaryVariables
280
     0
  1
Standard
  0
DICTIONARYVAR
  5
1DE8
102
{ACAD_REACTORS
330
19E
102
}
330
19E
100
DictionaryVariables
280
     0
  1
Standard
  0
DICTIONARYVAR
  5
19F
102
{ACAD_REACTORS
330
19E
102
}
330
19E
100
DictionaryVariables
280
     0
  1
1
  0
DICTIONARYVAR
  5
1DEA
102
{ACAD_REACTORS
330
19E
102
}
330
19E
100
DictionaryVariables
280
     0
  1
0
  0
DICTIONARYVAR
  5
1A0
102
{ACAD_REACTORS
330
19E
102
}
330
19E
100
DictionaryVariables
280
     0
  1

  0
DICTIONARYVAR
  5
1DEB
102
{ACAD_REACTORS
330
19E
102
}
330
19E
100
DictionaryVariables
280
     0
  1
0
  0
XRECORD
  5
2BC
102
{ACAD_REACTORS
330
2BA
102
}
330
2BA
100
AcDbXrecord
280
     1
  0
DICTIONARY
  5
1DE5
330
1DA7
100
AcDbDictionary
280
     1
281
     1
  3
ACAD_XREC_ROUNDTRIP
360
1DE6
  0
DICTIONARY
  5
1DE2
330
1DA5
100
AcDbDictionary
280
     1
281
     1
  3
ACAD_ROUNDTRIP_2008_TABLESTYLE_CELLSTYLEMAP
360
1DE3
  0
DICTIONARY
  5
1DBA
330
1D6B
100
AcDbDictionary
280
     1
281
     1
  3
ACAD_XREC_ROUNDTRIP
360
1DBB
  0
DICTIONARY
  5
1DC0
330
1D6E
100
AcDbDictionary
280
     1
281
     1
  3
ACAD_XREC_ROUNDTRIP
360
1DC1
  0
DICTIONARY
  5
1DC8
330
1D72
100
AcDbDictionary
280
     1
281
     1
  3
ACAD_XREC_ROUNDTRIP
360
1DC9
  0
DICTIONARY
  5
1DD0
330
1D76
100
AcDbDictionary
280
     1
281
     1
  3
ACAD_XREC_ROUNDTRIP
360
1DD1
  0
DICTIONARY
  5
1DC4
330
1D70
100
AcDbDictionary
280
     1
281
     1
  3
ACAD_XREC_ROUNDTRIP
360
1DC5
  0
DICTIONARY
  5
1DC6
330
1D71
100
AcDbDictionary
280
     1
281
     1
  3
ACAD_XREC_ROUNDTRIP
360
1DC7
  0
DICTIONARY
  5
1DD6
330
1D79
100
AcDbDictionary
280
     1
281
     1
  3
ACAD_XREC_ROUNDTRIP
360
1DD7
  0
DICTIONARY
  5
1DCE
330
1D75
100
AcDbDictionary
280
     1
281
     1
  3
ACAD_XREC_ROUNDTRIP
360
1DCF
  0
DICTIONARY
  5
1DB2
330
1D67
100
AcDbDictionary
280
     1
281
     1
  3
ACAD_XREC_ROUNDTRIP
360
1DB3
  0
DICTIONARY
  5
1DB4
330
1D68
100
AcDbDictionary
280
     1
281
     1
  3
ACAD_XREC_ROUNDTRIP
360
1DB5
  0
DICTIONARY
  5
1DB6
330
1D69
100
AcDbDictionary
280
     1
281
     1
  3
ACAD_XREC_ROUNDTRIP
360
1DB7
  0
DICTIONARY
  5
1DB8
330
1D6A
100
AcDbDictionary
280
     1
281
     1
  3
ACAD_XREC_ROUNDTRIP
360
1DB9
  0
DICTIONARY
  5
1DBE
330
1D6D
100
AcDbDictionary
280
     1
281
     1
  3
ACAD_XREC_ROUNDTRIP
360
1DBF
  0
DICTIONARY
  5
1DD2
330
1D77
100
AcDbDictionary
280
     1
281
     1
  3
ACAD_XREC_ROUNDTRIP
360
1DD3
  0
DICTIONARY
  5
1DCC
330
1D74
100
AcDbDictionary
280
     1
281
     1
  3
ACAD_XREC_ROUNDTRIP
360
1DCD
  0
DICTIONARY
  5
1DD4
330
1D78
100
AcDbDictionary
280
     1
281
     1
  3
ACAD_XREC_ROUNDTRIP
360
1DD5
  0
DICTIONARY
  5
1DC2
330
1D6F
100
AcDbDictionary
280
     1
281
     1
  3
ACAD_XREC_ROUNDTRIP
360
1DC3
  0
DICTIONARY
  5
1DE0
330
1D7E
100
AcDbDictionary
280
     1
281
     1
  3
ACAD_XREC_ROUNDTRIP
360
1DE1
  0
DICTIONARY
  5
1DDE
330
1D7D
100
AcDbDictionary
280
     1
281
     1
  3
ACAD_XREC_ROUNDTRIP
360
1DDF
  0
DICTIONARY
  5
1DD8
330
1D7A
100
AcDbDictionary
280
     1
281
     1
  3
ACAD_XREC_ROUNDTRIP
360
1DD9
  0
DICTIONARY
  5
1DDA
330
1D7B
100
AcDbDictionary
280
     1
281
     1
  3
ACAD_XREC_ROUNDTRIP
360
1DDB
  0
DICTIONARY
  5
1DCA
330
1D73
100
AcDbDictionary
280
     1
281
     1
  3
ACAD_XREC_ROUNDTRIP
360
1DCB
  0
DICTIONARY
  5
1DBC
330
1D6C
100
AcDbDictionary
280
     1
281
     1
  3
ACAD_XREC_ROUNDTRIP
360
1DBD
  0
DICTIONARY
  5
1DDC
330
1D7C
100
AcDbDictionary
280
     1
281
     1
  3
ACAD_XREC_ROUNDTRIP
360
1DDD
  0
XRECORD
  5
1DE6
102
{ACAD_REACTORS
330
1DE5
102
}
330
1DE5
100
AcDbXrecord
280
     1
102
ACAD_ROUNDTRIP_2010_MLEADER_STYLE
  0
CELLSTYLEMAP
  5
1DE3
102
{ACAD_REACTORS
330
1DE2
102
}
330
1DE2
100
AcDbCellStyleMap
 90
        3
300
CELLSTYLE
  1
TABLEFORMAT_BEGIN
 90
        5
170
     1
 91
        0
 92
    32768
 62
   257
 93
        1
300
CONTENTFORMAT
  1
CONTENTFORMAT_BEGIN
 90
        0
 91
        0
 92
        4
 93
        0
300

 40
0.0
140
1.0
 94
        5
 62
     0
340
F
144
6.0
309
CONTENTFORMAT_END
171
     1
301
MARGIN
  1
CELLMARGIN_BEGIN
 40
1.5
 40
1.5
 40
1.5
 40
1.5
 40
1.5
 40
1.5
309
CELLMARGIN_END
 94
        6
 95
        1
302
GRIDFORMAT
  1
GRIDFORMAT_BEGIN
 90
        0
 91
        1
 62
     0
 92
       -2
340
12
 93
        0
 40
0.045
309
GRIDFORMAT_END
 95
        2
302
GRIDFORMAT
  1
GRIDFORMAT_BEGIN
 90
        0
 91
        1
 62
     0
 92
       -2
340
12
 93
        0
 40
0.045
309
GRIDFORMAT_END
 95
        4
302
GRIDFORMAT
  1
GRIDFORMAT_BEGIN
 90
        0
 91
        1
 62
     0
 92
       -2
340
12
 93
        0
 40
0.045
309
GRIDFORMAT_END
 95
        8
302
GRIDFORMAT
  1
GRIDFORMAT_BEGIN
 90
        0
 91
        1
 62
     0
 92
       -2
340
12
 93
        0
 40
0.045
309
GRIDFORMAT_END
 95
       16
302
GRIDFORMAT
  1
GRIDFORMAT_BEGIN
 90
        0
 91
        1
 62
     0
 92
       -2
340
12
 93
        0
 40
0.045
309
GRIDFORMAT_END
 95
       32
302
GRIDFORMAT
  1
GRIDFORMAT_BEGIN
 90
        0
 91
        1
 62
     0
 92
       -2
340
12
 93
        0
 40
0.045
309
GRIDFORMAT_END
309
TABLEFORMAT_END
  1
CELLSTYLE_BEGIN
 90
        1
 91
        1
300
_TITLE
309
CELLSTYLE_END
300
CELLSTYLE
  1
TABLEFORMAT_BEGIN
 90
        5
170
     1
 91
        0
 92
        0
 62
   257
 93
        1
300
CONTENTFORMAT
  1
CONTENTFORMAT_BEGIN
 90
        0
 91
        0
 92
        4
 93
        0
300

 40
0.0
140
1.0
 94
        5
 62
     0
340
F
144
4.5
309
CONTENTFORMAT_END
171
     1
301
MARGIN
  1
CELLMARGIN_BEGIN
 40
1.5
 40
1.5
 40
1.5
 40
1.5
 40
1.5
 40
1.5
309
CELLMARGIN_END
 94
        6
 95
        1
302
GRIDFORMAT
  1
GRIDFORMAT_BEGIN
 90
        0
 91
        1
 62
     0
 92
       -2
340
12
 93
        0
 40
0.045
309
GRIDFORMAT_END
 95
        2
302
GRIDFORMAT
  1
GRIDFORMAT_BEGIN
 90
        0
 91
        1
 62
     0
 92
       -2
340
12
 93
        0
 40
0.045
309
GRIDFORMAT_END
 95
        4
302
GRIDFORMAT
  1
GRIDFORMAT_BEGIN
 90
        0
 91
        1
 62
     0
 92
       -2
340
12
 93
        0
 40
0.045
309
GRIDFORMAT_END
 95
        8
302
GRIDFORMAT
  1
GRIDFORMAT_BEGIN
 90
        0
 91
        1
 62
     0
 92
       -2
340
12
 93
        0
 40
0.045
309
GRIDFORMAT_END
 95
       16
302
GRIDFORMAT
  1
GRIDFORMAT_BEGIN
 90
        0
 91
        1
 62
     0
 92
       -2
340
12
 93
        0
 40
0.045
309
GRIDFORMAT_END
 95
       32
302
GRIDFORMAT
  1
GRIDFORMAT_BEGIN
 90
        0
 91
        1
 62
     0
 92
       -2
340
12
 93
        0
 40
0.045
309
GRIDFORMAT_END
309
TABLEFORMAT_END
  1
CELLSTYLE_BEGIN
 90
        2
 91
        1
300
_HEADER
309
CELLSTYLE_END
300
CELLSTYLE
  1
TABLEFORMAT_BEGIN
 90
        5
170
     1
 91
        0
 92
        0
 62
   257
 93
        1
300
CONTENTFORMAT
  1
CONTENTFORMAT_BEGIN
 90
        0
 91
        0
 92
        4
 93
        0
300

 40
0.0
140
1.0
 94
        2
 62
     0
340
F
144
4.5
309
CONTENTFORMAT_END
171
     1
301
MARGIN
  1
CELLMARGIN_BEGIN
 40
1.5
 40
1.5
 40
1.5
 40
1.5
 40
1.5
 40
1.5
309
CELLMARGIN_END
 94
        6
 95
        1
302
GRIDFORMAT
  1
GRIDFORMAT_BEGIN
 90
        0
 91
        1
 62
     0
 92
       -2
340
12
 93
        0
 40
0.045
309
GRIDFORMAT_END
 95
        2
302
GRIDFORMAT
  1
GRIDFORMAT_BEGIN
 90
        0
 91
        1
 62
     0
 92
       -2
340
12
 93
        0
 40
0.045
309
GRIDFORMAT_END
 95
        4
302
GRIDFORMAT
  1
GRIDFORMAT_BEGIN
 90
        0
 91
        1
 62
     0
 92
       -2
340
12
 93
        0
 40
0.045
309
GRIDFORMAT_END
 95
        8
302
GRIDFORMAT
  1
GRIDFORMAT_BEGIN
 90
        0
 91
        1
 62
     0
 92
       -2
340
12
 93
        0
 40
0.045
309
GRIDFORMAT_END
 95
       16
302
GRIDFORMAT
  1
GRIDFORMAT_BEGIN
 90
        0
 91
        1
 62
     0
 92
       -2
340
12
 93
        0
 40
0.045
309
GRIDFORMAT_END
 95
       32
302
GRIDFORMAT
  1
GRIDFORMAT_BEGIN
 90
        0
 91
        1
 62
     0
 92
       -2
340
12
 93
        0
 40
0.045
309
GRIDFORMAT_END
309
TABLEFORMAT_END
  1
CELLSTYLE_BEGIN
 90
        3
 91
        2
300
_DATA
309
CELLSTYLE_END
  0
XRECORD
  5
1DBB
102
{ACAD_REACTORS
330
1DBA
102
}
330
1DBA
100
AcDbXrecord
280
     1
102
RTVSPropertyOp0
 70
     1
102
RTVSPropertyOp1
 70
     1
102
RTVSPropertyOp2
 70
     1
102
RTVSPropertyOp3
 70
     1
102
RTVSPropertyOp4
 70
     1
102
RTVSPropertyOp5
 70
     1
102
RTVSPropertyOp6
 70
     1
102
RTVSPropertyOp7
 70
     1
102
RTVSPropertyOp8
 70
     1
102
RTVSPropertyOp9
 70
     1
102
RTVSPropertyOp10
 70
     1
102
RTVSPropertyOp11
 70
     1
102
RTVSPropertyOp12
 70
     1
102
RTVSPropertyOp13
 70
     1
102
RTVSPropertyOp14
 70
     1
102
RTVSPropertyOp15
 70
     1
102
RTVSPropertyOp16
 70
     1
102
RTVSPropertyOp17
 70
     1
102
RTVSPropertyOp18
 70
     1
102
RTVSPropertyOp19
 70
     1
102
RTVSPropertyOp20
 70
     1
102
RTVSPropertyOp21
 70
     1
102
RTVSPropertyOp22
 70
     1
102
RTVSPropertyOp23
 70
     1
102
RTVSPropertyOp24
 70
     1
102
RTVSPropertyOp25
 70
     1
102
RTVSPropertyOp26
 70
     1
102
RTVSPropertyOp27
 70
     1
102
RTVSPropertyOp28
 70
     1
102
RTVSPropertyOp29
 70
     1
102
RTVSPropertyOp30
 70
     1
102
RTVSPropertyOp31
 70
     1
102
RTVSPropertyOp32
 70
     1
102
RTVSPropertyOp33
 70
     1
102
RTVSPropertyOp34
 70
     1
102
RTVSPropertyOp35
 70
     1
102
RTVSPropertyOp36
 70
     1
102
RTVSPropertyOp37
 70
     1
102
RTVSPropertyOp38
 70
     1
102
RTVSPropertyOp39
 70
     1
102
RTVSPropertyOp40
 70
     1
102
RTVSPropertyOp41
 70
     1
102
RTVSPropertyOp42
 70
     1
102
RTVSPropertyOp43
 70
     1
102
RTVSPropertyOp44
 70
     1
102
RTVSPropertyOp45
 70
     1
102
RTVSPropertyOp46
 70
     1
102
RTVSPropertyOp47
 70
     1
102
RTVSPropertyOp48
 70
     1
102
RTVSPropertyOp49
 70
     1
102
RTVSPropertyOp50
 70
     1
102
RTVSPropertyOp51
 70
     0
102
RTVSPropertyOp52
 70
     0
102
RTVSPropertyOp53
 70
     1
102
RTVSPropertyOp54
 70
     1
102
RTVSPropertyOp55
 70
     1
102
RTVSPropertyOp56
 70
     1
102
RTVSPropertyOp57
 70
     1
102
RTVSPost2010Prop28
280
     1
102
RTVSPost2010PropOp28
 70
     1
102
RTVSPost2010Prop29
280
     1
102
RTVSPost2010PropOp29
 70
     1
102
RTVSPost2010Prop30
280
     0
102
RTVSPost2010PropOp30
 70
     1
102
RTVSPost2010Prop31
280
     0
102
RTVSPost2010PropOp31
 70
     1
102
RTVSPost2010Prop32
280
     0
102
RTVSPost2010PropOp32
 70
     1
102
RTVSPost2010Prop33
280
     0
102
RTVSPost2010PropOp33
 70
     1
102
RTVSPost2010Prop34
280
     0
102
RTVSPost2010PropOp34
 70
     1
102
RTVSPost2010Prop35
280
     0
102
RTVSPost2010PropOp35
 70
     1
102
RTVSPost2010Prop36
280
     0
102
RTVSPost2010PropOp36
 70
     1
102
RTVSPost2010Prop37
 90
       50
102
RTVSPost2010PropOp37
 70
     1
102
RTVSPost2010Prop38
140
0.0
102
RTVSPost2010PropOp38
 70
     1
102
RTVSPost2010Prop39
140
1.0
102
RTVSPost2010PropOp39
 70
     1
102
RTVSPost2010Prop40
 90
        0
102
RTVSPost2010PropOp40
 70
     1
102
RTVSPost2010Prop41ColorIndex
 90
       18
102
RTVSPost2010Prop41ColorRGB
 90
        0
102
RTVSPost2010PropOp41
 70
     1
102
RTVSPost2010Prop42
 90
       50
102
RTVSPost2010PropOp42
 70
     1
102
RTVSPost2010Prop43
 90
        3
102
RTVSPost2010PropOp43
 70
     1
102
RTVSPost2010Prop44ColorIndex
 90
        5
102
RTVSPost2010Prop44ColorRGB
 90
      255
102
RTVSPost2010PropOp44
 70
     1
102
RTVSPost2010Prop45
280
     0
102
RTVSPost2010PropOp45
 70
     1
102
RTVSPost2010Prop46
 90
       50
102
RTVSPost2010PropOp46
 70
     1
102
RTVSPost2010Prop47
 90
       50
102
RTVSPost2010PropOp47
 70
     1
102
RTVSPost2010Prop48
 90
       50
102
RTVSPost2010PropOp48
 70
     1
102
RTVSPost2010Prop49
280
     0
102
RTVSPost2010PropOp49
 70
     1
102
RTVSPost2010Prop50
 90
       50
102
RTVSPost2010PropOp50
 70
     1
102
RTVSPost2010Prop51ColorIndex
 90
      256
102
RTVSPost2010Prop51ColorRGB
 90
-16777216
102
RTVSPost2010PropOp51
 70
     0
102
RTVSPost2010Prop52
140
1.0
102
RTVSPost2010PropOp52
 70
     0
102
RTVSPost2010Prop53
 90
        2
102
RTVSPost2010PropOp53
 70
     1
102
RTVSPost2010Prop54
  1
strokes_ogs.tif
102
RTVSPost2010PropOp54
 70
     1
102
RTVSPost2010Prop55
280
     0
102
RTVSPost2010PropOp55
 70
     1
102
RTVSPost2010Prop56
140
1.0
102
RTVSPost2010PropOp56
 70
     1
102
RTVSPost2010Prop57
140
1.0
102
RTVSPost2010PropOp57
 70
     1
  0
XRECORD
  5
1DC1
102
{ACAD_REACTORS
330
1DC0
102
}
330
1DC0
100
AcDbXrecord
280
     1
102
RTVSPropertyOp0
 70
     1
102
RTVSPropertyOp1
 70
     1
102
RTVSPropertyOp2
 70
     1
102
RTVSPropertyOp3
 70
     1
102
RTVSPropertyOp4
 70
     1
102
RTVSPropertyOp5
 70
     1
102
RTVSPropertyOp6
 70
     1
102
RTVSPropertyOp7
 70
     1
102
RTVSPropertyOp8
 70
     1
102
RTVSPropertyOp9
 70
     1
102
RTVSPropertyOp10
 70
     1
102
RTVSPropertyOp11
 70
     1
102
RTVSPropertyOp12
 70
     1
102
RTVSPropertyOp13
 70
     1
102
RTVSPropertyOp14
 70
     1
102
RTVSPropertyOp15
 70
     1
102
RTVSPropertyOp16
 70
     1
102
RTVSPropertyOp17
 70
     1
102
RTVSPropertyOp18
 70
     1
102
RTVSPropertyOp19
 70
     1
102
RTVSPropertyOp20
 70
     1
102
RTVSPropertyOp21
 70
     1
102
RTVSPropertyOp22
 70
     1
102
RTVSPropertyOp23
 70
     1
102
RTVSPropertyOp24
 70
     1
102
RTVSPropertyOp25
 70
     1
102
RTVSPropertyOp26
 70
     1
102
RTVSPropertyOp27
 70
     1
102
RTVSPropertyOp28
 70
     1
102
RTVSPropertyOp29
 70
     1
102
RTVSPropertyOp30
 70
     1
102
RTVSPropertyOp31
 70
     1
102
RTVSPropertyOp32
 70
     1
102
RTVSPropertyOp33
 70
     1
102
RTVSPropertyOp34
 70
     1
102
RTVSPropertyOp35
 70
     1
102
RTVSPropertyOp36
 70
     1
102
RTVSPropertyOp37
 70
     1
102
RTVSPropertyOp38
 70
     1
102
RTVSPropertyOp39
 70
     1
102
RTVSPropertyOp40
 70
     1
102
RTVSPropertyOp41
 70
     1
102
RTVSPropertyOp42
 70
     1
102
RTVSPropertyOp43
 70
     1
102
RTVSPropertyOp44
 70
     1
102
RTVSPropertyOp45
 70
     1
102
RTVSPropertyOp46
 70
     1
102
RTVSPropertyOp47
 70
     1
102
RTVSPropertyOp48
 70
     1
102
RTVSPropertyOp49
 70
     1
102
RTVSPropertyOp50
 70
     1
102
RTVSPropertyOp51
 70
     0
102
RTVSPropertyOp52
 70
     0
102
RTVSPropertyOp53
 70
     1
102
RTVSPropertyOp54
 70
     1
102
RTVSPropertyOp55
 70
     1
102
RTVSPropertyOp56
 70
     1
102
RTVSPropertyOp57
 70
     1
102
RTVSPost2010Prop28
280
     0
102
RTVSPost2010PropOp28
 70
     1
102
RTVSPost2010Prop29
280
     1
102
RTVSPost2010PropOp29
 70
     1
102
RTVSPost2010Prop30
280
     1
102
RTVSPost2010PropOp30
 70
     1
102
RTVSPost2010Prop31
280
     0
102
RTVSPost2010PropOp31
 70
     1
102
RTVSPost2010Prop32
280
     0
102
RTVSPost2010PropOp32
 70
     1
102
RTVSPost2010Prop33
280
     0
102
RTVSPost2010PropOp33
 70
     1
102
RTVSPost2010Prop34
280
     0
102
RTVSPost2010PropOp34
 70
     1
102
RTVSPost2010Prop35
280
     0
102
RTVSPost2010PropOp35
 70
     1
102
RTVSPost2010Prop36
280
     0
102
RTVSPost2010PropOp36
 70
     1
102
RTVSPost2010Prop37
 90
       50
102
RTVSPost2010PropOp37
 70
     1
102
RTVSPost2010Prop38
140
0.0
102
RTVSPost2010PropOp38
 70
     1
102
RTVSPost2010Prop39
140
1.0
102
RTVSPost2010PropOp39
 70
     1
102
RTVSPost2010Prop40
 90
        0
102
RTVSPost2010PropOp40
 70
     1
102
RTVSPost2010Prop41ColorIndex
 90
       18
102
RTVSPost2010Prop41ColorRGB
 90
        0
102
RTVSPost2010PropOp41
 70
     1
102
RTVSPost2010Prop42
 90
       50
102
RTVSPost2010PropOp42
 70
     1
102
RTVSPost2010Prop43
 90
        3
102
RTVSPost2010PropOp43
 70
     1
102
RTVSPost2010Prop44ColorIndex
 90
        5
102
RTVSPost2010Prop44ColorRGB
 90
      255
102
RTVSPost2010PropOp44
 70
     1
102
RTVSPost2010Prop45
280
     0
102
RTVSPost2010PropOp45
 70
     1
102
RTVSPost2010Prop46
 90
       50
102
RTVSPost2010PropOp46
 70
     1
102
RTVSPost2010Prop47
 90
       50
102
RTVSPost2010PropOp47
 70
     1
102
RTVSPost2010Prop48
 90
       50
102
RTVSPost2010PropOp48
 70
     1
102
RTVSPost2010Prop49
280
     0
102
RTVSPost2010PropOp49
 70
     1
102
RTVSPost2010Prop50
 90
       50
102
RTVSPost2010PropOp50
 70
     1
102
RTVSPost2010Prop51ColorIndex
 90
      256
102
RTVSPost2010Prop51ColorRGB
 90
-16777216
102
RTVSPost2010PropOp51
 70
     0
102
RTVSPost2010Prop52
140
1.0
102
RTVSPost2010PropOp52
 70
     0
102
RTVSPost2010Prop53
 90
        2
102
RTVSPost2010PropOp53
 70
     1
102
RTVSPost2010Prop54
  1
strokes_ogs.tif
102
RTVSPost2010PropOp54
 70
     1
102
RTVSPost2010Prop55
280
     0
102
RTVSPost2010PropOp55
 70
     1
102
RTVSPost2010Prop56
140
1.0
102
RTVSPost2010PropOp56
 70
     1
102
RTVSPost2010Prop57
140
1.0
102
RTVSPost2010PropOp57
 70
     1
  0
XRECORD
  5
1DC9
102
{ACAD_REACTORS
330
1DC8
102
}
330
1DC8
100
AcDbXrecord
280
     1
102
RTVSPropertyOp0
 70
     1
102
RTVSPropertyOp1
 70
     1
102
RTVSPropertyOp2
 70
     1
102
RTVSPropertyOp3
 70
     1
102
RTVSPropertyOp4
 70
     1
102
RTVSPropertyOp5
 70
     1
102
RTVSPropertyOp6
 70
     1
102
RTVSPropertyOp7
 70
     1
102
RTVSPropertyOp8
 70
     1
102
RTVSPropertyOp9
 70
     1
102
RTVSPropertyOp10
 70
     1
102
RTVSPropertyOp11
 70
     1
102
RTVSPropertyOp12
 70
     1
102
RTVSPropertyOp13
 70
     1
102
RTVSPropertyOp14
 70
     1
102
RTVSPropertyOp15
 70
     1
102
RTVSPropertyOp16
 70
     1
102
RTVSPropertyOp17
 70
     1
102
RTVSPropertyOp18
 70
     1
102
RTVSPropertyOp19
 70
     1
102
RTVSPropertyOp20
 70
     1
102
RTVSPropertyOp21
 70
     1
102
RTVSPropertyOp22
 70
     1
102
RTVSPropertyOp23
 70
     1
102
RTVSPropertyOp24
 70
     1
102
RTVSPropertyOp25
 70
     1
102
RTVSPropertyOp26
 70
     1
102
RTVSPropertyOp27
 70
     1
102
RTVSPropertyOp28
 70
     1
102
RTVSPropertyOp29
 70
     1
102
RTVSPropertyOp30
 70
     1
102
RTVSPropertyOp31
 70
     1
102
RTVSPropertyOp32
 70
     1
102
RTVSPropertyOp33
 70
     1
102
RTVSPropertyOp34
 70
     1
102
RTVSPropertyOp35
 70
     1
102
RTVSPropertyOp36
 70
     1
102
RTVSPropertyOp37
 70
     1
102
RTVSPropertyOp38
 70
     1
102
RTVSPropertyOp39
 70
     1
102
RTVSPropertyOp40
 70
     1
102
RTVSPropertyOp41
 70
     1
102
RTVSPropertyOp42
 70
     1
102
RTVSPropertyOp43
 70
     1
102
RTVSPropertyOp44
 70
     1
102
RTVSPropertyOp45
 70
     1
102
RTVSPropertyOp46
 70
     1
102
RTVSPropertyOp47
 70
     1
102
RTVSPropertyOp48
 70
     1
102
RTVSPropertyOp49
 70
     1
102
RTVSPropertyOp50
 70
     1
102
RTVSPropertyOp51
 70
     0
102
RTVSPropertyOp52
 70
     0
102
RTVSPropertyOp53
 70
     1
102
RTVSPropertyOp54
 70
     1
102
RTVSPropertyOp55
 70
     1
102
RTVSPropertyOp56
 70
     1
102
RTVSPropertyOp57
 70
     1
102
RTVSPost2010Prop28
280
     0
102
RTVSPost2010PropOp28
 70
     1
102
RTVSPost2010Prop29
280
     1
102
RTVSPost2010PropOp29
 70
     1
102
RTVSPost2010Prop30
280
     1
102
RTVSPost2010PropOp30
 70
     1
102
RTVSPost2010Prop31
280
     0
102
RTVSPost2010PropOp31
 70
     1
102
RTVSPost2010Prop32
280
     0
102
RTVSPost2010PropOp32
 70
     1
102
RTVSPost2010Prop33
280
     0
102
RTVSPost2010PropOp33
 70
     1
102
RTVSPost2010Prop34
280
     0
102
RTVSPost2010PropOp34
 70
     1
102
RTVSPost2010Prop35
280
     0
102
RTVSPost2010PropOp35
 70
     1
102
RTVSPost2010Prop36
280
     0
102
RTVSPost2010PropOp36
 70
     1
102
RTVSPost2010Prop37
 90
       50
102
RTVSPost2010PropOp37
 70
     1
102
RTVSPost2010Prop38
140
0.0
102
RTVSPost2010PropOp38
 70
     1
102
RTVSPost2010Prop39
140
1.0
102
RTVSPost2010PropOp39
 70
     1
102
RTVSPost2010Prop40
 90
        0
102
RTVSPost2010PropOp40
 70
     1
102
RTVSPost2010Prop41ColorIndex
 90
       18
102
RTVSPost2010Prop41ColorRGB
 90
        0
102
RTVSPost2010PropOp41
 70
     1
102
RTVSPost2010Prop42
 90
       50
102
RTVSPost2010PropOp42
 70
     1
102
RTVSPost2010Prop43
 90
        3
102
RTVSPost2010PropOp43
 70
     1
102
RTVSPost2010Prop44ColorIndex
 90
        5
102
RTVSPost2010Prop44ColorRGB
 90
      255
102
RTVSPost2010PropOp44
 70
     1
102
RTVSPost2010Prop45
280
     0
102
RTVSPost2010PropOp45
 70
     1
102
RTVSPost2010Prop46
 90
       50
102
RTVSPost2010PropOp46
 70
     1
102
RTVSPost2010Prop47
 90
       50
102
RTVSPost2010PropOp47
 70
     1
102
RTVSPost2010Prop48
 90
       50
102
RTVSPost2010PropOp48
 70
     1
102
RTVSPost2010Prop49
280
     0
102
RTVSPost2010PropOp49
 70
     1
102
RTVSPost2010Prop50
 90
       50
102
RTVSPost2010PropOp50
 70
     1
102
RTVSPost2010Prop51ColorIndex
 90
      256
102
RTVSPost2010Prop51ColorRGB
 90
-16777216
102
RTVSPost2010PropOp51
 70
     0
102
RTVSPost2010Prop52
140
1.0
102
RTVSPost2010PropOp52
 70
     0
102
RTVSPost2010Prop53
 90
        2
102
RTVSPost2010PropOp53
 70
     1
102
RTVSPost2010Prop54
  1
strokes_ogs.tif
102
RTVSPost2010PropOp54
 70
     1
102
RTVSPost2010Prop55
280
     0
102
RTVSPost2010PropOp55
 70
     1
102
RTVSPost2010Prop56
140
1.0
102
RTVSPost2010PropOp56
 70
     1
102
RTVSPost2010Prop57
140
1.0
102
RTVSPost2010PropOp57
 70
     1
  0
XRECORD
  5
1DD1
102
{ACAD_REACTORS
330
1DD0
102
}
330
1DD0
100
AcDbXrecord
280
     1
102
RTVSPropertyOp0
 70
     1
102
RTVSPropertyOp1
 70
     1
102
RTVSPropertyOp2
 70
     1
102
RTVSPropertyOp3
 70
     1
102
RTVSPropertyOp4
 70
     1
102
RTVSPropertyOp5
 70
     1
102
RTVSPropertyOp6
 70
     1
102
RTVSPropertyOp7
 70
     1
102
RTVSPropertyOp8
 70
     1
102
RTVSPropertyOp9
 70
     1
102
RTVSPropertyOp10
 70
     1
102
RTVSPropertyOp11
 70
     1
102
RTVSPropertyOp12
 70
     1
102
RTVSPropertyOp13
 70
     1
102
RTVSPropertyOp14
 70
     1
102
RTVSPropertyOp15
 70
     1
102
RTVSPropertyOp16
 70
     1
102
RTVSPropertyOp17
 70
     1
102
RTVSPropertyOp18
 70
     1
102
RTVSPropertyOp19
 70
     1
102
RTVSPropertyOp20
 70
     1
102
RTVSPropertyOp21
 70
     1
102
RTVSPropertyOp22
 70
     1
102
RTVSPropertyOp23
 70
     1
102
RTVSPropertyOp24
 70
     1
102
RTVSPropertyOp25
 70
     1
102
RTVSPropertyOp26
 70
     1
102
RTVSPropertyOp27
 70
     1
102
RTVSPropertyOp28
 70
     1
102
RTVSPropertyOp29
 70
     1
102
RTVSPropertyOp30
 70
     1
102
RTVSPropertyOp31
 70
     1
102
RTVSPropertyOp32
 70
     1
102
RTVSPropertyOp33
 70
     1
102
RTVSPropertyOp34
 70
     1
102
RTVSPropertyOp35
 70
     1
102
RTVSPropertyOp36
 70
     1
102
RTVSPropertyOp37
 70
     1
102
RTVSPropertyOp38
 70
     1
102
RTVSPropertyOp39
 70
     1
102
RTVSPropertyOp40
 70
     1
102
RTVSPropertyOp41
 70
     1
102
RTVSPropertyOp42
 70
     1
102
RTVSPropertyOp43
 70
     1
102
RTVSPropertyOp44
 70
     1
102
RTVSPropertyOp45
 70
     1
102
RTVSPropertyOp46
 70
     1
102
RTVSPropertyOp47
 70
     1
102
RTVSPropertyOp48
 70
     1
102
RTVSPropertyOp49
 70
     1
102
RTVSPropertyOp50
 70
     1
102
RTVSPropertyOp51
 70
     0
102
RTVSPropertyOp52
 70
     0
102
RTVSPropertyOp53
 70
     1
102
RTVSPropertyOp54
 70
     1
102
RTVSPropertyOp55
 70
     1
102
RTVSPropertyOp56
 70
     1
102
RTVSPropertyOp57
 70
     1
102
RTVSPost2010Prop28
280
     0
102
RTVSPost2010PropOp28
 70
     1
102
RTVSPost2010Prop29
280
     1
102
RTVSPost2010PropOp29
 70
     1
102
RTVSPost2010Prop30
280
     1
102
RTVSPost2010PropOp30
 70
     1
102
RTVSPost2010Prop31
280
     0
102
RTVSPost2010PropOp31
 70
     1
102
RTVSPost2010Prop32
280
     0
102
RTVSPost2010PropOp32
 70
     1
102
RTVSPost2010Prop33
280
     0
102
RTVSPost2010PropOp33
 70
     1
102
RTVSPost2010Prop34
280
     0
102
RTVSPost2010PropOp34
 70
     1
102
RTVSPost2010Prop35
280
     0
102
RTVSPost2010PropOp35
 70
     1
102
RTVSPost2010Prop36
280
     0
102
RTVSPost2010PropOp36
 70
     1
102
RTVSPost2010Prop37
 90
       50
102
RTVSPost2010PropOp37
 70
     1
102
RTVSPost2010Prop38
140
0.0
102
RTVSPost2010PropOp38
 70
     1
102
RTVSPost2010Prop39
140
1.0
102
RTVSPost2010PropOp39
 70
     1
102
RTVSPost2010Prop40
 90
        0
102
RTVSPost2010PropOp40
 70
     1
102
RTVSPost2010Prop41ColorIndex
 90
       18
102
RTVSPost2010Prop41ColorRGB
 90
        0
102
RTVSPost2010PropOp41
 70
     1
102
RTVSPost2010Prop42
 90
       50
102
RTVSPost2010PropOp42
 70
     1
102
RTVSPost2010Prop43
 90
        3
102
RTVSPost2010PropOp43
 70
     1
102
RTVSPost2010Prop44ColorIndex
 90
        5
102
RTVSPost2010Prop44ColorRGB
 90
      255
102
RTVSPost2010PropOp44
 70
     1
102
RTVSPost2010Prop45
280
     0
102
RTVSPost2010PropOp45
 70
     1
102
RTVSPost2010Prop46
 90
       50
102
RTVSPost2010PropOp46
 70
     1
102
RTVSPost2010Prop47
 90
       50
102
RTVSPost2010PropOp47
 70
     1
102
RTVSPost2010Prop48
 90
       50
102
RTVSPost2010PropOp48
 70
     1
102
RTVSPost2010Prop49
280
     0
102
RTVSPost2010PropOp49
 70
     1
102
RTVSPost2010Prop50
 90
       50
102
RTVSPost2010PropOp50
 70
     1
102
RTVSPost2010Prop51ColorIndex
 90
      256
102
RTVSPost2010Prop51ColorRGB
 90
-16777216
102
RTVSPost2010PropOp51
 70
     0
102
RTVSPost2010Prop52
140
1.0
102
RTVSPost2010PropOp52
 70
     0
102
RTVSPost2010Prop53
 90
        2
102
RTVSPost2010PropOp53
 70
     1
102
RTVSPost2010Prop54
  1
strokes_ogs.tif
102
RTVSPost2010PropOp54
 70
     1
102
RTVSPost2010Prop55
280
     0
102
RTVSPost2010PropOp55
 70
     1
102
RTVSPost2010Prop56
140
1.0
102
RTVSPost2010PropOp56
 70
     1
102
RTVSPost2010Prop57
140
1.0
102
RTVSPost2010PropOp57
 70
     1
  0
XRECORD
  5
1DC5
102
{ACAD_REACTORS
330
1DC4
102
}
330
1DC4
100
AcDbXrecord
280
     1
102
RTVSPropertyOp0
 70
     1
102
RTVSPropertyOp1
 70
     1
102
RTVSPropertyOp2
 70
     1
102
RTVSPropertyOp3
 70
     1
102
RTVSPropertyOp4
 70
     1
102
RTVSPropertyOp5
 70
     1
102
RTVSPropertyOp6
 70
     1
102
RTVSPropertyOp7
 70
     1
102
RTVSPropertyOp8
 70
     1
102
RTVSPropertyOp9
 70
     1
102
RTVSPropertyOp10
 70
     1
102
RTVSPropertyOp11
 70
     1
102
RTVSPropertyOp12
 70
     1
102
RTVSPropertyOp13
 70
     1
102
RTVSPropertyOp14
 70
     1
102
RTVSPropertyOp15
 70
     1
102
RTVSPropertyOp16
 70
     1
102
RTVSPropertyOp17
 70
     1
102
RTVSPropertyOp18
 70
     1
102
RTVSPropertyOp19
 70
     1
102
RTVSPropertyOp20
 70
     1
102
RTVSPropertyOp21
 70
     1
102
RTVSPropertyOp22
 70
     1
102
RTVSPropertyOp23
 70
     1
102
RTVSPropertyOp24
 70
     1
102
RTVSPropertyOp25
 70
     1
102
RTVSPropertyOp26
 70
     1
102
RTVSPropertyOp27
 70
     1
102
RTVSPropertyOp28
 70
     1
102
RTVSPropertyOp29
 70
     1
102
RTVSPropertyOp30
 70
     1
102
RTVSPropertyOp31
 70
     1
102
RTVSPropertyOp32
 70
     1
102
RTVSPropertyOp33
 70
     1
102
RTVSPropertyOp34
 70
     1
102
RTVSPropertyOp35
 70
     1
102
RTVSPropertyOp36
 70
     1
102
RTVSPropertyOp37
 70
     1
102
RTVSPropertyOp38
 70
     1
102
RTVSPropertyOp39
 70
     1
102
RTVSPropertyOp40
 70
     1
102
RTVSPropertyOp41
 70
     1
102
RTVSPropertyOp42
 70
     1
102
RTVSPropertyOp43
 70
     1
102
RTVSPropertyOp44
 70
     1
102
RTVSPropertyOp45
 70
     1
102
RTVSPropertyOp46
 70
     1
102
RTVSPropertyOp47
 70
     1
102
RTVSPropertyOp48
 70
     1
102
RTVSPropertyOp49
 70
     1
102
RTVSPropertyOp50
 70
     1
102
RTVSPropertyOp51
 70
     0
102
RTVSPropertyOp52
 70
     0
102
RTVSPropertyOp53
 70
     1
102
RTVSPropertyOp54
 70
     1
102
RTVSPropertyOp55
 70
     1
102
RTVSPropertyOp56
 70
     1
102
RTVSPropertyOp57
 70
     1
102
RTVSPost2010Prop28
280
     0
102
RTVSPost2010PropOp28
 70
     1
102
RTVSPost2010Prop29
280
     1
102
RTVSPost2010PropOp29
 70
     1
102
RTVSPost2010Prop30
280
     1
102
RTVSPost2010PropOp30
 70
     1
102
RTVSPost2010Prop31
280
     0
102
RTVSPost2010PropOp31
 70
     1
102
RTVSPost2010Prop32
280
     0
102
RTVSPost2010PropOp32
 70
     1
102
RTVSPost2010Prop33
280
     0
102
RTVSPost2010PropOp33
 70
     1
102
RTVSPost2010Prop34
280
     0
102
RTVSPost2010PropOp34
 70
     1
102
RTVSPost2010Prop35
280
     0
102
RTVSPost2010PropOp35
 70
     1
102
RTVSPost2010Prop36
280
     0
102
RTVSPost2010PropOp36
 70
     1
102
RTVSPost2010Prop37
 90
       50
102
RTVSPost2010PropOp37
 70
     1
102
RTVSPost2010Prop38
140
0.0
102
RTVSPost2010PropOp38
 70
     1
102
RTVSPost2010Prop39
140
1.0
102
RTVSPost2010PropOp39
 70
     1
102
RTVSPost2010Prop40
 90
        0
102
RTVSPost2010PropOp40
 70
     1
102
RTVSPost2010Prop41ColorIndex
 90
       18
102
RTVSPost2010Prop41ColorRGB
 90
        0
102
RTVSPost2010PropOp41
 70
     1
102
RTVSPost2010Prop42
 90
       50
102
RTVSPost2010PropOp42
 70
     1
102
RTVSPost2010Prop43
 90
        3
102
RTVSPost2010PropOp43
 70
     1
102
RTVSPost2010Prop44ColorIndex
 90
        5
102
RTVSPost2010Prop44ColorRGB
 90
      255
102
RTVSPost2010PropOp44
 70
     1
102
RTVSPost2010Prop45
280
     0
102
RTVSPost2010PropOp45
 70
     1
102
RTVSPost2010Prop46
 90
       50
102
RTVSPost2010PropOp46
 70
     1
102
RTVSPost2010Prop47
 90
       50
102
RTVSPost2010PropOp47
 70
     1
102
RTVSPost2010Prop48
 90
       50
102
RTVSPost2010PropOp48
 70
     1
102
RTVSPost2010Prop49
280
     0
102
RTVSPost2010PropOp49
 70
     1
102
RTVSPost2010Prop50
 90
       50
102
RTVSPost2010PropOp50
 70
     1
102
RTVSPost2010Prop51ColorIndex
 90
      256
102
RTVSPost2010Prop51ColorRGB
 90
-16777216
102
RTVSPost2010PropOp51
 70
     0
102
RTVSPost2010Prop52
140
1.0
102
RTVSPost2010PropOp52
 70
     0
102
RTVSPost2010Prop53
 90
        2
102
RTVSPost2010PropOp53
 70
     1
102
RTVSPost2010Prop54
  1
strokes_ogs.tif
102
RTVSPost2010PropOp54
 70
     1
102
RTVSPost2010Prop55
280
     0
102
RTVSPost2010PropOp55
 70
     1
102
RTVSPost2010Prop56
140
1.0
102
RTVSPost2010PropOp56
 70
     1
102
RTVSPost2010Prop57
140
1.0
102
RTVSPost2010PropOp57
 70
     1
  0
XRECORD
  5
1DC7
102
{ACAD_REACTORS
330
1DC6
102
}
330
1DC6
100
AcDbXrecord
280
     1
102
RTVSPropertyOp0
 70
     1
102
RTVSPropertyOp1
 70
     1
102
RTVSPropertyOp2
 70
     1
102
RTVSPropertyOp3
 70
     1
102
RTVSPropertyOp4
 70
     1
102
RTVSPropertyOp5
 70
     1
102
RTVSPropertyOp6
 70
     1
102
RTVSPropertyOp7
 70
     1
102
RTVSPropertyOp8
 70
     1
102
RTVSPropertyOp9
 70
     1
102
RTVSPropertyOp10
 70
     1
102
RTVSPropertyOp11
 70
     1
102
RTVSPropertyOp12
 70
     1
102
RTVSPropertyOp13
 70
     1
102
RTVSPropertyOp14
 70
     1
102
RTVSPropertyOp15
 70
     1
102
RTVSPropertyOp16
 70
     1
102
RTVSPropertyOp17
 70
     1
102
RTVSPropertyOp18
 70
     1
102
RTVSPropertyOp19
 70
     1
102
RTVSPropertyOp20
 70
     1
102
RTVSPropertyOp21
 70
     1
102
RTVSPropertyOp22
 70
     1
102
RTVSPropertyOp23
 70
     1
102
RTVSPropertyOp24
 70
     1
102
RTVSPropertyOp25
 70
     1
102
RTVSPropertyOp26
 70
     1
102
RTVSPropertyOp27
 70
     1
102
RTVSPropertyOp28
 70
     1
102
RTVSPropertyOp29
 70
     1
102
RTVSPropertyOp30
 70
     1
102
RTVSPropertyOp31
 70
     1
102
RTVSPropertyOp32
 70
     1
102
RTVSPropertyOp33
 70
     1
102
RTVSPropertyOp34
 70
     1
102
RTVSPropertyOp35
 70
     1
102
RTVSPropertyOp36
 70
     1
102
RTVSPropertyOp37
 70
     1
102
RTVSPropertyOp38
 70
     1
102
RTVSPropertyOp39
 70
     1
102
RTVSPropertyOp40
 70
     1
102
RTVSPropertyOp41
 70
     1
102
RTVSPropertyOp42
 70
     1
102
RTVSPropertyOp43
 70
     1
102
RTVSPropertyOp44
 70
     1
102
RTVSPropertyOp45
 70
     1
102
RTVSPropertyOp46
 70
     1
102
RTVSPropertyOp47
 70
     1
102
RTVSPropertyOp48
 70
     1
102
RTVSPropertyOp49
 70
     1
102
RTVSPropertyOp50
 70
     1
102
RTVSPropertyOp51
 70
     0
102
RTVSPropertyOp52
 70
     0
102
RTVSPropertyOp53
 70
     1
102
RTVSPropertyOp54
 70
     1
102
RTVSPropertyOp55
 70
     1
102
RTVSPropertyOp56
 70
     1
102
RTVSPropertyOp57
 70
     1
102
RTVSPost2010Prop28
280
     0
102
RTVSPost2010PropOp28
 70
     1
102
RTVSPost2010Prop29
280
     1
102
RTVSPost2010PropOp29
 70
     1
102
RTVSPost2010Prop30
280
     1
102
RTVSPost2010PropOp30
 70
     1
102
RTVSPost2010Prop31
280
     0
102
RTVSPost2010PropOp31
 70
     1
102
RTVSPost2010Prop32
280
     0
102
RTVSPost2010PropOp32
 70
     1
102
RTVSPost2010Prop33
280
     0
102
RTVSPost2010PropOp33
 70
     1
102
RTVSPost2010Prop34
280
     0
102
RTVSPost2010PropOp34
 70
     1
102
RTVSPost2010Prop35
280
     0
102
RTVSPost2010PropOp35
 70
     1
102
RTVSPost2010Prop36
280
     0
102
RTVSPost2010PropOp36
 70
     1
102
RTVSPost2010Prop37
 90
       50
102
RTVSPost2010PropOp37
 70
     1
102
RTVSPost2010Prop38
140
0.0
102
RTVSPost2010PropOp38
 70
     1
102
RTVSPost2010Prop39
140
1.0
102
RTVSPost2010PropOp39
 70
     1
102
RTVSPost2010Prop40
 90
        0
102
RTVSPost2010PropOp40
 70
     1
102
RTVSPost2010Prop41ColorIndex
 90
       18
102
RTVSPost2010Prop41ColorRGB
 90
        0
102
RTVSPost2010PropOp41
 70
     1
102
RTVSPost2010Prop42
 90
       50
102
RTVSPost2010PropOp42
 70
     1
102
RTVSPost2010Prop43
 90
        3
102
RTVSPost2010PropOp43
 70
     1
102
RTVSPost2010Prop44ColorIndex
 90
        5
102
RTVSPost2010Prop44ColorRGB
 90
      255
102
RTVSPost2010PropOp44
 70
     1
102
RTVSPost2010Prop45
280
     0
102
RTVSPost2010PropOp45
 70
     1
102
RTVSPost2010Prop46
 90
       50
102
RTVSPost2010PropOp46
 70
     1
102
RTVSPost2010Prop47
 90
       50
102
RTVSPost2010PropOp47
 70
     1
102
RTVSPost2010Prop48
 90
       50
102
RTVSPost2010PropOp48
 70
     1
102
RTVSPost2010Prop49
280
     0
102
RTVSPost2010PropOp49
 70
     1
102
RTVSPost2010Prop50
 90
       50
102
RTVSPost2010PropOp50
 70
     1
102
RTVSPost2010Prop51ColorIndex
 90
      256
102
RTVSPost2010Prop51ColorRGB
 90
-16777216
102
RTVSPost2010PropOp51
 70
     0
102
RTVSPost2010Prop52
140
1.0
102
RTVSPost2010PropOp52
 70
     0
102
RTVSPost2010Prop53
 90
        2
102
RTVSPost2010PropOp53
 70
     1
102
RTVSPost2010Prop54
  1
strokes_ogs.tif
102
RTVSPost2010PropOp54
 70
     1
102
RTVSPost2010Prop55
280
     0
102
RTVSPost2010PropOp55
 70
     1
102
RTVSPost2010Prop56
140
1.0
102
RTVSPost2010PropOp56
 70
     1
102
RTVSPost2010Prop57
140
1.0
102
RTVSPost2010PropOp57
 70
     1
  0
XRECORD
  5
1DD7
102
{ACAD_REACTORS
330
1DD6
102
}
330
1DD6
100
AcDbXrecord
280
     1
102
RTVSPropertyOp0
 70
     0
102
RTVSPropertyOp1
 70
     0
102
RTVSPropertyOp2
 70
     0
102
RTVSPropertyOp3
 70
     0
102
RTVSPropertyOp4
 70
     0
102
RTVSPropertyOp5
 70
     0
102
RTVSPropertyOp6
 70
     0
102
RTVSPropertyOp7
 70
     0
102
RTVSPropertyOp8
 70
     0
102
RTVSPropertyOp9
 70
     0
102
RTVSPropertyOp10
 70
     0
102
RTVSPropertyOp11
 70
     0
102
RTVSPropertyOp12
 70
     0
102
RTVSPropertyOp13
 70
     0
102
RTVSPropertyOp14
 70
     2
102
RTVSPropertyOp15
 70
     0
102
RTVSPropertyOp16
 70
     0
102
RTVSPropertyOp17
 70
     0
102
RTVSPropertyOp18
 70
     0
102
RTVSPropertyOp19
 70
     0
102
RTVSPropertyOp20
 70
     0
102
RTVSPropertyOp21
 70
     0
102
RTVSPropertyOp22
 70
     0
102
RTVSPropertyOp23
 70
     0
102
RTVSPropertyOp24
 70
     0
102
RTVSPropertyOp25
 70
     0
102
RTVSPropertyOp26
 70
     0
102
RTVSPropertyOp27
 70
     0
102
RTVSPropertyOp28
 70
     0
102
RTVSPropertyOp29
 70
     0
102
RTVSPropertyOp30
 70
     0
102
RTVSPropertyOp31
 70
     0
102
RTVSPropertyOp32
 70
     0
102
RTVSPropertyOp33
 70
     0
102
RTVSPropertyOp34
 70
     0
102
RTVSPropertyOp35
 70
     0
102
RTVSPropertyOp36
 70
     0
102
RTVSPropertyOp37
 70
     0
102
RTVSPropertyOp38
 70
     0
102
RTVSPropertyOp39
 70
     0
102
RTVSPropertyOp40
 70
     0
102
RTVSPropertyOp41
 70
     0
102
RTVSPropertyOp42
 70
     0
102
RTVSPropertyOp43
 70
     0
102
RTVSPropertyOp44
 70
     0
102
RTVSPropertyOp45
 70
     0
102
RTVSPropertyOp46
 70
     0
102
RTVSPropertyOp47
 70
     0
102
RTVSPropertyOp48
 70
     0
102
RTVSPropertyOp49
 70
     0
102
RTVSPropertyOp50
 70
     0
102
RTVSPropertyOp51
 70
     0
102
RTVSPropertyOp52
 70
     0
102
RTVSPropertyOp53
 70
     0
102
RTVSPropertyOp54
 70
     0
102
RTVSPropertyOp55
 70
     0
102
RTVSPropertyOp56
 70
     0
102
RTVSPropertyOp57
 70
     0
102
RTVSPost2010Prop28
280
     0
102
RTVSPost2010PropOp28
 70
     0
102
RTVSPost2010Prop29
280
     1
102
RTVSPost2010PropOp29
 70
     0
102
RTVSPost2010Prop30
280
     1
102
RTVSPost2010PropOp30
 70
     0
102
RTVSPost2010Prop31
280
     0
102
RTVSPost2010PropOp31
 70
     0
102
RTVSPost2010Prop32
280
     0
102
RTVSPost2010PropOp32
 70
     0
102
RTVSPost2010Prop33
280
     0
102
RTVSPost2010PropOp33
 70
     0
102
RTVSPost2010Prop34
280
     0
102
RTVSPost2010PropOp34
 70
     0
102
RTVSPost2010Prop35
280
     0
102
RTVSPost2010PropOp35
 70
     0
102
RTVSPost2010Prop36
280
     0
102
RTVSPost2010PropOp36
 70
     0
102
RTVSPost2010Prop37
 90
       50
102
RTVSPost2010PropOp37
 70
     0
102
RTVSPost2010Prop38
140
0.0
102
RTVSPost2010PropOp38
 70
     0
102
RTVSPost2010Prop39
140
1.0
102
RTVSPost2010PropOp39
 70
     0
102
RTVSPost2010Prop40
 90
        0
102
RTVSPost2010PropOp40
 70
     0
102
RTVSPost2010Prop41ColorIndex
 90
       18
102
RTVSPost2010Prop41ColorRGB
 90
        0
102
RTVSPost2010PropOp41
 70
     0
102
RTVSPost2010Prop42
 90
       50
102
RTVSPost2010PropOp42
 70
     0
102
RTVSPost2010Prop43
 90
        3
102
RTVSPost2010PropOp43
 70
     0
102
RTVSPost2010Prop44ColorIndex
 90
        5
102
RTVSPost2010Prop44ColorRGB
 90
      255
102
RTVSPost2010PropOp44
 70
     0
102
RTVSPost2010Prop45
280
     0
102
RTVSPost2010PropOp45
 70
     0
102
RTVSPost2010Prop46
 90
       50
102
RTVSPost2010PropOp46
 70
     0
102
RTVSPost2010Prop47
 90
       50
102
RTVSPost2010PropOp47
 70
     0
102
RTVSPost2010Prop48
 90
       50
102
RTVSPost2010PropOp48
 70
     0
102
RTVSPost2010Prop49
280
     0
102
RTVSPost2010PropOp49
 70
     0
102
RTVSPost2010Prop50
 90
       50
102
RTVSPost2010PropOp50
 70
     0
102
RTVSPost2010Prop51ColorIndex
 90
      256
102
RTVSPost2010Prop51ColorRGB
 90
-16777216
102
RTVSPost2010PropOp51
 70
     0
102
RTVSPost2010Prop52
140
1.0
102
RTVSPost2010PropOp52
 70
     0
102
RTVSPost2010Prop53
 90
        2
102
RTVSPost2010PropOp53
 70
     0
102
RTVSPost2010Prop54
  1
strokes_ogs.tif
102
RTVSPost2010PropOp54
 70
     0
102
RTVSPost2010Prop55
280
     0
102
RTVSPost2010PropOp55
 70
     0
102
RTVSPost2010Prop56
140
1.0
102
RTVSPost2010PropOp56
 70
     0
102
RTVSPost2010Prop57
140
1.0
102
RTVSPost2010PropOp57
 70
     0
  0
XRECORD
  5
1DCF
102
{ACAD_REACTORS
330
1DCE
102
}
330
1DCE
100
AcDbXrecord
280
     1
102
RTVSPropertyOp0
 70
     1
102
RTVSPropertyOp1
 70
     1
102
RTVSPropertyOp2
 70
     1
102
RTVSPropertyOp3
 70
     1
102
RTVSPropertyOp4
 70
     1
102
RTVSPropertyOp5
 70
     1
102
RTVSPropertyOp6
 70
     1
102
RTVSPropertyOp7
 70
     1
102
RTVSPropertyOp8
 70
     1
102
RTVSPropertyOp9
 70
     1
102
RTVSPropertyOp10
 70
     1
102
RTVSPropertyOp11
 70
     1
102
RTVSPropertyOp12
 70
     1
102
RTVSPropertyOp13
 70
     1
102
RTVSPropertyOp14
 70
     1
102
RTVSPropertyOp15
 70
     1
102
RTVSPropertyOp16
 70
     1
102
RTVSPropertyOp17
 70
     1
102
RTVSPropertyOp18
 70
     1
102
RTVSPropertyOp19
 70
     1
102
RTVSPropertyOp20
 70
     1
102
RTVSPropertyOp21
 70
     1
102
RTVSPropertyOp22
 70
     1
102
RTVSPropertyOp23
 70
     1
102
RTVSPropertyOp24
 70
     1
102
RTVSPropertyOp25
 70
     1
102
RTVSPropertyOp26
 70
     1
102
RTVSPropertyOp27
 70
     1
102
RTVSPropertyOp28
 70
     1
102
RTVSPropertyOp29
 70
     1
102
RTVSPropertyOp30
 70
     1
102
RTVSPropertyOp31
 70
     1
102
RTVSPropertyOp32
 70
     1
102
RTVSPropertyOp33
 70
     1
102
RTVSPropertyOp34
 70
     1
102
RTVSPropertyOp35
 70
     1
102
RTVSPropertyOp36
 70
     1
102
RTVSPropertyOp37
 70
     1
102
RTVSPropertyOp38
 70
     1
102
RTVSPropertyOp39
 70
     1
102
RTVSPropertyOp40
 70
     1
102
RTVSPropertyOp41
 70
     1
102
RTVSPropertyOp42
 70
     1
102
RTVSPropertyOp43
 70
     1
102
RTVSPropertyOp44
 70
     1
102
RTVSPropertyOp45
 70
     1
102
RTVSPropertyOp46
 70
     1
102
RTVSPropertyOp47
 70
     1
102
RTVSPropertyOp48
 70
     1
102
RTVSPropertyOp49
 70
     1
102
RTVSPropertyOp50
 70
     1
102
RTVSPropertyOp51
 70
     0
102
RTVSPropertyOp52
 70
     0
102
RTVSPropertyOp53
 70
     1
102
RTVSPropertyOp54
 70
     1
102
RTVSPropertyOp55
 70
     1
102
RTVSPropertyOp56
 70
     1
102
RTVSPropertyOp57
 70
     1
102
RTVSPost2010Prop28
280
     0
102
RTVSPost2010PropOp28
 70
     1
102
RTVSPost2010Prop29
280
     1
102
RTVSPost2010PropOp29
 70
     1
102
RTVSPost2010Prop30
280
     1
102
RTVSPost2010PropOp30
 70
     1
102
RTVSPost2010Prop31
280
     0
102
RTVSPost2010PropOp31
 70
     1
102
RTVSPost2010Prop32
280
     0
102
RTVSPost2010PropOp32
 70
     1
102
RTVSPost2010Prop33
280
     0
102
RTVSPost2010PropOp33
 70
     1
102
RTVSPost2010Prop34
280
     0
102
RTVSPost2010PropOp34
 70
     1
102
RTVSPost2010Prop35
280
     0
102
RTVSPost2010PropOp35
 70
     1
102
RTVSPost2010Prop36
280
     0
102
RTVSPost2010PropOp36
 70
     1
102
RTVSPost2010Prop37
 90
       50
102
RTVSPost2010PropOp37
 70
     1
102
RTVSPost2010Prop38
140
0.0
102
RTVSPost2010PropOp38
 70
     1
102
RTVSPost2010Prop39
140
1.0
102
RTVSPost2010PropOp39
 70
     1
102
RTVSPost2010Prop40
 90
        0
102
RTVSPost2010PropOp40
 70
     1
102
RTVSPost2010Prop41ColorIndex
 90
       18
102
RTVSPost2010Prop41ColorRGB
 90
        0
102
RTVSPost2010PropOp41
 70
     1
102
RTVSPost2010Prop42
 90
       50
102
RTVSPost2010PropOp42
 70
     1
102
RTVSPost2010Prop43
 90
        3
102
RTVSPost2010PropOp43
 70
     1
102
RTVSPost2010Prop44ColorIndex
 90
        5
102
RTVSPost2010Prop44ColorRGB
 90
      255
102
RTVSPost2010PropOp44
 70
     1
102
RTVSPost2010Prop45
280
     0
102
RTVSPost2010PropOp45
 70
     1
102
RTVSPost2010Prop46
 90
       50
102
RTVSPost2010PropOp46
 70
     1
102
RTVSPost2010Prop47
 90
       50
102
RTVSPost2010PropOp47
 70
     1
102
RTVSPost2010Prop48
 90
       50
102
RTVSPost2010PropOp48
 70
     1
102
RTVSPost2010Prop49
280
     0
102
RTVSPost2010PropOp49
 70
     1
102
RTVSPost2010Prop50
 90
       50
102
RTVSPost2010PropOp50
 70
     1
102
RTVSPost2010Prop51ColorIndex
 90
      256
102
RTVSPost2010Prop51ColorRGB
 90
-16777216
102
RTVSPost2010PropOp51
 70
     0
102
RTVSPost2010Prop52
140
1.0
102
RTVSPost2010PropOp52
 70
     0
102
RTVSPost2010Prop53
 90
        2
102
RTVSPost2010PropOp53
 70
     1
102
RTVSPost2010Prop54
  1
strokes_ogs.tif
102
RTVSPost2010PropOp54
 70
     1
102
RTVSPost2010Prop55
280
     0
102
RTVSPost2010PropOp55
 70
     1
102
RTVSPost2010Prop56
140
1.0
102
RTVSPost2010PropOp56
 70
     1
102
RTVSPost2010Prop57
140
1.0
102
RTVSPost2010PropOp57
 70
     1
  0
XRECORD
  5
1DB3
102
{ACAD_REACTORS
330
1DB2
102
}
330
1DB2
100
AcDbXrecord
280
     1
102
RTVSPropertyOp0
 70
     1
102
RTVSPropertyOp1
 70
     1
102
RTVSPropertyOp2
 70
     1
102
RTVSPropertyOp3
 70
     1
102
RTVSPropertyOp4
 70
     1
102
RTVSPropertyOp5
 70
     1
102
RTVSPropertyOp6
 70
     1
102
RTVSPropertyOp7
 70
     1
102
RTVSPropertyOp8
 70
     1
102
RTVSPropertyOp9
 70
     1
102
RTVSPropertyOp10
 70
     1
102
RTVSPropertyOp11
 70
     1
102
RTVSPropertyOp12
 70
     1
102
RTVSPropertyOp13
 70
     1
102
RTVSPropertyOp14
 70
     1
102
RTVSPropertyOp15
 70
     1
102
RTVSPropertyOp16
 70
     1
102
RTVSPropertyOp17
 70
     1
102
RTVSPropertyOp18
 70
     1
102
RTVSPropertyOp19
 70
     1
102
RTVSPropertyOp20
 70
     1
102
RTVSPropertyOp21
 70
     1
102
RTVSPropertyOp22
 70
     1
102
RTVSPropertyOp23
 70
     1
102
RTVSPropertyOp24
 70
     1
102
RTVSPropertyOp25
 70
     1
102
RTVSPropertyOp26
 70
     1
102
RTVSPropertyOp27
 70
     1
102
RTVSPropertyOp28
 70
     1
102
RTVSPropertyOp29
 70
     1
102
RTVSPropertyOp30
 70
     1
102
RTVSPropertyOp31
 70
     1
102
RTVSPropertyOp32
 70
     1
102
RTVSPropertyOp33
 70
     1
102
RTVSPropertyOp34
 70
     1
102
RTVSPropertyOp35
 70
     1
102
RTVSPropertyOp36
 70
     1
102
RTVSPropertyOp37
 70
     1
102
RTVSPropertyOp38
 70
     1
102
RTVSPropertyOp39
 70
     1
102
RTVSPropertyOp40
 70
     1
102
RTVSPropertyOp41
 70
     1
102
RTVSPropertyOp42
 70
     1
102
RTVSPropertyOp43
 70
     1
102
RTVSPropertyOp44
 70
     1
102
RTVSPropertyOp45
 70
     1
102
RTVSPropertyOp46
 70
     1
102
RTVSPropertyOp47
 70
     1
102
RTVSPropertyOp48
 70
     1
102
RTVSPropertyOp49
 70
     1
102
RTVSPropertyOp50
 70
     1
102
RTVSPropertyOp51
 70
     0
102
RTVSPropertyOp52
 70
     0
102
RTVSPropertyOp53
 70
     1
102
RTVSPropertyOp54
 70
     1
102
RTVSPropertyOp55
 70
     1
102
RTVSPropertyOp56
 70
     1
102
RTVSPropertyOp57
 70
     1
102
RTVSPost2010Prop28
280
     0
102
RTVSPost2010PropOp28
 70
     1
102
RTVSPost2010Prop29
280
     1
102
RTVSPost2010PropOp29
 70
     1
102
RTVSPost2010Prop30
280
     1
102
RTVSPost2010PropOp30
 70
     1
102
RTVSPost2010Prop31
280
     0
102
RTVSPost2010PropOp31
 70
     1
102
RTVSPost2010Prop32
280
     0
102
RTVSPost2010PropOp32
 70
     1
102
RTVSPost2010Prop33
280
     0
102
RTVSPost2010PropOp33
 70
     1
102
RTVSPost2010Prop34
280
     0
102
RTVSPost2010PropOp34
 70
     1
102
RTVSPost2010Prop35
280
     0
102
RTVSPost2010PropOp35
 70
     1
102
RTVSPost2010Prop36
280
     0
102
RTVSPost2010PropOp36
 70
     1
102
RTVSPost2010Prop37
 90
       50
102
RTVSPost2010PropOp37
 70
     1
102
RTVSPost2010Prop38
140
0.0
102
RTVSPost2010PropOp38
 70
     1
102
RTVSPost2010Prop39
140
1.0
102
RTVSPost2010PropOp39
 70
     1
102
RTVSPost2010Prop40
 90
        0
102
RTVSPost2010PropOp40
 70
     1
102
RTVSPost2010Prop41ColorIndex
 90
       18
102
RTVSPost2010Prop41ColorRGB
 90
        0
102
RTVSPost2010PropOp41
 70
     1
102
RTVSPost2010Prop42
 90
       50
102
RTVSPost2010PropOp42
 70
     1
102
RTVSPost2010Prop43
 90
        3
102
RTVSPost2010PropOp43
 70
     1
102
RTVSPost2010Prop44ColorIndex
 90
        5
102
RTVSPost2010Prop44ColorRGB
 90
      255
102
RTVSPost2010PropOp44
 70
     1
102
RTVSPost2010Prop45
280
     0
102
RTVSPost2010PropOp45
 70
     1
102
RTVSPost2010Prop46
 90
       50
102
RTVSPost2010PropOp46
 70
     1
102
RTVSPost2010Prop47
 90
       50
102
RTVSPost2010PropOp47
 70
     1
102
RTVSPost2010Prop48
 90
       50
102
RTVSPost2010PropOp48
 70
     1
102
RTVSPost2010Prop49
280
     0
102
RTVSPost2010PropOp49
 70
     1
102
RTVSPost2010Prop50
 90
       50
102
RTVSPost2010PropOp50
 70
     1
102
RTVSPost2010Prop51ColorIndex
 90
      256
102
RTVSPost2010Prop51ColorRGB
 90
-16777216
102
RTVSPost2010PropOp51
 70
     0
102
RTVSPost2010Prop52
140
1.0
102
RTVSPost2010PropOp52
 70
     0
102
RTVSPost2010Prop53
 90
        2
102
RTVSPost2010PropOp53
 70
     1
102
RTVSPost2010Prop54
  1
strokes_ogs.tif
102
RTVSPost2010PropOp54
 70
     1
102
RTVSPost2010Prop55
280
     0
102
RTVSPost2010PropOp55
 70
     1
102
RTVSPost2010Prop56
140
1.0
102
RTVSPost2010PropOp56
 70
     1
102
RTVSPost2010Prop57
140
1.0
102
RTVSPost2010PropOp57
 70
     1
  0
XRECORD
  5
1DB5
102
{ACAD_REACTORS
330
1DB4
102
}
330
1DB4
100
AcDbXrecord
280
     1
102
RTVSPropertyOp0
 70
     1
102
RTVSPropertyOp1
 70
     1
102
RTVSPropertyOp2
 70
     1
102
RTVSPropertyOp3
 70
     1
102
RTVSPropertyOp4
 70
     1
102
RTVSPropertyOp5
 70
     1
102
RTVSPropertyOp6
 70
     1
102
RTVSPropertyOp7
 70
     1
102
RTVSPropertyOp8
 70
     1
102
RTVSPropertyOp9
 70
     1
102
RTVSPropertyOp10
 70
     1
102
RTVSPropertyOp11
 70
     1
102
RTVSPropertyOp12
 70
     1
102
RTVSPropertyOp13
 70
     1
102
RTVSPropertyOp14
 70
     1
102
RTVSPropertyOp15
 70
     1
102
RTVSPropertyOp16
 70
     1
102
RTVSPropertyOp17
 70
     1
102
RTVSPropertyOp18
 70
     1
102
RTVSPropertyOp19
 70
     1
102
RTVSPropertyOp20
 70
     1
102
RTVSPropertyOp21
 70
     1
102
RTVSPropertyOp22
 70
     1
102
RTVSPropertyOp23
 70
     1
102
RTVSPropertyOp24
 70
     1
102
RTVSPropertyOp25
 70
     1
102
RTVSPropertyOp26
 70
     1
102
RTVSPropertyOp27
 70
     1
102
RTVSPropertyOp28
 70
     1
102
RTVSPropertyOp29
 70
     1
102
RTVSPropertyOp30
 70
     1
102
RTVSPropertyOp31
 70
     1
102
RTVSPropertyOp32
 70
     1
102
RTVSPropertyOp33
 70
     1
102
RTVSPropertyOp34
 70
     1
102
RTVSPropertyOp35
 70
     1
102
RTVSPropertyOp36
 70
     1
102
RTVSPropertyOp37
 70
     1
102
RTVSPropertyOp38
 70
     1
102
RTVSPropertyOp39
 70
     1
102
RTVSPropertyOp40
 70
     1
102
RTVSPropertyOp41
 70
     1
102
RTVSPropertyOp42
 70
     1
102
RTVSPropertyOp43
 70
     1
102
RTVSPropertyOp44
 70
     1
102
RTVSPropertyOp45
 70
     1
102
RTVSPropertyOp46
 70
     1
102
RTVSPropertyOp47
 70
     1
102
RTVSPropertyOp48
 70
     1
102
RTVSPropertyOp49
 70
     1
102
RTVSPropertyOp50
 70
     1
102
RTVSPropertyOp51
 70
     0
102
RTVSPropertyOp52
 70
     0
102
RTVSPropertyOp53
 70
     1
102
RTVSPropertyOp54
 70
     1
102
RTVSPropertyOp55
 70
     1
102
RTVSPropertyOp56
 70
     1
102
RTVSPropertyOp57
 70
     1
102
RTVSPost2010Prop28
280
     0
102
RTVSPost2010PropOp28
 70
     1
102
RTVSPost2010Prop29
280
     1
102
RTVSPost2010PropOp29
 70
     1
102
RTVSPost2010Prop30
280
     1
102
RTVSPost2010PropOp30
 70
     1
102
RTVSPost2010Prop31
280
     0
102
RTVSPost2010PropOp31
 70
     1
102
RTVSPost2010Prop32
280
     0
102
RTVSPost2010PropOp32
 70
     1
102
RTVSPost2010Prop33
280
     0
102
RTVSPost2010PropOp33
 70
     1
102
RTVSPost2010Prop34
280
     0
102
RTVSPost2010PropOp34
 70
     1
102
RTVSPost2010Prop35
280
     0
102
RTVSPost2010PropOp35
 70
     1
102
RTVSPost2010Prop36
280
     0
102
RTVSPost2010PropOp36
 70
     1
102
RTVSPost2010Prop37
 90
       50
102
RTVSPost2010PropOp37
 70
     1
102
RTVSPost2010Prop38
140
0.0
102
RTVSPost2010PropOp38
 70
     1
102
RTVSPost2010Prop39
140
1.0
102
RTVSPost2010PropOp39
 70
     1
102
RTVSPost2010Prop40
 90
        0
102
RTVSPost2010PropOp40
 70
     1
102
RTVSPost2010Prop41ColorIndex
 90
       18
102
RTVSPost2010Prop41ColorRGB
 90
        0
102
RTVSPost2010PropOp41
 70
     1
102
RTVSPost2010Prop42
 90
       50
102
RTVSPost2010PropOp42
 70
     1
102
RTVSPost2010Prop43
 90
        3
102
RTVSPost2010PropOp43
 70
     1
102
RTVSPost2010Prop44ColorIndex
 90
        5
102
RTVSPost2010Prop44ColorRGB
 90
      255
102
RTVSPost2010PropOp44
 70
     1
102
RTVSPost2010Prop45
280
     0
102
RTVSPost2010PropOp45
 70
     1
102
RTVSPost2010Prop46
 90
       50
102
RTVSPost2010PropOp46
 70
     1
102
RTVSPost2010Prop47
 90
       50
102
RTVSPost2010PropOp47
 70
     1
102
RTVSPost2010Prop48
 90
       50
102
RTVSPost2010PropOp48
 70
     1
102
RTVSPost2010Prop49
280
     0
102
RTVSPost2010PropOp49
 70
     1
102
RTVSPost2010Prop50
 90
       50
102
RTVSPost2010PropOp50
 70
     1
102
RTVSPost2010Prop51ColorIndex
 90
      256
102
RTVSPost2010Prop51ColorRGB
 90
-16777216
102
RTVSPost2010PropOp51
 70
     0
102
RTVSPost2010Prop52
140
1.0
102
RTVSPost2010PropOp52
 70
     0
102
RTVSPost2010Prop53
 90
        2
102
RTVSPost2010PropOp53
 70
     1
102
RTVSPost2010Prop54
  1
strokes_ogs.tif
102
RTVSPost2010PropOp54
 70
     1
102
RTVSPost2010Prop55
280
     0
102
RTVSPost2010PropOp55
 70
     1
102
RTVSPost2010Prop56
140
1.0
102
RTVSPost2010PropOp56
 70
     1
102
RTVSPost2010Prop57
140
1.0
102
RTVSPost2010PropOp57
 70
     1
  0
XRECORD
  5
1DB7
102
{ACAD_REACTORS
330
1DB6
102
}
330
1DB6
100
AcDbXrecord
280
     1
102
RTVSPropertyOp0
 70
     1
102
RTVSPropertyOp1
 70
     1
102
RTVSPropertyOp2
 70
     1
102
RTVSPropertyOp3
 70
     1
102
RTVSPropertyOp4
 70
     1
102
RTVSPropertyOp5
 70
     1
102
RTVSPropertyOp6
 70
     1
102
RTVSPropertyOp7
 70
     1
102
RTVSPropertyOp8
 70
     1
102
RTVSPropertyOp9
 70
     1
102
RTVSPropertyOp10
 70
     1
102
RTVSPropertyOp11
 70
     1
102
RTVSPropertyOp12
 70
     1
102
RTVSPropertyOp13
 70
     1
102
RTVSPropertyOp14
 70
     1
102
RTVSPropertyOp15
 70
     1
102
RTVSPropertyOp16
 70
     1
102
RTVSPropertyOp17
 70
     1
102
RTVSPropertyOp18
 70
     1
102
RTVSPropertyOp19
 70
     1
102
RTVSPropertyOp20
 70
     1
102
RTVSPropertyOp21
 70
     1
102
RTVSPropertyOp22
 70
     1
102
RTVSPropertyOp23
 70
     1
102
RTVSPropertyOp24
 70
     1
102
RTVSPropertyOp25
 70
     1
102
RTVSPropertyOp26
 70
     1
102
RTVSPropertyOp27
 70
     1
102
RTVSPropertyOp28
 70
     1
102
RTVSPropertyOp29
 70
     1
102
RTVSPropertyOp30
 70
     1
102
RTVSPropertyOp31
 70
     1
102
RTVSPropertyOp32
 70
     1
102
RTVSPropertyOp33
 70
     1
102
RTVSPropertyOp34
 70
     1
102
RTVSPropertyOp35
 70
     1
102
RTVSPropertyOp36
 70
     1
102
RTVSPropertyOp37
 70
     1
102
RTVSPropertyOp38
 70
     1
102
RTVSPropertyOp39
 70
     1
102
RTVSPropertyOp40
 70
     1
102
RTVSPropertyOp41
 70
     1
102
RTVSPropertyOp42
 70
     1
102
RTVSPropertyOp43
 70
     1
102
RTVSPropertyOp44
 70
     1
102
RTVSPropertyOp45
 70
     1
102
RTVSPropertyOp46
 70
     1
102
RTVSPropertyOp47
 70
     1
102
RTVSPropertyOp48
 70
     1
102
RTVSPropertyOp49
 70
     1
102
RTVSPropertyOp50
 70
     1
102
RTVSPropertyOp51
 70
     0
102
RTVSPropertyOp52
 70
     0
102
RTVSPropertyOp53
 70
     1
102
RTVSPropertyOp54
 70
     1
102
RTVSPropertyOp55
 70
     1
102
RTVSPropertyOp56
 70
     1
102
RTVSPropertyOp57
 70
     1
102
RTVSPost2010Prop28
280
     0
102
RTVSPost2010PropOp28
 70
     1
102
RTVSPost2010Prop29
280
     1
102
RTVSPost2010PropOp29
 70
     1
102
RTVSPost2010Prop30
280
     1
102
RTVSPost2010PropOp30
 70
     1
102
RTVSPost2010Prop31
280
     0
102
RTVSPost2010PropOp31
 70
     1
102
RTVSPost2010Prop32
280
     0
102
RTVSPost2010PropOp32
 70
     1
102
RTVSPost2010Prop33
280
     0
102
RTVSPost2010PropOp33
 70
     1
102
RTVSPost2010Prop34
280
     0
102
RTVSPost2010PropOp34
 70
     1
102
RTVSPost2010Prop35
280
     0
102
RTVSPost2010PropOp35
 70
     1
102
RTVSPost2010Prop36
280
     0
102
RTVSPost2010PropOp36
 70
     1
102
RTVSPost2010Prop37
 90
       50
102
RTVSPost2010PropOp37
 70
     1
102
RTVSPost2010Prop38
140
0.0
102
RTVSPost2010PropOp38
 70
     1
102
RTVSPost2010Prop39
140
1.0
102
RTVSPost2010PropOp39
 70
     1
102
RTVSPost2010Prop40
 90
        0
102
RTVSPost2010PropOp40
 70
     1
102
RTVSPost2010Prop41ColorIndex
 90
       18
102
RTVSPost2010Prop41ColorRGB
 90
        0
102
RTVSPost2010PropOp41
 70
     1
102
RTVSPost2010Prop42
 90
       50
102
RTVSPost2010PropOp42
 70
     1
102
RTVSPost2010Prop43
 90
        3
102
RTVSPost2010PropOp43
 70
     1
102
RTVSPost2010Prop44ColorIndex
 90
        5
102
RTVSPost2010Prop44ColorRGB
 90
      255
102
RTVSPost2010PropOp44
 70
     1
102
RTVSPost2010Prop45
280
     0
102
RTVSPost2010PropOp45
 70
     1
102
RTVSPost2010Prop46
 90
       50
102
RTVSPost2010PropOp46
 70
     1
102
RTVSPost2010Prop47
 90
       50
102
RTVSPost2010PropOp47
 70
     1
102
RTVSPost2010Prop48
 90
       50
102
RTVSPost2010PropOp48
 70
     1
102
RTVSPost2010Prop49
280
     0
102
RTVSPost2010PropOp49
 70
     1
102
RTVSPost2010Prop50
 90
       50
102
RTVSPost2010PropOp50
 70
     1
102
RTVSPost2010Prop51ColorIndex
 90
      256
102
RTVSPost2010Prop51ColorRGB
 90
-16777216
102
RTVSPost2010PropOp51
 70
     0
102
RTVSPost2010Prop52
140
1.0
102
RTVSPost2010PropOp52
 70
     0
102
RTVSPost2010Prop53
 90
        2
102
RTVSPost2010PropOp53
 70
     1
102
RTVSPost2010Prop54
  1
strokes_ogs.tif
102
RTVSPost2010PropOp54
 70
     1
102
RTVSPost2010Prop55
280
     0
102
RTVSPost2010PropOp55
 70
     1
102
RTVSPost2010Prop56
140
1.0
102
RTVSPost2010PropOp56
 70
     1
102
RTVSPost2010Prop57
140
1.0
102
RTVSPost2010PropOp57
 70
     1
  0
XRECORD
  5
1DB9
102
{ACAD_REACTORS
330
1DB8
102
}
330
1DB8
100
AcDbXrecord
280
     1
102
RTVSPropertyOp0
 70
     1
102
RTVSPropertyOp1
 70
     1
102
RTVSPropertyOp2
 70
     1
102
RTVSPropertyOp3
 70
     1
102
RTVSPropertyOp4
 70
     1
102
RTVSPropertyOp5
 70
     1
102
RTVSPropertyOp6
 70
     1
102
RTVSPropertyOp7
 70
     1
102
RTVSPropertyOp8
 70
     1
102
RTVSPropertyOp9
 70
     1
102
RTVSPropertyOp10
 70
     1
102
RTVSPropertyOp11
 70
     1
102
RTVSPropertyOp12
 70
     1
102
RTVSPropertyOp13
 70
     1
102
RTVSPropertyOp14
 70
     1
102
RTVSPropertyOp15
 70
     1
102
RTVSPropertyOp16
 70
     1
102
RTVSPropertyOp17
 70
     1
102
RTVSPropertyOp18
 70
     1
102
RTVSPropertyOp19
 70
     1
102
RTVSPropertyOp20
 70
     1
102
RTVSPropertyOp21
 70
     1
102
RTVSPropertyOp22
 70
     1
102
RTVSPropertyOp23
 70
     1
102
RTVSPropertyOp24
 70
     1
102
RTVSPropertyOp25
 70
     1
102
RTVSPropertyOp26
 70
     1
102
RTVSPropertyOp27
 70
     1
102
RTVSPropertyOp28
 70
     1
102
RTVSPropertyOp29
 70
     1
102
RTVSPropertyOp30
 70
     1
102
RTVSPropertyOp31
 70
     1
102
RTVSPropertyOp32
 70
     1
102
RTVSPropertyOp33
 70
     1
102
RTVSPropertyOp34
 70
     1
102
RTVSPropertyOp35
 70
     1
102
RTVSPropertyOp36
 70
     1
102
RTVSPropertyOp37
 70
     1
102
RTVSPropertyOp38
 70
     1
102
RTVSPropertyOp39
 70
     1
102
RTVSPropertyOp40
 70
     1
102
RTVSPropertyOp41
 70
     1
102
RTVSPropertyOp42
 70
     1
102
RTVSPropertyOp43
 70
     1
102
RTVSPropertyOp44
 70
     1
102
RTVSPropertyOp45
 70
     1
102
RTVSPropertyOp46
 70
     1
102
RTVSPropertyOp47
 70
     1
102
RTVSPropertyOp48
 70
     1
102
RTVSPropertyOp49
 70
     1
102
RTVSPropertyOp50
 70
     1
102
RTVSPropertyOp51
 70
     0
102
RTVSPropertyOp52
 70
     0
102
RTVSPropertyOp53
 70
     1
102
RTVSPropertyOp54
 70
     1
102
RTVSPropertyOp55
 70
     1
102
RTVSPropertyOp56
 70
     1
102
RTVSPropertyOp57
 70
     1
102
RTVSPost2010Prop28
280
     0
102
RTVSPost2010PropOp28
 70
     1
102
RTVSPost2010Prop29
280
     1
102
RTVSPost2010PropOp29
 70
     1
102
RTVSPost2010Prop30
280
     1
102
RTVSPost2010PropOp30
 70
     1
102
RTVSPost2010Prop31
280
     0
102
RTVSPost2010PropOp31
 70
     1
102
RTVSPost2010Prop32
280
     0
102
RTVSPost2010PropOp32
 70
     1
102
RTVSPost2010Prop33
280
     0
102
RTVSPost2010PropOp33
 70
     1
102
RTVSPost2010Prop34
280
     0
102
RTVSPost2010PropOp34
 70
     1
102
RTVSPost2010Prop35
280
     0
102
RTVSPost2010PropOp35
 70
     1
102
RTVSPost2010Prop36
280
     0
102
RTVSPost2010PropOp36
 70
     1
102
RTVSPost2010Prop37
 90
       50
102
RTVSPost2010PropOp37
 70
     1
102
RTVSPost2010Prop38
140
0.0
102
RTVSPost2010PropOp38
 70
     1
102
RTVSPost2010Prop39
140
1.0
102
RTVSPost2010PropOp39
 70
     1
102
RTVSPost2010Prop40
 90
        0
102
RTVSPost2010PropOp40
 70
     1
102
RTVSPost2010Prop41ColorIndex
 90
       18
102
RTVSPost2010Prop41ColorRGB
 90
        0
102
RTVSPost2010PropOp41
 70
     1
102
RTVSPost2010Prop42
 90
       50
102
RTVSPost2010PropOp42
 70
     1
102
RTVSPost2010Prop43
 90
        3
102
RTVSPost2010PropOp43
 70
     1
102
RTVSPost2010Prop44ColorIndex
 90
        5
102
RTVSPost2010Prop44ColorRGB
 90
      255
102
RTVSPost2010PropOp44
 70
     1
102
RTVSPost2010Prop45
280
     0
102
RTVSPost2010PropOp45
 70
     1
102
RTVSPost2010Prop46
 90
       50
102
RTVSPost2010PropOp46
 70
     1
102
RTVSPost2010Prop47
 90
       50
102
RTVSPost2010PropOp47
 70
     1
102
RTVSPost2010Prop48
 90
       50
102
RTVSPost2010PropOp48
 70
     1
102
RTVSPost2010Prop49
280
     0
102
RTVSPost2010PropOp49
 70
     1
102
RTVSPost2010Prop50
 90
       50
102
RTVSPost2010PropOp50
 70
     1
102
RTVSPost2010Prop51ColorIndex
 90
      256
102
RTVSPost2010Prop51ColorRGB
 90
-16777216
102
RTVSPost2010PropOp51
 70
     0
102
RTVSPost2010Prop52
140
1.0
102
RTVSPost2010PropOp52
 70
     0
102
RTVSPost2010Prop53
 90
        2
102
RTVSPost2010PropOp53
 70
     1
102
RTVSPost2010Prop54
  1
strokes_ogs.tif
102
RTVSPost2010PropOp54
 70
     1
102
RTVSPost2010Prop55
280
     0
102
RTVSPost2010PropOp55
 70
     1
102
RTVSPost2010Prop56
140
1.0
102
RTVSPost2010PropOp56
 70
     1
102
RTVSPost2010Prop57
140
1.0
102
RTVSPost2010PropOp57
 70
     1
  0
XRECORD
  5
1DBF
102
{ACAD_REACTORS
330
1DBE
102
}
330
1DBE
100
AcDbXrecord
280
     1
102
RTVSPropertyOp0
 70
     1
102
RTVSPropertyOp1
 70
     1
102
RTVSPropertyOp2
 70
     1
102
RTVSPropertyOp3
 70
     1
102
RTVSPropertyOp4
 70
     1
102
RTVSPropertyOp5
 70
     1
102
RTVSPropertyOp6
 70
     1
102
RTVSPropertyOp7
 70
     1
102
RTVSPropertyOp8
 70
     1
102
RTVSPropertyOp9
 70
     1
102
RTVSPropertyOp10
 70
     1
102
RTVSPropertyOp11
 70
     1
102
RTVSPropertyOp12
 70
     1
102
RTVSPropertyOp13
 70
     1
102
RTVSPropertyOp14
 70
     1
102
RTVSPropertyOp15
 70
     1
102
RTVSPropertyOp16
 70
     1
102
RTVSPropertyOp17
 70
     1
102
RTVSPropertyOp18
 70
     1
102
RTVSPropertyOp19
 70
     1
102
RTVSPropertyOp20
 70
     1
102
RTVSPropertyOp21
 70
     1
102
RTVSPropertyOp22
 70
     1
102
RTVSPropertyOp23
 70
     1
102
RTVSPropertyOp24
 70
     1
102
RTVSPropertyOp25
 70
     1
102
RTVSPropertyOp26
 70
     1
102
RTVSPropertyOp27
 70
     1
102
RTVSPropertyOp28
 70
     1
102
RTVSPropertyOp29
 70
     1
102
RTVSPropertyOp30
 70
     1
102
RTVSPropertyOp31
 70
     1
102
RTVSPropertyOp32
 70
     1
102
RTVSPropertyOp33
 70
     1
102
RTVSPropertyOp34
 70
     1
102
RTVSPropertyOp35
 70
     1
102
RTVSPropertyOp36
 70
     1
102
RTVSPropertyOp37
 70
     1
102
RTVSPropertyOp38
 70
     1
102
RTVSPropertyOp39
 70
     1
102
RTVSPropertyOp40
 70
     1
102
RTVSPropertyOp41
 70
     1
102
RTVSPropertyOp42
 70
     1
102
RTVSPropertyOp43
 70
     1
102
RTVSPropertyOp44
 70
     1
102
RTVSPropertyOp45
 70
     1
102
RTVSPropertyOp46
 70
     1
102
RTVSPropertyOp47
 70
     1
102
RTVSPropertyOp48
 70
     1
102
RTVSPropertyOp49
 70
     1
102
RTVSPropertyOp50
 70
     1
102
RTVSPropertyOp51
 70
     0
102
RTVSPropertyOp52
 70
     0
102
RTVSPropertyOp53
 70
     1
102
RTVSPropertyOp54
 70
     1
102
RTVSPropertyOp55
 70
     1
102
RTVSPropertyOp56
 70
     1
102
RTVSPropertyOp57
 70
     1
102
RTVSPost2010Prop28
280
     0
102
RTVSPost2010PropOp28
 70
     1
102
RTVSPost2010Prop29
280
     1
102
RTVSPost2010PropOp29
 70
     1
102
RTVSPost2010Prop30
280
     1
102
RTVSPost2010PropOp30
 70
     1
102
RTVSPost2010Prop31
280
     0
102
RTVSPost2010PropOp31
 70
     1
102
RTVSPost2010Prop32
280
     0
102
RTVSPost2010PropOp32
 70
     1
102
RTVSPost2010Prop33
280
     0
102
RTVSPost2010PropOp33
 70
     1
102
RTVSPost2010Prop34
280
     0
102
RTVSPost2010PropOp34
 70
     1
102
RTVSPost2010Prop35
280
     0
102
RTVSPost2010PropOp35
 70
     1
102
RTVSPost2010Prop36
280
     0
102
RTVSPost2010PropOp36
 70
     1
102
RTVSPost2010Prop37
 90
       50
102
RTVSPost2010PropOp37
 70
     1
102
RTVSPost2010Prop38
140
0.0
102
RTVSPost2010PropOp38
 70
     1
102
RTVSPost2010Prop39
140
1.0
102
RTVSPost2010PropOp39
 70
     1
102
RTVSPost2010Prop40
 90
        0
102
RTVSPost2010PropOp40
 70
     1
102
RTVSPost2010Prop41ColorIndex
 90
       18
102
RTVSPost2010Prop41ColorRGB
 90
        0
102
RTVSPost2010PropOp41
 70
     1
102
RTVSPost2010Prop42
 90
       50
102
RTVSPost2010PropOp42
 70
     1
102
RTVSPost2010Prop43
 90
        3
102
RTVSPost2010PropOp43
 70
     1
102
RTVSPost2010Prop44ColorIndex
 90
        5
102
RTVSPost2010Prop44ColorRGB
 90
      255
102
RTVSPost2010PropOp44
 70
     1
102
RTVSPost2010Prop45
280
     0
102
RTVSPost2010PropOp45
 70
     1
102
RTVSPost2010Prop46
 90
       50
102
RTVSPost2010PropOp46
 70
     1
102
RTVSPost2010Prop47
 90
       50
102
RTVSPost2010PropOp47
 70
     1
102
RTVSPost2010Prop48
 90
       50
102
RTVSPost2010PropOp48
 70
     1
102
RTVSPost2010Prop49
280
     0
102
RTVSPost2010PropOp49
 70
     1
102
RTVSPost2010Prop50
 90
       50
102
RTVSPost2010PropOp50
 70
     1
102
RTVSPost2010Prop51ColorIndex
 90
      256
102
RTVSPost2010Prop51ColorRGB
 90
-16777216
102
RTVSPost2010PropOp51
 70
     0
102
RTVSPost2010Prop52
140
1.0
102
RTVSPost2010PropOp52
 70
     0
102
RTVSPost2010Prop53
 90
        2
102
RTVSPost2010PropOp53
 70
     1
102
RTVSPost2010Prop54
  1
strokes_ogs.tif
102
RTVSPost2010PropOp54
 70
     1
102
RTVSPost2010Prop55
280
     0
102
RTVSPost2010PropOp55
 70
     1
102
RTVSPost2010Prop56
140
1.0
102
RTVSPost2010PropOp56
 70
     1
102
RTVSPost2010Prop57
140
1.0
102
RTVSPost2010PropOp57
 70
     1
  0
XRECORD
  5
1DD3
102
{ACAD_REACTORS
330
1DD2
102
}
330
1DD2
100
AcDbXrecord
280
     1
102
RTVSPropertyOp0
 70
     0
102
RTVSPropertyOp1
 70
     0
102
RTVSPropertyOp2
 70
     0
102
RTVSPropertyOp3
 70
     0
102
RTVSPropertyOp4
 70
     0
102
RTVSPropertyOp5
 70
     0
102
RTVSPropertyOp6
 70
     0
102
RTVSPropertyOp7
 70
     0
102
RTVSPropertyOp8
 70
     0
102
RTVSPropertyOp9
 70
     0
102
RTVSPropertyOp10
 70
     0
102
RTVSPropertyOp11
 70
     0
102
RTVSPropertyOp12
 70
     0
102
RTVSPropertyOp13
 70
     0
102
RTVSPropertyOp14
 70
     2
102
RTVSPropertyOp15
 70
     0
102
RTVSPropertyOp16
 70
     0
102
RTVSPropertyOp17
 70
     0
102
RTVSPropertyOp18
 70
     0
102
RTVSPropertyOp19
 70
     0
102
RTVSPropertyOp20
 70
     0
102
RTVSPropertyOp21
 70
     0
102
RTVSPropertyOp22
 70
     0
102
RTVSPropertyOp23
 70
     0
102
RTVSPropertyOp24
 70
     0
102
RTVSPropertyOp25
 70
     0
102
RTVSPropertyOp26
 70
     0
102
RTVSPropertyOp27
 70
     0
102
RTVSPropertyOp28
 70
     0
102
RTVSPropertyOp29
 70
     0
102
RTVSPropertyOp30
 70
     0
102
RTVSPropertyOp31
 70
     0
102
RTVSPropertyOp32
 70
     0
102
RTVSPropertyOp33
 70
     0
102
RTVSPropertyOp34
 70
     0
102
RTVSPropertyOp35
 70
     0
102
RTVSPropertyOp36
 70
     0
102
RTVSPropertyOp37
 70
     0
102
RTVSPropertyOp38
 70
     0
102
RTVSPropertyOp39
 70
     0
102
RTVSPropertyOp40
 70
     0
102
RTVSPropertyOp41
 70
     0
102
RTVSPropertyOp42
 70
     0
102
RTVSPropertyOp43
 70
     0
102
RTVSPropertyOp44
 70
     0
102
RTVSPropertyOp45
 70
     0
102
RTVSPropertyOp46
 70
     0
102
RTVSPropertyOp47
 70
     0
102
RTVSPropertyOp48
 70
     0
102
RTVSPropertyOp49
 70
     0
102
RTVSPropertyOp50
 70
     0
102
RTVSPropertyOp51
 70
     0
102
RTVSPropertyOp52
 70
     0
102
RTVSPropertyOp53
 70
     0
102
RTVSPropertyOp54
 70
     0
102
RTVSPropertyOp55
 70
     0
102
RTVSPropertyOp56
 70
     0
102
RTVSPropertyOp57
 70
     0
102
RTVSPost2010Prop28
280
     0
102
RTVSPost2010PropOp28
 70
     0
102
RTVSPost2010Prop29
280
     1
102
RTVSPost2010PropOp29
 70
     0
102
RTVSPost2010Prop30
280
     1
102
RTVSPost2010PropOp30
 70
     0
102
RTVSPost2010Prop31
280
     0
102
RTVSPost2010PropOp31
 70
     0
102
RTVSPost2010Prop32
280
     0
102
RTVSPost2010PropOp32
 70
     0
102
RTVSPost2010Prop33
280
     0
102
RTVSPost2010PropOp33
 70
     0
102
RTVSPost2010Prop34
280
     0
102
RTVSPost2010PropOp34
 70
     0
102
RTVSPost2010Prop35
280
     0
102
RTVSPost2010PropOp35
 70
     0
102
RTVSPost2010Prop36
280
     0
102
RTVSPost2010PropOp36
 70
     0
102
RTVSPost2010Prop37
 90
       50
102
RTVSPost2010PropOp37
 70
     0
102
RTVSPost2010Prop38
140
0.0
102
RTVSPost2010PropOp38
 70
     0
102
RTVSPost2010Prop39
140
1.0
102
RTVSPost2010PropOp39
 70
     0
102
RTVSPost2010Prop40
 90
        0
102
RTVSPost2010PropOp40
 70
     0
102
RTVSPost2010Prop41ColorIndex
 90
       18
102
RTVSPost2010Prop41ColorRGB
 90
        0
102
RTVSPost2010PropOp41
 70
     0
102
RTVSPost2010Prop42
 90
       50
102
RTVSPost2010PropOp42
 70
     0
102
RTVSPost2010Prop43
 90
        3
102
RTVSPost2010PropOp43
 70
     0
102
RTVSPost2010Prop44ColorIndex
 90
        5
102
RTVSPost2010Prop44ColorRGB
 90
      255
102
RTVSPost2010PropOp44
 70
     0
102
RTVSPost2010Prop45
280
     0
102
RTVSPost2010PropOp45
 70
     0
102
RTVSPost2010Prop46
 90
       50
102
RTVSPost2010PropOp46
 70
     0
102
RTVSPost2010Prop47
 90
       50
102
RTVSPost2010PropOp47
 70
     0
102
RTVSPost2010Prop48
 90
       50
102
RTVSPost2010PropOp48
 70
     0
102
RTVSPost2010Prop49
280
     0
102
RTVSPost2010PropOp49
 70
     0
102
RTVSPost2010Prop50
 90
       50
102
RTVSPost2010PropOp50
 70
     0
102
RTVSPost2010Prop51ColorIndex
 90
      256
102
RTVSPost2010Prop51ColorRGB
 90
-16777216
102
RTVSPost2010PropOp51
 70
     0
102
RTVSPost2010Prop52
140
1.0
102
RTVSPost2010PropOp52
 70
     0
102
RTVSPost2010Prop53
 90
        2
102
RTVSPost2010PropOp53
 70
     0
102
RTVSPost2010Prop54
  1
strokes_ogs.tif
102
RTVSPost2010PropOp54
 70
     0
102
RTVSPost2010Prop55
280
     0
102
RTVSPost2010PropOp55
 70
     0
102
RTVSPost2010Prop56
140
1.0
102
RTVSPost2010PropOp56
 70
     0
102
RTVSPost2010Prop57
140
1.0
102
RTVSPost2010PropOp57
 70
     0
  0
XRECORD
  5
1DCD
102
{ACAD_REACTORS
330
1DCC
102
}
330
1DCC
100
AcDbXrecord
280
     1
102
RTVSPropertyOp0
 70
     1
102
RTVSPropertyOp1
 70
     1
102
RTVSPropertyOp2
 70
     1
102
RTVSPropertyOp3
 70
     1
102
RTVSPropertyOp4
 70
     1
102
RTVSPropertyOp5
 70
     1
102
RTVSPropertyOp6
 70
     1
102
RTVSPropertyOp7
 70
     1
102
RTVSPropertyOp8
 70
     1
102
RTVSPropertyOp9
 70
     1
102
RTVSPropertyOp10
 70
     1
102
RTVSPropertyOp11
 70
     1
102
RTVSPropertyOp12
 70
     1
102
RTVSPropertyOp13
 70
     1
102
RTVSPropertyOp14
 70
     1
102
RTVSPropertyOp15
 70
     1
102
RTVSPropertyOp16
 70
     1
102
RTVSPropertyOp17
 70
     1
102
RTVSPropertyOp18
 70
     1
102
RTVSPropertyOp19
 70
     1
102
RTVSPropertyOp20
 70
     1
102
RTVSPropertyOp21
 70
     1
102
RTVSPropertyOp22
 70
     1
102
RTVSPropertyOp23
 70
     1
102
RTVSPropertyOp24
 70
     1
102
RTVSPropertyOp25
 70
     1
102
RTVSPropertyOp26
 70
     1
102
RTVSPropertyOp27
 70
     1
102
RTVSPropertyOp28
 70
     1
102
RTVSPropertyOp29
 70
     1
102
RTVSPropertyOp30
 70
     1
102
RTVSPropertyOp31
 70
     1
102
RTVSPropertyOp32
 70
     1
102
RTVSPropertyOp33
 70
     1
102
RTVSPropertyOp34
 70
     1
102
RTVSPropertyOp35
 70
     1
102
RTVSPropertyOp36
 70
     1
102
RTVSPropertyOp37
 70
     1
102
RTVSPropertyOp38
 70
     1
102
RTVSPropertyOp39
 70
     1
102
RTVSPropertyOp40
 70
     1
102
RTVSPropertyOp41
 70
     1
102
RTVSPropertyOp42
 70
     1
102
RTVSPropertyOp43
 70
     1
102
RTVSPropertyOp44
 70
     1
102
RTVSPropertyOp45
 70
     1
102
RTVSPropertyOp46
 70
     1
102
RTVSPropertyOp47
 70
     1
102
RTVSPropertyOp48
 70
     1
102
RTVSPropertyOp49
 70
     1
102
RTVSPropertyOp50
 70
     1
102
RTVSPropertyOp51
 70
     0
102
RTVSPropertyOp52
 70
     0
102
RTVSPropertyOp53
 70
     1
102
RTVSPropertyOp54
 70
     1
102
RTVSPropertyOp55
 70
     1
102
RTVSPropertyOp56
 70
     1
102
RTVSPropertyOp57
 70
     1
102
RTVSPost2010Prop28
280
     0
102
RTVSPost2010PropOp28
 70
     1
102
RTVSPost2010Prop29
280
     1
102
RTVSPost2010PropOp29
 70
     1
102
RTVSPost2010Prop30
280
     1
102
RTVSPost2010PropOp30
 70
     1
102
RTVSPost2010Prop31
280
     0
102
RTVSPost2010PropOp31
 70
     1
102
RTVSPost2010Prop32
280
     0
102
RTVSPost2010PropOp32
 70
     1
102
RTVSPost2010Prop33
280
     0
102
RTVSPost2010PropOp33
 70
     1
102
RTVSPost2010Prop34
280
     0
102
RTVSPost2010PropOp34
 70
     1
102
RTVSPost2010Prop35
280
     0
102
RTVSPost2010PropOp35
 70
     1
102
RTVSPost2010Prop36
280
     0
102
RTVSPost2010PropOp36
 70
     1
102
RTVSPost2010Prop37
 90
       50
102
RTVSPost2010PropOp37
 70
     1
102
RTVSPost2010Prop38
140
0.0
102
RTVSPost2010PropOp38
 70
     1
102
RTVSPost2010Prop39
140
1.0
102
RTVSPost2010PropOp39
 70
     1
102
RTVSPost2010Prop40
 90
        0
102
RTVSPost2010PropOp40
 70
     1
102
RTVSPost2010Prop41ColorIndex
 90
       18
102
RTVSPost2010Prop41ColorRGB
 90
        0
102
RTVSPost2010PropOp41
 70
     1
102
RTVSPost2010Prop42
 90
       50
102
RTVSPost2010PropOp42
 70
     1
102
RTVSPost2010Prop43
 90
        3
102
RTVSPost2010PropOp43
 70
     1
102
RTVSPost2010Prop44ColorIndex
 90
        5
102
RTVSPost2010Prop44ColorRGB
 90
      255
102
RTVSPost2010PropOp44
 70
     1
102
RTVSPost2010Prop45
280
     0
102
RTVSPost2010PropOp45
 70
     1
102
RTVSPost2010Prop46
 90
       50
102
RTVSPost2010PropOp46
 70
     1
102
RTVSPost2010Prop47
 90
       50
102
RTVSPost2010PropOp47
 70
     1
102
RTVSPost2010Prop48
 90
       50
102
RTVSPost2010PropOp48
 70
     1
102
RTVSPost2010Prop49
280
     0
102
RTVSPost2010PropOp49
 70
     1
102
RTVSPost2010Prop50
 90
       50
102
RTVSPost2010PropOp50
 70
     1
102
RTVSPost2010Prop51ColorIndex
 90
      256
102
RTVSPost2010Prop51ColorRGB
 90
-16777216
102
RTVSPost2010PropOp51
 70
     0
102
RTVSPost2010Prop52
140
1.0
102
RTVSPost2010PropOp52
 70
     0
102
RTVSPost2010Prop53
 90
        2
102
RTVSPost2010PropOp53
 70
     1
102
RTVSPost2010Prop54
  1
strokes_ogs.tif
102
RTVSPost2010PropOp54
 70
     1
102
RTVSPost2010Prop55
280
     0
102
RTVSPost2010PropOp55
 70
     1
102
RTVSPost2010Prop56
140
1.0
102
RTVSPost2010PropOp56
 70
     1
102
RTVSPost2010Prop57
140
1.0
102
RTVSPost2010PropOp57
 70
     1
  0
XRECORD
  5
1DD5
102
{ACAD_REACTORS
330
1DD4
102
}
330
1DD4
100
AcDbXrecord
280
     1
102
RTVSPropertyOp0
 70
     0
102
RTVSPropertyOp1
 70
     0
102
RTVSPropertyOp2
 70
     0
102
RTVSPropertyOp3
 70
     0
102
RTVSPropertyOp4
 70
     0
102
RTVSPropertyOp5
 70
     0
102
RTVSPropertyOp6
 70
     0
102
RTVSPropertyOp7
 70
     0
102
RTVSPropertyOp8
 70
     0
102
RTVSPropertyOp9
 70
     0
102
RTVSPropertyOp10
 70
     0
102
RTVSPropertyOp11
 70
     0
102
RTVSPropertyOp12
 70
     0
102
RTVSPropertyOp13
 70
     0
102
RTVSPropertyOp14
 70
     2
102
RTVSPropertyOp15
 70
     0
102
RTVSPropertyOp16
 70
     0
102
RTVSPropertyOp17
 70
     0
102
RTVSPropertyOp18
 70
     0
102
RTVSPropertyOp19
 70
     0
102
RTVSPropertyOp20
 70
     0
102
RTVSPropertyOp21
 70
     0
102
RTVSPropertyOp22
 70
     0
102
RTVSPropertyOp23
 70
     0
102
RTVSPropertyOp24
 70
     0
102
RTVSPropertyOp25
 70
     0
102
RTVSPropertyOp26
 70
     0
102
RTVSPropertyOp27
 70
     0
102
RTVSPropertyOp28
 70
     0
102
RTVSPropertyOp29
 70
     0
102
RTVSPropertyOp30
 70
     0
102
RTVSPropertyOp31
 70
     0
102
RTVSPropertyOp32
 70
     0
102
RTVSPropertyOp33
 70
     0
102
RTVSPropertyOp34
 70
     0
102
RTVSPropertyOp35
 70
     0
102
RTVSPropertyOp36
 70
     0
102
RTVSPropertyOp37
 70
     0
102
RTVSPropertyOp38
 70
     0
102
RTVSPropertyOp39
 70
     0
102
RTVSPropertyOp40
 70
     0
102
RTVSPropertyOp41
 70
     0
102
RTVSPropertyOp42
 70
     0
102
RTVSPropertyOp43
 70
     0
102
RTVSPropertyOp44
 70
     0
102
RTVSPropertyOp45
 70
     0
102
RTVSPropertyOp46
 70
     0
102
RTVSPropertyOp47
 70
     0
102
RTVSPropertyOp48
 70
     0
102
RTVSPropertyOp49
 70
     0
102
RTVSPropertyOp50
 70
     0
102
RTVSPropertyOp51
 70
     0
102
RTVSPropertyOp52
 70
     0
102
RTVSPropertyOp53
 70
     0
102
RTVSPropertyOp54
 70
     0
102
RTVSPropertyOp55
 70
     0
102
RTVSPropertyOp56
 70
     0
102
RTVSPropertyOp57
 70
     0
102
RTVSPost2010Prop28
280
     0
102
RTVSPost2010PropOp28
 70
     0
102
RTVSPost2010Prop29
280
     1
102
RTVSPost2010PropOp29
 70
     0
102
RTVSPost2010Prop30
280
     1
102
RTVSPost2010PropOp30
 70
     0
102
RTVSPost2010Prop31
280
     0
102
RTVSPost2010PropOp31
 70
     0
102
RTVSPost2010Prop32
280
     0
102
RTVSPost2010PropOp32
 70
     0
102
RTVSPost2010Prop33
280
     0
102
RTVSPost2010PropOp33
 70
     0
102
RTVSPost2010Prop34
280
     0
102
RTVSPost2010PropOp34
 70
     0
102
RTVSPost2010Prop35
280
     0
102
RTVSPost2010PropOp35
 70
     0
102
RTVSPost2010Prop36
280
     0
102
RTVSPost2010PropOp36
 70
     0
102
RTVSPost2010Prop37
 90
       50
102
RTVSPost2010PropOp37
 70
     0
102
RTVSPost2010Prop38
140
0.0
102
RTVSPost2010PropOp38
 70
     0
102
RTVSPost2010Prop39
140
1.0
102
RTVSPost2010PropOp39
 70
     0
102
RTVSPost2010Prop40
 90
        0
102
RTVSPost2010PropOp40
 70
     0
102
RTVSPost2010Prop41ColorIndex
 90
       18
102
RTVSPost2010Prop41ColorRGB
 90
        0
102
RTVSPost2010PropOp41
 70
     0
102
RTVSPost2010Prop42
 90
       50
102
RTVSPost2010PropOp42
 70
     0
102
RTVSPost2010Prop43
 90
        3
102
RTVSPost2010PropOp43
 70
     0
102
RTVSPost2010Prop44ColorIndex
 90
        5
102
RTVSPost2010Prop44ColorRGB
 90
      255
102
RTVSPost2010PropOp44
 70
     0
102
RTVSPost2010Prop45
280
     0
102
RTVSPost2010PropOp45
 70
     0
102
RTVSPost2010Prop46
 90
       50
102
RTVSPost2010PropOp46
 70
     0
102
RTVSPost2010Prop47
 90
       50
102
RTVSPost2010PropOp47
 70
     0
102
RTVSPost2010Prop48
 90
       50
102
RTVSPost2010PropOp48
 70
     0
102
RTVSPost2010Prop49
280
     0
102
RTVSPost2010PropOp49
 70
     0
102
RTVSPost2010Prop50
 90
       50
102
RTVSPost2010PropOp50
 70
     0
102
RTVSPost2010Prop51ColorIndex
 90
      256
102
RTVSPost2010Prop51ColorRGB
 90
-16777216
102
RTVSPost2010PropOp51
 70
     0
102
RTVSPost2010Prop52
140
1.0
102
RTVSPost2010PropOp52
 70
     0
102
RTVSPost2010Prop53
 90
        2
102
RTVSPost2010PropOp53
 70
     0
102
RTVSPost2010Prop54
  1
strokes_ogs.tif
102
RTVSPost2010PropOp54
 70
     0
102
RTVSPost2010Prop55
280
     0
102
RTVSPost2010PropOp55
 70
     0
102
RTVSPost2010Prop56
140
1.0
102
RTVSPost2010PropOp56
 70
     0
102
RTVSPost2010Prop57
140
1.0
102
RTVSPost2010PropOp57
 70
     0
  0
XRECORD
  5
1DC3
102
{ACAD_REACTORS
330
1DC2
102
}
330
1DC2
100
AcDbXrecord
280
     1
102
RTVSPropertyOp0
 70
     1
102
RTVSPropertyOp1
 70
     1
102
RTVSPropertyOp2
 70
     1
102
RTVSPropertyOp3
 70
     1
102
RTVSPropertyOp4
 70
     1
102
RTVSPropertyOp5
 70
     1
102
RTVSPropertyOp6
 70
     1
102
RTVSPropertyOp7
 70
     1
102
RTVSPropertyOp8
 70
     1
102
RTVSPropertyOp9
 70
     1
102
RTVSPropertyOp10
 70
     1
102
RTVSPropertyOp11
 70
     1
102
RTVSPropertyOp12
 70
     1
102
RTVSPropertyOp13
 70
     1
102
RTVSPropertyOp14
 70
     1
102
RTVSPropertyOp15
 70
     1
102
RTVSPropertyOp16
 70
     1
102
RTVSPropertyOp17
 70
     1
102
RTVSPropertyOp18
 70
     1
102
RTVSPropertyOp19
 70
     1
102
RTVSPropertyOp20
 70
     1
102
RTVSPropertyOp21
 70
     1
102
RTVSPropertyOp22
 70
     1
102
RTVSPropertyOp23
 70
     1
102
RTVSPropertyOp24
 70
     1
102
RTVSPropertyOp25
 70
     1
102
RTVSPropertyOp26
 70
     1
102
RTVSPropertyOp27
 70
     1
102
RTVSPropertyOp28
 70
     1
102
RTVSPropertyOp29
 70
     1
102
RTVSPropertyOp30
 70
     1
102
RTVSPropertyOp31
 70
     1
102
RTVSPropertyOp32
 70
     1
102
RTVSPropertyOp33
 70
     1
102
RTVSPropertyOp34
 70
     1
102
RTVSPropertyOp35
 70
     1
102
RTVSPropertyOp36
 70
     1
102
RTVSPropertyOp37
 70
     1
102
RTVSPropertyOp38
 70
     1
102
RTVSPropertyOp39
 70
     1
102
RTVSPropertyOp40
 70
     1
102
RTVSPropertyOp41
 70
     1
102
RTVSPropertyOp42
 70
     1
102
RTVSPropertyOp43
 70
     1
102
RTVSPropertyOp44
 70
     1
102
RTVSPropertyOp45
 70
     1
102
RTVSPropertyOp46
 70
     1
102
RTVSPropertyOp47
 70
     1
102
RTVSPropertyOp48
 70
     1
102
RTVSPropertyOp49
 70
     1
102
RTVSPropertyOp50
 70
     1
102
RTVSPropertyOp51
 70
     0
102
RTVSPropertyOp52
 70
     0
102
RTVSPropertyOp53
 70
     1
102
RTVSPropertyOp54
 70
     1
102
RTVSPropertyOp55
 70
     1
102
RTVSPropertyOp56
 70
     1
102
RTVSPropertyOp57
 70
     1
102
RTVSPost2010Prop28
280
     0
102
RTVSPost2010PropOp28
 70
     1
102
RTVSPost2010Prop29
280
     1
102
RTVSPost2010PropOp29
 70
     1
102
RTVSPost2010Prop30
280
     1
102
RTVSPost2010PropOp30
 70
     1
102
RTVSPost2010Prop31
280
     0
102
RTVSPost2010PropOp31
 70
     1
102
RTVSPost2010Prop32
280
     0
102
RTVSPost2010PropOp32
 70
     1
102
RTVSPost2010Prop33
280
     0
102
RTVSPost2010PropOp33
 70
     1
102
RTVSPost2010Prop34
280
     0
102
RTVSPost2010PropOp34
 70
     1
102
RTVSPost2010Prop35
280
     0
102
RTVSPost2010PropOp35
 70
     1
102
RTVSPost2010Prop36
280
     0
102
RTVSPost2010PropOp36
 70
     1
102
RTVSPost2010Prop37
 90
       50
102
RTVSPost2010PropOp37
 70
     1
102
RTVSPost2010Prop38
140
0.0
102
RTVSPost2010PropOp38
 70
     1
102
RTVSPost2010Prop39
140
1.0
102
RTVSPost2010PropOp39
 70
     1
102
RTVSPost2010Prop40
 90
        0
102
RTVSPost2010PropOp40
 70
     1
102
RTVSPost2010Prop41ColorIndex
 90
       18
102
RTVSPost2010Prop41ColorRGB
 90
        0
102
RTVSPost2010PropOp41
 70
     1
102
RTVSPost2010Prop42
 90
       50
102
RTVSPost2010PropOp42
 70
     1
102
RTVSPost2010Prop43
 90
        3
102
RTVSPost2010PropOp43
 70
     1
102
RTVSPost2010Prop44ColorIndex
 90
        5
102
RTVSPost2010Prop44ColorRGB
 90
      255
102
RTVSPost2010PropOp44
 70
     1
102
RTVSPost2010Prop45
280
     0
102
RTVSPost2010PropOp45
 70
     1
102
RTVSPost2010Prop46
 90
       50
102
RTVSPost2010PropOp46
 70
     1
102
RTVSPost2010Prop47
 90
       50
102
RTVSPost2010PropOp47
 70
     1
102
RTVSPost2010Prop48
 90
       50
102
RTVSPost2010PropOp48
 70
     1
102
RTVSPost2010Prop49
280
     0
102
RTVSPost2010PropOp49
 70
     1
102
RTVSPost2010Prop50
 90
       50
102
RTVSPost2010PropOp50
 70
     1
102
RTVSPost2010Prop51ColorIndex
 90
      256
102
RTVSPost2010Prop51ColorRGB
 90
-16777216
102
RTVSPost2010PropOp51
 70
     0
102
RTVSPost2010Prop52
140
1.0
102
RTVSPost2010PropOp52
 70
     0
102
RTVSPost2010Prop53
 90
        2
102
RTVSPost2010PropOp53
 70
     1
102
RTVSPost2010Prop54
  1
strokes_ogs.tif
102
RTVSPost2010PropOp54
 70
     1
102
RTVSPost2010Prop55
280
     0
102
RTVSPost2010PropOp55
 70
     1
102
RTVSPost2010Prop56
140
1.0
102
RTVSPost2010PropOp56
 70
     1
102
RTVSPost2010Prop57
140
1.0
102
RTVSPost2010PropOp57
 70
     1
  0
XRECORD
  5
1DE1
102
{ACAD_REACTORS
330
1DE0
102
}
330
1DE0
100
AcDbXrecord
280
     1
102
RTVSPropertyOp0
 70
     1
102
RTVSPropertyOp1
 70
     1
102
RTVSPropertyOp2
 70
     1
102
RTVSPropertyOp3
 70
     1
102
RTVSPropertyOp4
 70
     1
102
RTVSPropertyOp5
 70
     1
102
RTVSPropertyOp6
 70
     1
102
RTVSPropertyOp7
 70
     1
102
RTVSPropertyOp8
 70
     1
102
RTVSPropertyOp9
 70
     1
102
RTVSPropertyOp10
 70
     1
102
RTVSPropertyOp11
 70
     1
102
RTVSPropertyOp12
 70
     1
102
RTVSPropertyOp13
 70
     1
102
RTVSPropertyOp14
 70
     1
102
RTVSPropertyOp15
 70
     1
102
RTVSPropertyOp16
 70
     1
102
RTVSPropertyOp17
 70
     1
102
RTVSPropertyOp18
 70
     1
102
RTVSPropertyOp19
 70
     1
102
RTVSPropertyOp20
 70
     1
102
RTVSPropertyOp21
 70
     1
102
RTVSPropertyOp22
 70
     1
102
RTVSPropertyOp23
 70
     1
102
RTVSPropertyOp24
 70
     1
102
RTVSPropertyOp25
 70
     1
102
RTVSPropertyOp26
 70
     1
102
RTVSPropertyOp27
 70
     1
102
RTVSPropertyOp28
 70
     1
102
RTVSPropertyOp29
 70
     1
102
RTVSPropertyOp30
 70
     1
102
RTVSPropertyOp31
 70
     1
102
RTVSPropertyOp32
 70
     1
102
RTVSPropertyOp33
 70
     1
102
RTVSPropertyOp34
 70
     1
102
RTVSPropertyOp35
 70
     1
102
RTVSPropertyOp36
 70
     1
102
RTVSPropertyOp37
 70
     1
102
RTVSPropertyOp38
 70
     1
102
RTVSPropertyOp39
 70
     1
102
RTVSPropertyOp40
 70
     1
102
RTVSPropertyOp41
 70
     1
102
RTVSPropertyOp42
 70
     1
102
RTVSPropertyOp43
 70
     1
102
RTVSPropertyOp44
 70
     1
102
RTVSPropertyOp45
 70
     1
102
RTVSPropertyOp46
 70
     1
102
RTVSPropertyOp47
 70
     1
102
RTVSPropertyOp48
 70
     1
102
RTVSPropertyOp49
 70
     1
102
RTVSPropertyOp50
 70
     1
102
RTVSPropertyOp51
 70
     0
102
RTVSPropertyOp52
 70
     0
102
RTVSPropertyOp53
 70
     1
102
RTVSPropertyOp54
 70
     1
102
RTVSPropertyOp55
 70
     1
102
RTVSPropertyOp56
 70
     1
102
RTVSPropertyOp57
 70
     1
102
RTVSPost2010Prop28
280
     0
102
RTVSPost2010PropOp28
 70
     1
102
RTVSPost2010Prop29
280
     1
102
RTVSPost2010PropOp29
 70
     1
102
RTVSPost2010Prop30
280
     1
102
RTVSPost2010PropOp30
 70
     1
102
RTVSPost2010Prop31
280
     0
102
RTVSPost2010PropOp31
 70
     1
102
RTVSPost2010Prop32
280
     0
102
RTVSPost2010PropOp32
 70
     1
102
RTVSPost2010Prop33
280
     0
102
RTVSPost2010PropOp33
 70
     1
102
RTVSPost2010Prop34
280
     0
102
RTVSPost2010PropOp34
 70
     1
102
RTVSPost2010Prop35
280
     0
102
RTVSPost2010PropOp35
 70
     1
102
RTVSPost2010Prop36
280
     0
102
RTVSPost2010PropOp36
 70
     1
102
RTVSPost2010Prop37
 90
       50
102
RTVSPost2010PropOp37
 70
     1
102
RTVSPost2010Prop38
140
0.0
102
RTVSPost2010PropOp38
 70
     1
102
RTVSPost2010Prop39
140
1.0
102
RTVSPost2010PropOp39
 70
     1
102
RTVSPost2010Prop40
 90
        0
102
RTVSPost2010PropOp40
 70
     1
102
RTVSPost2010Prop41ColorIndex
 90
       18
102
RTVSPost2010Prop41ColorRGB
 90
        0
102
RTVSPost2010PropOp41
 70
     1
102
RTVSPost2010Prop42
 90
       50
102
RTVSPost2010PropOp42
 70
     1
102
RTVSPost2010Prop43
 90
        3
102
RTVSPost2010PropOp43
 70
     1
102
RTVSPost2010Prop44ColorIndex
 90
        5
102
RTVSPost2010Prop44ColorRGB
 90
      255
102
RTVSPost2010PropOp44
 70
     1
102
RTVSPost2010Prop45
280
     0
102
RTVSPost2010PropOp45
 70
     1
102
RTVSPost2010Prop46
 90
       50
102
RTVSPost2010PropOp46
 70
     1
102
RTVSPost2010Prop47
 90
       50
102
RTVSPost2010PropOp47
 70
     1
102
RTVSPost2010Prop48
 90
       50
102
RTVSPost2010PropOp48
 70
     1
102
RTVSPost2010Prop49
280
     0
102
RTVSPost2010PropOp49
 70
     1
102
RTVSPost2010Prop50
 90
       50
102
RTVSPost2010PropOp50
 70
     1
102
RTVSPost2010Prop51ColorIndex
 90
      256
102
RTVSPost2010Prop51ColorRGB
 90
-16777216
102
RTVSPost2010PropOp51
 70
     0
102
RTVSPost2010Prop52
140
1.0
102
RTVSPost2010PropOp52
 70
     0
102
RTVSPost2010Prop53
 90
        2
102
RTVSPost2010PropOp53
 70
     1
102
RTVSPost2010Prop54
  1
strokes_ogs.tif
102
RTVSPost2010PropOp54
 70
     1
102
RTVSPost2010Prop55
280
     0
102
RTVSPost2010PropOp55
 70
     1
102
RTVSPost2010Prop56
140
1.0
102
RTVSPost2010PropOp56
 70
     1
102
RTVSPost2010Prop57
140
1.0
102
RTVSPost2010PropOp57
 70
     1
  0
XRECORD
  5
1DDF
102
{ACAD_REACTORS
330
1DDE
102
}
330
1DDE
100
AcDbXrecord
280
     1
102
RTVSPropertyOp0
 70
     1
102
RTVSPropertyOp1
 70
     1
102
RTVSPropertyOp2
 70
     1
102
RTVSPropertyOp3
 70
     1
102
RTVSPropertyOp4
 70
     1
102
RTVSPropertyOp5
 70
     1
102
RTVSPropertyOp6
 70
     1
102
RTVSPropertyOp7
 70
     1
102
RTVSPropertyOp8
 70
     1
102
RTVSPropertyOp9
 70
     1
102
RTVSPropertyOp10
 70
     1
102
RTVSPropertyOp11
 70
     1
102
RTVSPropertyOp12
 70
     1
102
RTVSPropertyOp13
 70
     1
102
RTVSPropertyOp14
 70
     1
102
RTVSPropertyOp15
 70
     1
102
RTVSPropertyOp16
 70
     1
102
RTVSPropertyOp17
 70
     1
102
RTVSPropertyOp18
 70
     1
102
RTVSPropertyOp19
 70
     1
102
RTVSPropertyOp20
 70
     1
102
RTVSPropertyOp21
 70
     1
102
RTVSPropertyOp22
 70
     1
102
RTVSPropertyOp23
 70
     1
102
RTVSPropertyOp24
 70
     1
102
RTVSPropertyOp25
 70
     1
102
RTVSPropertyOp26
 70
     1
102
RTVSPropertyOp27
 70
     1
102
RTVSPropertyOp28
 70
     1
102
RTVSPropertyOp29
 70
     1
102
RTVSPropertyOp30
 70
     1
102
RTVSPropertyOp31
 70
     1
102
RTVSPropertyOp32
 70
     1
102
RTVSPropertyOp33
 70
     1
102
RTVSPropertyOp34
 70
     1
102
RTVSPropertyOp35
 70
     1
102
RTVSPropertyOp36
 70
     1
102
RTVSPropertyOp37
 70
     1
102
RTVSPropertyOp38
 70
     1
102
RTVSPropertyOp39
 70
     1
102
RTVSPropertyOp40
 70
     1
102
RTVSPropertyOp41
 70
     1
102
RTVSPropertyOp42
 70
     1
102
RTVSPropertyOp43
 70
     1
102
RTVSPropertyOp44
 70
     1
102
RTVSPropertyOp45
 70
     1
102
RTVSPropertyOp46
 70
     1
102
RTVSPropertyOp47
 70
     1
102
RTVSPropertyOp48
 70
     1
102
RTVSPropertyOp49
 70
     1
102
RTVSPropertyOp50
 70
     1
102
RTVSPropertyOp51
 70
     0
102
RTVSPropertyOp52
 70
     0
102
RTVSPropertyOp53
 70
     1
102
RTVSPropertyOp54
 70
     1
102
RTVSPropertyOp55
 70
     1
102
RTVSPropertyOp56
 70
     1
102
RTVSPropertyOp57
 70
     1
102
RTVSPost2010Prop28
280
     0
102
RTVSPost2010PropOp28
 70
     1
102
RTVSPost2010Prop29
280
     1
102
RTVSPost2010PropOp29
 70
     1
102
RTVSPost2010Prop30
280
     1
102
RTVSPost2010PropOp30
 70
     1
102
RTVSPost2010Prop31
280
     0
102
RTVSPost2010PropOp31
 70
     1
102
RTVSPost2010Prop32
280
     0
102
RTVSPost2010PropOp32
 70
     1
102
RTVSPost2010Prop33
280
     0
102
RTVSPost2010PropOp33
 70
     1
102
RTVSPost2010Prop34
280
     0
102
RTVSPost2010PropOp34
 70
     1
102
RTVSPost2010Prop35
280
     0
102
RTVSPost2010PropOp35
 70
     1
102
RTVSPost2010Prop36
280
     0
102
RTVSPost2010PropOp36
 70
     1
102
RTVSPost2010Prop37
 90
       50
102
RTVSPost2010PropOp37
 70
     1
102
RTVSPost2010Prop38
140
0.0
102
RTVSPost2010PropOp38
 70
     1
102
RTVSPost2010Prop39
140
1.0
102
RTVSPost2010PropOp39
 70
     1
102
RTVSPost2010Prop40
 90
        0
102
RTVSPost2010PropOp40
 70
     1
102
RTVSPost2010Prop41ColorIndex
 90
       18
102
RTVSPost2010Prop41ColorRGB
 90
        0
102
RTVSPost2010PropOp41
 70
     1
102
RTVSPost2010Prop42
 90
       50
102
RTVSPost2010PropOp42
 70
     1
102
RTVSPost2010Prop43
 90
        3
102
RTVSPost2010PropOp43
 70
     1
102
RTVSPost2010Prop44ColorIndex
 90
        5
102
RTVSPost2010Prop44ColorRGB
 90
      255
102
RTVSPost2010PropOp44
 70
     1
102
RTVSPost2010Prop45
280
     0
102
RTVSPost2010PropOp45
 70
     1
102
RTVSPost2010Prop46
 90
       50
102
RTVSPost2010PropOp46
 70
     1
102
RTVSPost2010Prop47
 90
       50
102
RTVSPost2010PropOp47
 70
     1
102
RTVSPost2010Prop48
 90
       50
102
RTVSPost2010PropOp48
 70
     1
102
RTVSPost2010Prop49
280
     0
102
RTVSPost2010PropOp49
 70
     1
102
RTVSPost2010Prop50
 90
       50
102
RTVSPost2010PropOp50
 70
     1
102
RTVSPost2010Prop51ColorIndex
 90
      256
102
RTVSPost2010Prop51ColorRGB
 90
-16777216
102
RTVSPost2010PropOp51
 70
     0
102
RTVSPost2010Prop52
140
1.0
102
RTVSPost2010PropOp52
 70
     0
102
RTVSPost2010Prop53
 90
        2
102
RTVSPost2010PropOp53
 70
     1
102
RTVSPost2010Prop54
  1
strokes_ogs.tif
102
RTVSPost2010PropOp54
 70
     1
102
RTVSPost2010Prop55
280
     0
102
RTVSPost2010PropOp55
 70
     1
102
RTVSPost2010Prop56
140
1.0
102
RTVSPost2010PropOp56
 70
     1
102
RTVSPost2010Prop57
140
1.0
102
RTVSPost2010PropOp57
 70
     1
  0
XRECORD
  5
1DD9
102
{ACAD_REACTORS
330
1DD8
102
}
330
1DD8
100
AcDbXrecord
280
     1
102
RTVSPropertyOp0
 70
     1
102
RTVSPropertyOp1
 70
     1
102
RTVSPropertyOp2
 70
     1
102
RTVSPropertyOp3
 70
     1
102
RTVSPropertyOp4
 70
     1
102
RTVSPropertyOp5
 70
     1
102
RTVSPropertyOp6
 70
     1
102
RTVSPropertyOp7
 70
     1
102
RTVSPropertyOp8
 70
     1
102
RTVSPropertyOp9
 70
     1
102
RTVSPropertyOp10
 70
     1
102
RTVSPropertyOp11
 70
     1
102
RTVSPropertyOp12
 70
     1
102
RTVSPropertyOp13
 70
     1
102
RTVSPropertyOp14
 70
     1
102
RTVSPropertyOp15
 70
     1
102
RTVSPropertyOp16
 70
     1
102
RTVSPropertyOp17
 70
     1
102
RTVSPropertyOp18
 70
     1
102
RTVSPropertyOp19
 70
     1
102
RTVSPropertyOp20
 70
     1
102
RTVSPropertyOp21
 70
     1
102
RTVSPropertyOp22
 70
     1
102
RTVSPropertyOp23
 70
     1
102
RTVSPropertyOp24
 70
     1
102
RTVSPropertyOp25
 70
     1
102
RTVSPropertyOp26
 70
     1
102
RTVSPropertyOp27
 70
     1
102
RTVSPropertyOp28
 70
     1
102
RTVSPropertyOp29
 70
     1
102
RTVSPropertyOp30
 70
     1
102
RTVSPropertyOp31
 70
     1
102
RTVSPropertyOp32
 70
     1
102
RTVSPropertyOp33
 70
     1
102
RTVSPropertyOp34
 70
     1
102
RTVSPropertyOp35
 70
     1
102
RTVSPropertyOp36
 70
     1
102
RTVSPropertyOp37
 70
     1
102
RTVSPropertyOp38
 70
     1
102
RTVSPropertyOp39
 70
     1
102
RTVSPropertyOp40
 70
     1
102
RTVSPropertyOp41
 70
     1
102
RTVSPropertyOp42
 70
     1
102
RTVSPropertyOp43
 70
     1
102
RTVSPropertyOp44
 70
     1
102
RTVSPropertyOp45
 70
     1
102
RTVSPropertyOp46
 70
     1
102
RTVSPropertyOp47
 70
     1
102
RTVSPropertyOp48
 70
     1
102
RTVSPropertyOp49
 70
     1
102
RTVSPropertyOp50
 70
     1
102
RTVSPropertyOp51
 70
     0
102
RTVSPropertyOp52
 70
     0
102
RTVSPropertyOp53
 70
     1
102
RTVSPropertyOp54
 70
     1
102
RTVSPropertyOp55
 70
     1
102
RTVSPropertyOp56
 70
     1
102
RTVSPropertyOp57
 70
     1
102
RTVSPost2010Prop28
280
     0
102
RTVSPost2010PropOp28
 70
     1
102
RTVSPost2010Prop29
280
     1
102
RTVSPost2010PropOp29
 70
     1
102
RTVSPost2010Prop30
280
     1
102
RTVSPost2010PropOp30
 70
     1
102
RTVSPost2010Prop31
280
     0
102
RTVSPost2010PropOp31
 70
     1
102
RTVSPost2010Prop32
280
     0
102
RTVSPost2010PropOp32
 70
     1
102
RTVSPost2010Prop33
280
     0
102
RTVSPost2010PropOp33
 70
     1
102
RTVSPost2010Prop34
280
     0
102
RTVSPost2010PropOp34
 70
     1
102
RTVSPost2010Prop35
280
     0
102
RTVSPost2010PropOp35
 70
     1
102
RTVSPost2010Prop36
280
     0
102
RTVSPost2010PropOp36
 70
     1
102
RTVSPost2010Prop37
 90
       50
102
RTVSPost2010PropOp37
 70
     1
102
RTVSPost2010Prop38
140
0.0
102
RTVSPost2010PropOp38
 70
     1
102
RTVSPost2010Prop39
140
1.0
102
RTVSPost2010PropOp39
 70
     1
102
RTVSPost2010Prop40
 90
        0
102
RTVSPost2010PropOp40
 70
     1
102
RTVSPost2010Prop41ColorIndex
 90
       18
102
RTVSPost2010Prop41ColorRGB
 90
        0
102
RTVSPost2010PropOp41
 70
     1
102
RTVSPost2010Prop42
 90
       50
102
RTVSPost2010PropOp42
 70
     1
102
RTVSPost2010Prop43
 90
        3
102
RTVSPost2010PropOp43
 70
     1
102
RTVSPost2010Prop44ColorIndex
 90
        5
102
RTVSPost2010Prop44ColorRGB
 90
      255
102
RTVSPost2010PropOp44
 70
     1
102
RTVSPost2010Prop45
280
     0
102
RTVSPost2010PropOp45
 70
     1
102
RTVSPost2010Prop46
 90
       50
102
RTVSPost2010PropOp46
 70
     1
102
RTVSPost2010Prop47
 90
       50
102
RTVSPost2010PropOp47
 70
     1
102
RTVSPost2010Prop48
 90
       50
102
RTVSPost2010PropOp48
 70
     1
102
RTVSPost2010Prop49
280
     0
102
RTVSPost2010PropOp49
 70
     1
102
RTVSPost2010Prop50
 90
       50
102
RTVSPost2010PropOp50
 70
     1
102
RTVSPost2010Prop51ColorIndex
 90
      256
102
RTVSPost2010Prop51ColorRGB
 90
-16777216
102
RTVSPost2010PropOp51
 70
     0
102
RTVSPost2010Prop52
140
1.0
102
RTVSPost2010PropOp52
 70
     0
102
RTVSPost2010Prop53
 90
        2
102
RTVSPost2010PropOp53
 70
     1
102
RTVSPost2010Prop54
  1
strokes_ogs.tif
102
RTVSPost2010PropOp54
 70
     1
102
RTVSPost2010Prop55
280
     0
102
RTVSPost2010PropOp55
 70
     1
102
RTVSPost2010Prop56
140
1.0
102
RTVSPost2010PropOp56
 70
     1
102
RTVSPost2010Prop57
140
1.0
102
RTVSPost2010PropOp57
 70
     1
  0
XRECORD
  5
1DDB
102
{ACAD_REACTORS
330
1DDA
102
}
330
1DDA
100
AcDbXrecord
280
     1
102
RTVSPropertyOp0
 70
     1
102
RTVSPropertyOp1
 70
     1
102
RTVSPropertyOp2
 70
     1
102
RTVSPropertyOp3
 70
     1
102
RTVSPropertyOp4
 70
     1
102
RTVSPropertyOp5
 70
     1
102
RTVSPropertyOp6
 70
     1
102
RTVSPropertyOp7
 70
     1
102
RTVSPropertyOp8
 70
     1
102
RTVSPropertyOp9
 70
     1
102
RTVSPropertyOp10
 70
     1
102
RTVSPropertyOp11
 70
     1
102
RTVSPropertyOp12
 70
     1
102
RTVSPropertyOp13
 70
     1
102
RTVSPropertyOp14
 70
     1
102
RTVSPropertyOp15
 70
     1
102
RTVSPropertyOp16
 70
     1
102
RTVSPropertyOp17
 70
     1
102
RTVSPropertyOp18
 70
     1
102
RTVSPropertyOp19
 70
     1
102
RTVSPropertyOp20
 70
     1
102
RTVSPropertyOp21
 70
     1
102
RTVSPropertyOp22
 70
     1
102
RTVSPropertyOp23
 70
     1
102
RTVSPropertyOp24
 70
     1
102
RTVSPropertyOp25
 70
     1
102
RTVSPropertyOp26
 70
     1
102
RTVSPropertyOp27
 70
     1
102
RTVSPropertyOp28
 70
     1
102
RTVSPropertyOp29
 70
     1
102
RTVSPropertyOp30
 70
     1
102
RTVSPropertyOp31
 70
     1
102
RTVSPropertyOp32
 70
     1
102
RTVSPropertyOp33
 70
     1
102
RTVSPropertyOp34
 70
     1
102
RTVSPropertyOp35
 70
     1
102
RTVSPropertyOp36
 70
     1
102
RTVSPropertyOp37
 70
     1
102
RTVSPropertyOp38
 70
     1
102
RTVSPropertyOp39
 70
     1
102
RTVSPropertyOp40
 70
     1
102
RTVSPropertyOp41
 70
     1
102
RTVSPropertyOp42
 70
     1
102
RTVSPropertyOp43
 70
     1
102
RTVSPropertyOp44
 70
     1
102
RTVSPropertyOp45
 70
     1
102
RTVSPropertyOp46
 70
     1
102
RTVSPropertyOp47
 70
     1
102
RTVSPropertyOp48
 70
     1
102
RTVSPropertyOp49
 70
     1
102
RTVSPropertyOp50
 70
     1
102
RTVSPropertyOp51
 70
     0
102
RTVSPropertyOp52
 70
     0
102
RTVSPropertyOp53
 70
     1
102
RTVSPropertyOp54
 70
     1
102
RTVSPropertyOp55
 70
     1
102
RTVSPropertyOp56
 70
     1
102
RTVSPropertyOp57
 70
     1
102
RTVSPost2010Prop28
280
     0
102
RTVSPost2010PropOp28
 70
     1
102
RTVSPost2010Prop29
280
     1
102
RTVSPost2010PropOp29
 70
     1
102
RTVSPost2010Prop30
280
     1
102
RTVSPost2010PropOp30
 70
     1
102
RTVSPost2010Prop31
280
     0
102
RTVSPost2010PropOp31
 70
     1
102
RTVSPost2010Prop32
280
     0
102
RTVSPost2010PropOp32
 70
     1
102
RTVSPost2010Prop33
280
     0
102
RTVSPost2010PropOp33
 70
     1
102
RTVSPost2010Prop34
280
     0
102
RTVSPost2010PropOp34
 70
     1
102
RTVSPost2010Prop35
280
     0
102
RTVSPost2010PropOp35
 70
     1
102
RTVSPost2010Prop36
280
     0
102
RTVSPost2010PropOp36
 70
     1
102
RTVSPost2010Prop37
 90
       50
102
RTVSPost2010PropOp37
 70
     1
102
RTVSPost2010Prop38
140
0.0
102
RTVSPost2010PropOp38
 70
     1
102
RTVSPost2010Prop39
140
1.0
102
RTVSPost2010PropOp39
 70
     1
102
RTVSPost2010Prop40
 90
        0
102
RTVSPost2010PropOp40
 70
     1
102
RTVSPost2010Prop41ColorIndex
 90
       18
102
RTVSPost2010Prop41ColorRGB
 90
        0
102
RTVSPost2010PropOp41
 70
     1
102
RTVSPost2010Prop42
 90
       50
102
RTVSPost2010PropOp42
 70
     1
102
RTVSPost2010Prop43
 90
        3
102
RTVSPost2010PropOp43
 70
     1
102
RTVSPost2010Prop44ColorIndex
 90
        5
102
RTVSPost2010Prop44ColorRGB
 90
      255
102
RTVSPost2010PropOp44
 70
     1
102
RTVSPost2010Prop45
280
     0
102
RTVSPost2010PropOp45
 70
     1
102
RTVSPost2010Prop46
 90
       50
102
RTVSPost2010PropOp46
 70
     1
102
RTVSPost2010Prop47
 90
       50
102
RTVSPost2010PropOp47
 70
     1
102
RTVSPost2010Prop48
 90
       50
102
RTVSPost2010PropOp48
 70
     1
102
RTVSPost2010Prop49
280
     0
102
RTVSPost2010PropOp49
 70
     1
102
RTVSPost2010Prop50
 90
       50
102
RTVSPost2010PropOp50
 70
     1
102
RTVSPost2010Prop51ColorIndex
 90
      256
102
RTVSPost2010Prop51ColorRGB
 90
-16777216
102
RTVSPost2010PropOp51
 70
     0
102
RTVSPost2010Prop52
140
1.0
102
RTVSPost2010PropOp52
 70
     0
102
RTVSPost2010Prop53
 90
        2
102
RTVSPost2010PropOp53
 70
     1
102
RTVSPost2010Prop54
  1
strokes_ogs.tif
102
RTVSPost2010PropOp54
 70
     1
102
RTVSPost2010Prop55
280
     0
102
RTVSPost2010PropOp55
 70
     1
102
RTVSPost2010Prop56
140
1.0
102
RTVSPost2010PropOp56
 70
     1
102
RTVSPost2010Prop57
140
1.0
102
RTVSPost2010PropOp57
 70
     1
  0
XRECORD
  5
1DCB
102
{ACAD_REACTORS
330
1DCA
102
}
330
1DCA
100
AcDbXrecord
280
     1
102
RTVSPropertyOp0
 70
     1
102
RTVSPropertyOp1
 70
     1
102
RTVSPropertyOp2
 70
     1
102
RTVSPropertyOp3
 70
     1
102
RTVSPropertyOp4
 70
     1
102
RTVSPropertyOp5
 70
     1
102
RTVSPropertyOp6
 70
     1
102
RTVSPropertyOp7
 70
     1
102
RTVSPropertyOp8
 70
     1
102
RTVSPropertyOp9
 70
     1
102
RTVSPropertyOp10
 70
     1
102
RTVSPropertyOp11
 70
     1
102
RTVSPropertyOp12
 70
     1
102
RTVSPropertyOp13
 70
     1
102
RTVSPropertyOp14
 70
     1
102
RTVSPropertyOp15
 70
     1
102
RTVSPropertyOp16
 70
     1
102
RTVSPropertyOp17
 70
     1
102
RTVSPropertyOp18
 70
     1
102
RTVSPropertyOp19
 70
     1
102
RTVSPropertyOp20
 70
     1
102
RTVSPropertyOp21
 70
     1
102
RTVSPropertyOp22
 70
     1
102
RTVSPropertyOp23
 70
     1
102
RTVSPropertyOp24
 70
     1
102
RTVSPropertyOp25
 70
     1
102
RTVSPropertyOp26
 70
     1
102
RTVSPropertyOp27
 70
     1
102
RTVSPropertyOp28
 70
     1
102
RTVSPropertyOp29
 70
     1
102
RTVSPropertyOp30
 70
     1
102
RTVSPropertyOp31
 70
     1
102
RTVSPropertyOp32
 70
     1
102
RTVSPropertyOp33
 70
     1
102
RTVSPropertyOp34
 70
     1
102
RTVSPropertyOp35
 70
     1
102
RTVSPropertyOp36
 70
     1
102
RTVSPropertyOp37
 70
     1
102
RTVSPropertyOp38
 70
     1
102
RTVSPropertyOp39
 70
     1
102
RTVSPropertyOp40
 70
     1
102
RTVSPropertyOp41
 70
     1
102
RTVSPropertyOp42
 70
     1
102
RTVSPropertyOp43
 70
     1
102
RTVSPropertyOp44
 70
     1
102
RTVSPropertyOp45
 70
     1
102
RTVSPropertyOp46
 70
     1
102
RTVSPropertyOp47
 70
     1
102
RTVSPropertyOp48
 70
     1
102
RTVSPropertyOp49
 70
     1
102
RTVSPropertyOp50
 70
     1
102
RTVSPropertyOp51
 70
     0
102
RTVSPropertyOp52
 70
     0
102
RTVSPropertyOp53
 70
     1
102
RTVSPropertyOp54
 70
     1
102
RTVSPropertyOp55
 70
     1
102
RTVSPropertyOp56
 70
     1
102
RTVSPropertyOp57
 70
     1
102
RTVSPost2010Prop28
280
     0
102
RTVSPost2010PropOp28
 70
     1
102
RTVSPost2010Prop29
280
     1
102
RTVSPost2010PropOp29
 70
     1
102
RTVSPost2010Prop30
280
     1
102
RTVSPost2010PropOp30
 70
     1
102
RTVSPost2010Prop31
280
     0
102
RTVSPost2010PropOp31
 70
     1
102
RTVSPost2010Prop32
280
     0
102
RTVSPost2010PropOp32
 70
     1
102
RTVSPost2010Prop33
280
     0
102
RTVSPost2010PropOp33
 70
     1
102
RTVSPost2010Prop34
280
     0
102
RTVSPost2010PropOp34
 70
     1
102
RTVSPost2010Prop35
280
     0
102
RTVSPost2010PropOp35
 70
     1
102
RTVSPost2010Prop36
280
     0
102
RTVSPost2010PropOp36
 70
     1
102
RTVSPost2010Prop37
 90
       50
102
RTVSPost2010PropOp37
 70
     1
102
RTVSPost2010Prop38
140
0.0
102
RTVSPost2010PropOp38
 70
     1
102
RTVSPost2010Prop39
140
1.0
102
RTVSPost2010PropOp39
 70
     1
102
RTVSPost2010Prop40
 90
        0
102
RTVSPost2010PropOp40
 70
     1
102
RTVSPost2010Prop41ColorIndex
 90
       18
102
RTVSPost2010Prop41ColorRGB
 90
        0
102
RTVSPost2010PropOp41
 70
     1
102
RTVSPost2010Prop42
 90
       50
102
RTVSPost2010PropOp42
 70
     1
102
RTVSPost2010Prop43
 90
        3
102
RTVSPost2010PropOp43
 70
     1
102
RTVSPost2010Prop44ColorIndex
 90
        5
102
RTVSPost2010Prop44ColorRGB
 90
      255
102
RTVSPost2010PropOp44
 70
     1
102
RTVSPost2010Prop45
280
     0
102
RTVSPost2010PropOp45
 70
     1
102
RTVSPost2010Prop46
 90
       50
102
RTVSPost2010PropOp46
 70
     1
102
RTVSPost2010Prop47
 90
       50
102
RTVSPost2010PropOp47
 70
     1
102
RTVSPost2010Prop48
 90
       50
102
RTVSPost2010PropOp48
 70
     1
102
RTVSPost2010Prop49
280
     0
102
RTVSPost2010PropOp49
 70
     1
102
RTVSPost2010Prop50
 90
       50
102
RTVSPost2010PropOp50
 70
     1
102
RTVSPost2010Prop51ColorIndex
 90
      256
102
RTVSPost2010Prop51ColorRGB
 90
-16777216
102
RTVSPost2010PropOp51
 70
     0
102
RTVSPost2010Prop52
140
1.0
102
RTVSPost2010PropOp52
 70
     0
102
RTVSPost2010Prop53
 90
        2
102
RTVSPost2010PropOp53
 70
     1
102
RTVSPost2010Prop54
  1
strokes_ogs.tif
102
RTVSPost2010PropOp54
 70
     1
102
RTVSPost2010Prop55
280
     0
102
RTVSPost2010PropOp55
 70
     1
102
RTVSPost2010Prop56
140
1.0
102
RTVSPost2010PropOp56
 70
     1
102
RTVSPost2010Prop57
140
1.0
102
RTVSPost2010PropOp57
 70
     1
  0
XRECORD
  5
1DBD
102
{ACAD_REACTORS
330
1DBC
102
}
330
1DBC
100
AcDbXrecord
280
     1
102
RTVSPropertyOp0
 70
     1
102
RTVSPropertyOp1
 70
     1
102
RTVSPropertyOp2
 70
     1
102
RTVSPropertyOp3
 70
     1
102
RTVSPropertyOp4
 70
     1
102
RTVSPropertyOp5
 70
     1
102
RTVSPropertyOp6
 70
     1
102
RTVSPropertyOp7
 70
     1
102
RTVSPropertyOp8
 70
     1
102
RTVSPropertyOp9
 70
     1
102
RTVSPropertyOp10
 70
     1
102
RTVSPropertyOp11
 70
     1
102
RTVSPropertyOp12
 70
     1
102
RTVSPropertyOp13
 70
     1
102
RTVSPropertyOp14
 70
     1
102
RTVSPropertyOp15
 70
     1
102
RTVSPropertyOp16
 70
     1
102
RTVSPropertyOp17
 70
     1
102
RTVSPropertyOp18
 70
     1
102
RTVSPropertyOp19
 70
     1
102
RTVSPropertyOp20
 70
     1
102
RTVSPropertyOp21
 70
     1
102
RTVSPropertyOp22
 70
     1
102
RTVSPropertyOp23
 70
     1
102
RTVSPropertyOp24
 70
     1
102
RTVSPropertyOp25
 70
     1
102
RTVSPropertyOp26
 70
     1
102
RTVSPropertyOp27
 70
     1
102
RTVSPropertyOp28
 70
     1
102
RTVSPropertyOp29
 70
     1
102
RTVSPropertyOp30
 70
     1
102
RTVSPropertyOp31
 70
     1
102
RTVSPropertyOp32
 70
     1
102
RTVSPropertyOp33
 70
     1
102
RTVSPropertyOp34
 70
     1
102
RTVSPropertyOp35
 70
     1
102
RTVSPropertyOp36
 70
     1
102
RTVSPropertyOp37
 70
     1
102
RTVSPropertyOp38
 70
     1
102
RTVSPropertyOp39
 70
     1
102
RTVSPropertyOp40
 70
     1
102
RTVSPropertyOp41
 70
     1
102
RTVSPropertyOp42
 70
     1
102
RTVSPropertyOp43
 70
     1
102
RTVSPropertyOp44
 70
     1
102
RTVSPropertyOp45
 70
     1
102
RTVSPropertyOp46
 70
     1
102
RTVSPropertyOp47
 70
     1
102
RTVSPropertyOp48
 70
     1
102
RTVSPropertyOp49
 70
     1
102
RTVSPropertyOp50
 70
     1
102
RTVSPropertyOp51
 70
     0
102
RTVSPropertyOp52
 70
     0
102
RTVSPropertyOp53
 70
     1
102
RTVSPropertyOp54
 70
     1
102
RTVSPropertyOp55
 70
     1
102
RTVSPropertyOp56
 70
     1
102
RTVSPropertyOp57
 70
     1
102
RTVSPost2010Prop28
280
     0
102
RTVSPost2010PropOp28
 70
     1
102
RTVSPost2010Prop29
280
     1
102
RTVSPost2010PropOp29
 70
     1
102
RTVSPost2010Prop30
280
     1
102
RTVSPost2010PropOp30
 70
     1
102
RTVSPost2010Prop31
280
     0
102
RTVSPost2010PropOp31
 70
     1
102
RTVSPost2010Prop32
280
     0
102
RTVSPost2010PropOp32
 70
     1
102
RTVSPost2010Prop33
280
     0
102
RTVSPost2010PropOp33
 70
     1
102
RTVSPost2010Prop34
280
     0
102
RTVSPost2010PropOp34
 70
     1
102
RTVSPost2010Prop35
280
     0
102
RTVSPost2010PropOp35
 70
     1
102
RTVSPost2010Prop36
280
     0
102
RTVSPost2010PropOp36
 70
     1
102
RTVSPost2010Prop37
 90
       50
102
RTVSPost2010PropOp37
 70
     1
102
RTVSPost2010Prop38
140
0.0
102
RTVSPost2010PropOp38
 70
     1
102
RTVSPost2010Prop39
140
1.0
102
RTVSPost2010PropOp39
 70
     1
102
RTVSPost2010Prop40
 90
        0
102
RTVSPost2010PropOp40
 70
     1
102
RTVSPost2010Prop41ColorIndex
 90
       18
102
RTVSPost2010Prop41ColorRGB
 90
        0
102
RTVSPost2010PropOp41
 70
     1
102
RTVSPost2010Prop42
 90
       50
102
RTVSPost2010PropOp42
 70
     1
102
RTVSPost2010Prop43
 90
        3
102
RTVSPost2010PropOp43
 70
     1
102
RTVSPost2010Prop44ColorIndex
 90
        5
102
RTVSPost2010Prop44ColorRGB
 90
      255
102
RTVSPost2010PropOp44
 70
     1
102
RTVSPost2010Prop45
280
     0
102
RTVSPost2010PropOp45
 70
     1
102
RTVSPost2010Prop46
 90
       50
102
RTVSPost2010PropOp46
 70
     1
102
RTVSPost2010Prop47
 90
       50
102
RTVSPost2010PropOp47
 70
     1
102
RTVSPost2010Prop48
 90
       50
102
RTVSPost2010PropOp48
 70
     1
102
RTVSPost2010Prop49
280
     0
102
RTVSPost2010PropOp49
 70
     1
102
RTVSPost2010Prop50
 90
       50
102
RTVSPost2010PropOp50
 70
     1
102
RTVSPost2010Prop51ColorIndex
 90
      256
102
RTVSPost2010Prop51ColorRGB
 90
-16777216
102
RTVSPost2010PropOp51
 70
     0
102
RTVSPost2010Prop52
140
1.0
102
RTVSPost2010PropOp52
 70
     0
102
RTVSPost2010Prop53
 90
        2
102
RTVSPost2010PropOp53
 70
     1
102
RTVSPost2010Prop54
  1
strokes_ogs.tif
102
RTVSPost2010PropOp54
 70
     1
102
RTVSPost2010Prop55
280
     0
102
RTVSPost2010PropOp55
 70
     1
102
RTVSPost2010Prop56
140
1.0
102
RTVSPost2010PropOp56
 70
     1
102
RTVSPost2010Prop57
140
1.0
102
RTVSPost2010PropOp57
 70
     1
  0
XRECORD
  5
1DDD
102
{ACAD_REACTORS
330
1DDC
102
}
330
1DDC
100
AcDbXrecord
280
     1
102
RTVSPropertyOp0
 70
     1
102
RTVSPropertyOp1
 70
     1
102
RTVSPropertyOp2
 70
     1
102
RTVSPropertyOp3
 70
     1
102
RTVSPropertyOp4
 70
     1
102
RTVSPropertyOp5
 70
     1
102
RTVSPropertyOp6
 70
     1
102
RTVSPropertyOp7
 70
     1
102
RTVSPropertyOp8
 70
     1
102
RTVSPropertyOp9
 70
     1
102
RTVSPropertyOp10
 70
     1
102
RTVSPropertyOp11
 70
     1
102
RTVSPropertyOp12
 70
     1
102
RTVSPropertyOp13
 70
     1
102
RTVSPropertyOp14
 70
     1
102
RTVSPropertyOp15
 70
     1
102
RTVSPropertyOp16
 70
     1
102
RTVSPropertyOp17
 70
     1
102
RTVSPropertyOp18
 70
     1
102
RTVSPropertyOp19
 70
     1
102
RTVSPropertyOp20
 70
     1
102
RTVSPropertyOp21
 70
     1
102
RTVSPropertyOp22
 70
     1
102
RTVSPropertyOp23
 70
     1
102
RTVSPropertyOp24
 70
     1
102
RTVSPropertyOp25
 70
     1
102
RTVSPropertyOp26
 70
     1
102
RTVSPropertyOp27
 70
     1
102
RTVSPropertyOp28
 70
     1
102
RTVSPropertyOp29
 70
     1
102
RTVSPropertyOp30
 70
     1
102
RTVSPropertyOp31
 70
     1
102
RTVSPropertyOp32
 70
     1
102
RTVSPropertyOp33
 70
     1
102
RTVSPropertyOp34
 70
     1
102
RTVSPropertyOp35
 70
     1
102
RTVSPropertyOp36
 70
     1
102
RTVSPropertyOp37
 70
     1
102
RTVSPropertyOp38
 70
     1
102
RTVSPropertyOp39
 70
     1
102
RTVSPropertyOp40
 70
     1
102
RTVSPropertyOp41
 70
     1
102
RTVSPropertyOp42
 70
     1
102
RTVSPropertyOp43
 70
     1
102
RTVSPropertyOp44
 70
     1
102
RTVSPropertyOp45
 70
     1
102
RTVSPropertyOp46
 70
     1
102
RTVSPropertyOp47
 70
     1
102
RTVSPropertyOp48
 70
     1
102
RTVSPropertyOp49
 70
     1
102
RTVSPropertyOp50
 70
     1
102
RTVSPropertyOp51
 70
     0
102
RTVSPropertyOp52
 70
     0
102
RTVSPropertyOp53
 70
     1
102
RTVSPropertyOp54
 70
     1
102
RTVSPropertyOp55
 70
     1
102
RTVSPropertyOp56
 70
     1
102
RTVSPropertyOp57
 70
     1
102
RTVSPost2010Prop28
280
     0
102
RTVSPost2010PropOp28
 70
     1
102
RTVSPost2010Prop29
280
     1
102
RTVSPost2010PropOp29
 70
     1
102
RTVSPost2010Prop30
280
     1
102
RTVSPost2010PropOp30
 70
     1
102
RTVSPost2010Prop31
280
     0
102
RTVSPost2010PropOp31
 70
     1
102
RTVSPost2010Prop32
280
     0
102
RTVSPost2010PropOp32
 70
     1
102
RTVSPost2010Prop33
280
     0
102
RTVSPost2010PropOp33
 70
     1
102
RTVSPost2010Prop34
280
     0
102
RTVSPost2010PropOp34
 70
     1
102
RTVSPost2010Prop35
280
     0
102
RTVSPost2010PropOp35
 70
     1
102
RTVSPost2010Prop36
280
     0
102
RTVSPost2010PropOp36
 70
     1
102
RTVSPost2010Prop37
 90
       50
102
RTVSPost2010PropOp37
 70
     1
102
RTVSPost2010Prop38
140
0.0
102
RTVSPost2010PropOp38
 70
     1
102
RTVSPost2010Prop39
140
1.0
102
RTVSPost2010PropOp39
 70
     1
102
RTVSPost2010Prop40
 90
        0
102
RTVSPost2010PropOp40
 70
     1
102
RTVSPost2010Prop41ColorIndex
 90
       18
102
RTVSPost2010Prop41ColorRGB
 90
        0
102
RTVSPost2010PropOp41
 70
     1
102
RTVSPost2010Prop42
 90
       50
102
RTVSPost2010PropOp42
 70
     1
102
RTVSPost2010Prop43
 90
        3
102
RTVSPost2010PropOp43
 70
     1
102
RTVSPost2010Prop44ColorIndex
 90
        5
102
RTVSPost2010Prop44ColorRGB
 90
      255
102
RTVSPost2010PropOp44
 70
     1
102
RTVSPost2010Prop45
280
     0
102
RTVSPost2010PropOp45
 70
     1
102
RTVSPost2010Prop46
 90
       50
102
RTVSPost2010PropOp46
 70
     1
102
RTVSPost2010Prop47
 90
       50
102
RTVSPost2010PropOp47
 70
     1
102
RTVSPost2010Prop48
 90
       50
102
RTVSPost2010PropOp48
 70
     1
102
RTVSPost2010Prop49
280
     0
102
RTVSPost2010PropOp49
 70
     1
102
RTVSPost2010Prop50
 90
       50
102
RTVSPost2010PropOp50
 70
     1
102
RTVSPost2010Prop51ColorIndex
 90
      256
102
RTVSPost2010Prop51ColorRGB
 90
-16777216
102
RTVSPost2010PropOp51
 70
     0
102
RTVSPost2010Prop52
140
1.0
102
RTVSPost2010PropOp52
 70
     0
102
RTVSPost2010Prop53
 90
        2
102
RTVSPost2010PropOp53
 70
     1
102
RTVSPost2010Prop54
  1
strokes_ogs.tif
102
RTVSPost2010PropOp54
 70
     1
102
RTVSPost2010Prop55
280
     0
102
RTVSPost2010PropOp55
 70
     1
102
RTVSPost2010Prop56
140
1.0
102
RTVSPost2010PropOp56
 70
     1
102
RTVSPost2010Prop57
140
1.0
102
RTVSPost2010PropOp57
 70
     1
  0
ENDSEC
  0
EOF
