  0
SECTION
  2
HEADER
  9
$ACADVER
  1
AC1018
  9
$ACADMAINTVER
 70
     0
  9
$DWGCODEPAGE
  3
ANSI_936
  9
$INSBASE
 10
0.0
 20
0.0
 30
0.0
  9
$EXTMIN
 10
2992.869151647492
 20
1411.568654944584
 30
-49.17567052175948
  9
$EXTMAX
 10
4208.060173925682
 20
2043.573666647763
 30
0.0
  9
$LIMMIN
 10
0.0
 20
0.0
  9
$LIMMAX
 10
12.0
 20
9.0
  9
$ORTHOMODE
 70
     0
  9
$REGENMODE
 70
     1
  9
$FILLMODE
 70
     1
  9
$QTEXTMODE
 70
     0
  9
$MIRRTEXT
 70
     0
  9
$LTSCALE
 40
1.0
  9
$ATTMODE
 70
     1
  9
$TEXTSIZE
 40
0.2
  9
$TRACEWID
 40
0.05
  9
$TEXTSTYLE
  7
Standard
  9
$CLAYER
  8
0
  9
$CELTYPE
  6
ByLayer
  9
$CECOLOR
 62
   256
  9
$CELTSCALE
 40
1.0
  9
$DISPSILH
 70
     0
  9
$DIMSCALE
 40
1.0
  9
$DIMASZ
 40
0.18
  9
$DIMEXO
 40
0.0625
  9
$DIMDLI
 40
0.38
  9
$DIMRND
 40
0.0
  9
$DIMDLE
 40
0.0
  9
$DIMEXE
 40
0.18
  9
$DIMTP
 40
0.0
  9
$DIMTM
 40
0.0
  9
$DIMTXT
 40
0.18
  9
$DIMCEN
 40
0.09
  9
$DIMTSZ
 40
0.0
  9
$DIMTOL
 70
     0
  9
$DIMLIM
 70
     0
  9
$DIMTIH
 70
     1
  9
$DIMTOH
 70
     1
  9
$DIMSE1
 70
     0
  9
$DIMSE2
 70
     0
  9
$DIMTAD
 70
     0
  9
$DIMZIN
 70
     0
  9
$DIMBLK
  1

  9
$DIMASO
 70
     1
  9
$DIMSHO
 70
     1
  9
$DIMPOST
  1

  9
$DIMAPOST
  1

  9
$DIMALT
 70
     0
  9
$DIMALTD
 70
     2
  9
$DIMALTF
 40
25.4
  9
$DIMLFAC
 40
1.0
  9
$DIMTOFL
 70
     0
  9
$DIMTVP
 40
0.0
  9
$DIMTIX
 70
     0
  9
$DIMSOXD
 70
     0
  9
$DIMSAH
 70
     0
  9
$DIMBLK1
  1

  9
$DIMBLK2
  1

  9
$DIMSTYLE
  2
Standard
  9
$DIMCLRD
 70
     0
  9
$DIMCLRE
 70
     0
  9
$DIMCLRT
 70
     0
  9
$DIMTFAC
 40
1.0
  9
$DIMGAP
 40
0.09
  9
$DIMJUST
 70
     0
  9
$DIMSD1
 70
     0
  9
$DIMSD2
 70
     0
  9
$DIMTOLJ
 70
     1
  9
$DIMTZIN
 70
     0
  9
$DIMALTZ
 70
     0
  9
$DIMALTTZ
 70
     0
  9
$DIMUPT
 70
     0
  9
$DIMDEC
 70
     4
  9
$DIMTDEC
 70
     4
  9
$DIMALTU
 70
     2
  9
$DIMALTTD
 70
     2
  9
$DIMTXSTY
  7
Standard
  9
$DIMAUNIT
 70
     0
  9
$DIMADEC
 70
     0
  9
$DIMALTRND
 40
0.0
  9
$DIMAZIN
 70
     0
  9
$DIMDSEP
 70
    46
  9
$DIMATFIT
 70
     3
  9
$DIMFRAC
 70
     0
  9
$DIMLDRBLK
  1

  9
$DIMLUNIT
 70
     2
  9
$DIMLWD
 70
    -2
  9
$DIMLWE
 70
    -2
  9
$DIMTMOVE
 70
     0
  9
$LUNITS
 70
     2
  9
$LUPREC
 70
     4
  9
$SKETCHINC
 40
0.1
  9
$FILLETRAD
 40
0.0
  9
$AUNITS
 70
     0
  9
$AUPREC
 70
     0
  9
$MENU
  1
.
  9
$ELEVATION
 40
0.0
  9
$PELEVATION
 40
0.0
  9
$THICKNESS
 40
0.0
  9
$LIMCHECK
 70
     0
  9
$CHAMFERA
 40
0.0
  9
$CHAMFERB
 40
0.0
  9
$CHAMFERC
 40
0.0
  9
$CHAMFERD
 40
0.0
  9
$SKPOLY
 70
     0
  9
$TDCREATE
 40
2457893.443910764
  9
$TDUCREATE
 40
2457893.110577431
  9
$TDUPDATE
 40
2457910.649603831
  9
$TDUUPDATE
 40
2457910.316270498
  9
$TDINDWG
 40
0.0049712153
  9
$TDUSRTIMER
 40
0.0049710417
  9
$USRTIMER
 70
     1
  9
$ANGBASE
 50
0.0
  9
$ANGDIR
 70
     0
  9
$PDMODE
 70
     0
  9
$PDSIZE
 40
0.0
  9
$PLINEWID
 40
0.0
  9
$SPLFRAME
 70
     0
  9
$SPLINETYPE
 70
     6
  9
$SPLINESEGS
 70
     8
  9
$HANDSEED
  5
1B72
  9
$SURFTAB1
 70
     6
  9
$SURFTAB2
 70
     6
  9
$SURFTYPE
 70
     6
  9
$SURFU
 70
     6
  9
$SURFV
 70
     6
  9
$UCSBASE
  2

  9
$UCSNAME
  2

  9
$UCSORG
 10
0.0
 20
0.0
 30
0.0
  9
$UCSXDIR
 10
1.0
 20
0.0
 30
0.0
  9
$UCSYDIR
 10
0.0
 20
1.0
 30
0.0
  9
$UCSORTHOREF
  2

  9
$UCSORTHOVIEW
 70
     0
  9
$UCSORGTOP
 10
0.0
 20
0.0
 30
0.0
  9
$UCSORGBOTTOM
 10
0.0
 20
0.0
 30
0.0
  9
$UCSORGLEFT
 10
0.0
 20
0.0
 30
0.0
  9
$UCSORGRIGHT
 10
0.0
 20
0.0
 30
0.0
  9
$UCSORGFRONT
 10
0.0
 20
0.0
 30
0.0
  9
$UCSORGBACK
 10
0.0
 20
0.0
 30
0.0
  9
$PUCSBASE
  2

  9
$PUCSNAME
  2

  9
$PUCSORG
 10
0.0
 20
0.0
 30
0.0
  9
$PUCSXDIR
 10
1.0
 20
0.0
 30
0.0
  9
$PUCSYDIR
 10
0.0
 20
1.0
 30
0.0
  9
$PUCSORTHOREF
  2

  9
$PUCSORTHOVIEW
 70
     0
  9
$PUCSORGTOP
 10
0.0
 20
0.0
 30
0.0
  9
$PUCSORGBOTTOM
 10
0.0
 20
0.0
 30
0.0
  9
$PUCSORGLEFT
 10
0.0
 20
0.0
 30
0.0
  9
$PUCSORGRIGHT
 10
0.0
 20
0.0
 30
0.0
  9
$PUCSORGFRONT
 10
0.0
 20
0.0
 30
0.0
  9
$PUCSORGBACK
 10
0.0
 20
0.0
 30
0.0
  9
$USERI1
 70
     0
  9
$USERI2
 70
     0
  9
$USERI3
 70
     0
  9
$USERI4
 70
     0
  9
$USERI5
 70
     0
  9
$USERR1
 40
0.0
  9
$USERR2
 40
0.0
  9
$USERR3
 40
0.0
  9
$USERR4
 40
0.0
  9
$USERR5
 40
0.0
  9
$WORLDVIEW
 70
     1
  9
$SHADEDGE
 70
     3
  9
$SHADEDIF
 70
    70
  9
$TILEMODE
 70
     1
  9
$MAXACTVP
 70
    64
  9
$PINSBASE
 10
0.0
 20
0.0
 30
0.0
  9
$PLIMCHECK
 70
     0
  9
$PEXTMIN
 10
0.0
 20
0.0
 30
0.0
  9
$PEXTMAX
 10
0.0
 20
0.0
 30
0.0
  9
$PLIMMIN
 10
0.0
 20
0.0
  9
$PLIMMAX
 10
12.0
 20
9.0
  9
$UNITMODE
 70
     0
  9
$VISRETAIN
 70
     1
  9
$PLINEGEN
 70
     0
  9
$PSLTSCALE
 70
     1
  9
$TREEDEPTH
 70
  3020
  9
$CMLSTYLE
  2
Standard
  9
$CMLJUST
 70
     0
  9
$CMLSCALE
 40
1.0
  9
$PROXYGRAPHICS
 70
     1
  9
$MEASUREMENT
 70
     0
  9
$CELWEIGHT
370
    -1
  9
$ENDCAPS
280
     0
  9
$JOINSTYLE
280
     0
  9
$LWDISPLAY
290
     0
  9
$INSUNITS
 70
     1
  9
$HYPERLINKBASE
  1

  9
$STYLESHEET
  1

  9
$XEDIT
290
     1
  9
$CEPSNTYPE
380
     0
  9
$PSTYLEMODE
290
     1
  9
$FINGERPRINTGUID
  2
{FDEAD576-A652-11D2-9A35-0060089B3A3F}
  9
$VERSIONGUID
  2
{8D9B9809-BD14-41EB-88A5-EAA570C78879}
  9
$EXTNAMES
290
     1
  9
$PSVPSCALE
 40
0.0
  9
$OLESTARTUP
290
     0
  9
$SORTENTS
280
   127
  9
$INDEXCTL
280
     0
  9
$HIDETEXT
280
     1
  9
$XCLIPFRAME
290
     0
  9
$HALOGAP
280
     0
  9
$OBSCOLOR
 70
   257
  9
$OBSLTYPE
280
     0
  9
$INTERSECTIONDISPLAY
280
     0
  9
$INTERSECTIONCOLOR
 70
   257
  9
$DIMASSOC
280
     2
  9
$PROJECTNAME
  1

  0
ENDSEC
  0
SECTION
  2
CLASSES
  0
CLASS
  1
ACDBDICTIONARYWDFLT
  2
AcDbDictionaryWithDefault
  3
ObjectDBX Classes
 90
        0
 91
        1
280
     0
281
     0
  0
CLASS
  1
DICTIONARYVAR
  2
AcDbDictionaryVar
  3
ObjectDBX Classes
 90
        0
 91
        2
280
     0
281
     0
  0
ENDSEC
  0
SECTION
  2
TABLES
  0
TABLE
  2
VPORT
  5
8
330
0
100
AcDbSymbolTable
 70
     4
  0
VPORT
  5
1B71
330
8
100
AcDbSymbolTableRecord
100
AcDbViewportTableRecord
  2
*Active
 70
     0
 10
0.0
 20
0.0
 11
1.0
 21
1.0
 12
3800.584212369446
 22
1830.451364429173
 13
0.0
 23
0.0
 14
0.5
 24
0.5
 15
0.5
 25
0.5
 16
0.0
 26
0.0
 36
1.0
 17
0.0
 27
0.0
 37
0.0
 40
888.176161556645
 41
2.59437751004016
 42
50.0
 43
0.0
 44
0.0
 50
0.0
 51
0.0
 71
     0
 72
  1000
 73
     1
 74
     3
 75
     0
 76
     0
 77
     0
 78
     0
281
     0
 65
     1
110
0.0
120
0.0
130
0.0
111
1.0
121
0.0
131
0.0
112
0.0
122
1.0
132
0.0
 79
     0
146
0.0
  0
ENDTAB
  0
TABLE
  2
LTYPE
  5
5
330
0
100
AcDbSymbolTable
 70
     5
  0
LTYPE
  5
14
330
5
100
AcDbSymbolTableRecord
100
AcDbLinetypeTableRecord
  2
ByBlock
 70
     0
  3

 72
    65
 73
     0
 40
0.0
  0
LTYPE
  5
15
330
5
100
AcDbSymbolTableRecord
100
AcDbLinetypeTableRecord
  2
ByLayer
 70
     0
  3

 72
    65
 73
     0
 40
0.0
  0
LTYPE
  5
16
330
5
100
AcDbSymbolTableRecord
100
AcDbLinetypeTableRecord
  2
Continuous
 70
     0
  3
Solid line
 72
    65
 73
     0
 40
0.0
  0
LTYPE
  5
E4
330
5
100
AcDbSymbolTableRecord
100
AcDbLinetypeTableRecord
  2
DASHED2
 70
     0
  3
_ _ _ _ _ _ _ _ _ _ _ _ _ _ _ _ _ _ _ _ _ _ _ _
 72
    65
 73
     2
 40
0.375
 49
0.25
 74
     0
 49
-0.125
 74
     0
  0
LTYPE
  5
E5
330
5
100
AcDbSymbolTableRecord
100
AcDbLinetypeTableRecord
  2
CENTER
 70
     0
  3
Center ____ _ ____ _ ____ _ ____ _ ____ _ ____
 72
    65
 73
     4
 40
50.8
 49
31.75
 74
     0
 49
-6.349999999999999
 74
     0
 49
6.349999999999999
 74
     0
 49
-6.349999999999999
 74
     0
  0
LTYPE
  5
C0E
330
5
100
AcDbSymbolTableRecord
100
AcDbLinetypeTableRecord
  2
solid
 70
     0
  3

 72
    65
 73
     0
 40
0.0
  0
LTYPE
  5
129B
330
5
100
AcDbSymbolTableRecord
100
AcDbLinetypeTableRecord
  2
CENTER2
 70
     0
  3
___ _ ___ _ ___ _ ___ _ ___ _ ___ _ ___ _ ___ _
 72
    65
 73
     4
 40
1.125
 49
0.75
 74
     0
 49
-0.125
 74
     0
 49
0.125
 74
     0
 49
-0.125
 74
     0
  0
ENDTAB
  0
TABLE
  2
LAYER
  5
2
102
{ACAD_XDICTIONARY
360
F2
102
}
330
0
100
AcDbSymbolTable
 70
    12
  0
LAYER
  5
10
330
2
100
AcDbSymbolTableRecord
100
AcDbLayerTableRecord
  2
0
 70
     0
 62
     7
  6
Continuous
370
    -3
390
F
  0
LAYER
  5
E6
330
2
100
AcDbSymbolTableRecord
100
AcDbLayerTableRecord
  2
DIM
 70
     0
 62
     1
  6
Continuous
370
    -3
390
F
  0
LAYER
  5
E7
330
2
100
AcDbSymbolTableRecord
100
AcDbLayerTableRecord
  2
HATCH
 70
     0
 62
     3
  6
Continuous
370
    -3
390
F
  0
LAYER
  5
E8
330
2
100
AcDbSymbolTableRecord
100
AcDbLayerTableRecord
  2
DRAW
 70
     0
 62
     5
  6
Continuous
370
    -3
390
F
  0
LAYER
  5
E9
330
2
100
AcDbSymbolTableRecord
100
AcDbLayerTableRecord
  2
DEFPOINTS
 70
     0
 62
     7
  6
Continuous
290
     0
370
    -3
390
F
  0
LAYER
  5
EA
330
2
100
AcDbSymbolTableRecord
100
AcDbLayerTableRecord
  2
DESHED
 70
     0
 62
   190
  6
DASHED2
370
    -3
390
F
  0
LAYER
  5
EB
330
2
100
AcDbSymbolTableRecord
100
AcDbLayerTableRecord
  2
图框
 70
     0
 62
    80
  6
Continuous
370
    -3
390
F
  0
LAYER
  5
EC
330
2
100
AcDbSymbolTableRecord
100
AcDbLayerTableRecord
  2
粗实线
 70
     0
 62
     7
  6
Continuous
370
    60
390
F
  0
LAYER
  5
ED
330
2
100
AcDbSymbolTableRecord
100
AcDbLayerTableRecord
  2
文字层
 70
     0
 62
     3
  6
Continuous
370
    -3
390
F
  0
LAYER
  5
EE
330
2
100
AcDbSymbolTableRecord
100
AcDbLayerTableRecord
  2
图框_标题栏文字
 70
     0
 62
     7
  6
Continuous
370
    25
390
F
  0
LAYER
  5
C0F
330
2
100
AcDbSymbolTableRecord
100
AcDbLayerTableRecord
  2
5
 70
     0
 62
     0
  6
solid
370
    -3
390
F
  0
LAYER
  5
129C
330
2
100
AcDbSymbolTableRecord
100
AcDbLayerTableRecord
  2
CENTER
 70
     0
 62
     1
  6
CENTER2
370
    -3
390
F
  0
ENDTAB
  0
TABLE
  2
STYLE
  5
3
330
0
100
AcDbSymbolTable
 70
     3
  0
STYLE
  5
11
330
3
100
AcDbSymbolTableRecord
100
AcDbTextStyleTableRecord
  2
Standard
 70
     0
 40
0.0
 41
1.0
 50
0.0
 71
     0
 42
0.2
  3
txt
  4

  0
STYLE
  5
EF
330
3
100
AcDbSymbolTableRecord
100
AcDbTextStyleTableRecord
  2
SANSSERIFBOLDOBLIQUE
 70
     0
 40
0.0
 41
1.0
 50
0.0
 71
     0
 42
0.2
  3
sasbo___.pfb
  4

  0
STYLE
  5
F0
330
3
100
AcDbSymbolTableRecord
100
AcDbTextStyleTableRecord
  2
TFWZ
 70
     0
 40
0.0
 41
0.8
 50
0.0
 71
     0
 42
2.5
  3
gbenor.shx
  4
gbcbig.shx
  0
ENDTAB
  0
TABLE
  2
VIEW
  5
6
330
0
100
AcDbSymbolTable
 70
     0
  0
ENDTAB
  0
TABLE
  2
UCS
  5
7
330
0
100
AcDbSymbolTable
 70
     0
  0
ENDTAB
  0
TABLE
  2
APPID
  5
9
330
0
100
AcDbSymbolTable
 70
     1
  0
APPID
  5
12
330
9
100
AcDbSymbolTableRecord
100
AcDbRegAppTableRecord
  2
ACAD
 70
     0
  0
ENDTAB
  0
TABLE
  2
DIMSTYLE
  5
A
330
0
100
AcDbSymbolTable
 70
     3
100
AcDbDimStyleTable
 71
     0
  0
DIMSTYLE
105
27
330
A
100
AcDbSymbolTableRecord
100
AcDbDimStyleTableRecord
  2
Standard
 70
     0
340
11
  0
DIMSTYLE
105
F1
102
{ACAD_REACTORS
330
1765
330
1766
330
1767
330
1768
102
}
330
A
100
AcDbSymbolTableRecord
100
AcDbDimStyleTableRecord
  2
B
 70
     0
 40
7.62
 41
1.5
 42
0.3125
 43
0.7
 44
1.0
 73
     0
 74
     0
 77
     1
140
1.5
141
0.045
147
0.3
271
     1
289
     2
340
11
  0
DIMSTYLE
105
424
102
{ACAD_REACTORS
330
1759
330
175A
330
1763
330
1764
102
}
330
A
100
AcDbSymbolTableRecord
100
AcDbDimStyleTableRecord
  2
B$0
 70
     0
 40
1.679999999999999
 41
1.0
 42
0.0
 43
0.0
 44
1.5
 73
     0
 74
     0
 77
     1
 78
     8
 79
     2
140
1.9
141
0.1
147
0.6
172
     1
179
     2
271
     2
272
     2
288
     1
289
     2
340
11
  0
ENDTAB
  0
TABLE
  2
BLOCK_RECORD
  5
1
330
0
100
AcDbSymbolTable
 70
    38
  0
BLOCK_RECORD
  5
1F
330
1
100
AcDbSymbolTableRecord
100
AcDbBlockTableRecord
  2
*Model_Space
340
22
  0
BLOCK_RECORD
  5
58
330
1
100
AcDbSymbolTableRecord
100
AcDbBlockTableRecord
  2
*Paper_Space
340
59
  0
BLOCK_RECORD
  5
5D
330
1
100
AcDbSymbolTableRecord
100
AcDbBlockTableRecord
  2
*Paper_Space0
340
5E
  0
BLOCK_RECORD
  5
8F
330
1
100
AcDbSymbolTableRecord
100
AcDbBlockTableRecord
  2
_Dot
340
0
  0
BLOCK_RECORD
  5
1806
330
1
100
AcDbSymbolTableRecord
100
AcDbBlockTableRecord
  2
*D28
340
0
  0
BLOCK_RECORD
  5
1812
330
1
100
AcDbSymbolTableRecord
100
AcDbBlockTableRecord
  2
*D29
340
0
  0
BLOCK_RECORD
  5
181E
330
1
100
AcDbSymbolTableRecord
100
AcDbBlockTableRecord
  2
*D30
340
0
  0
BLOCK_RECORD
  5
182A
330
1
100
AcDbSymbolTableRecord
100
AcDbBlockTableRecord
  2
*D31
340
0
  0
BLOCK_RECORD
  5
1836
330
1
100
AcDbSymbolTableRecord
100
AcDbBlockTableRecord
  2
*D32
340
0
  0
BLOCK_RECORD
  5
183E
330
1
100
AcDbSymbolTableRecord
100
AcDbBlockTableRecord
  2
*D33
340
0
  0
BLOCK_RECORD
  5
1846
330
1
100
AcDbSymbolTableRecord
100
AcDbBlockTableRecord
  2
*D34
340
0
  0
BLOCK_RECORD
  5
184E
330
1
100
AcDbSymbolTableRecord
100
AcDbBlockTableRecord
  2
*D35
340
0
  0
ENDTAB
  0
ENDSEC
  0
SECTION
  2
BLOCKS
  0
BLOCK
  5
20
330
1F
100
AcDbEntity
  8
0
100
AcDbBlockBegin
  2
*Model_Space
 70
     0
 10
0.0
 20
0.0
 30
0.0
  3
*Model_Space
  1

  0
ENDBLK
  5
21
330
1F
100
AcDbEntity
  8
0
100
AcDbBlockEnd
  0
BLOCK
  5
5A
330
58
100
AcDbEntity
 67
     1
  8
0
100
AcDbBlockBegin
  2
*Paper_Space
 70
     0
 10
0.0
 20
0.0
 30
0.0
  3
*Paper_Space
  1

  0
ENDBLK
  5
5B
330
58
100
AcDbEntity
 67
     1
  8
0
100
AcDbBlockEnd
  0
BLOCK
  5
5F
330
5D
100
AcDbEntity
  8
0
100
AcDbBlockBegin
  2
*Paper_Space0
 70
     0
 10
0.0
 20
0.0
 30
0.0
  3
*Paper_Space0
  1

  0
ENDBLK
  5
60
330
5D
100
AcDbEntity
  8
0
100
AcDbBlockEnd
  0
BLOCK
  5
90
330
8F
100
AcDbEntity
  8
0
100
AcDbBlockBegin
  2
_Dot
 70
     0
 10
0.0
 20
0.0
 30
0.0
  3
_Dot
  1

  0
LWPOLYLINE
  5
91
330
8F
100
AcDbEntity
  8
0
  6
ByBlock
 62
     0
100
AcDbPolyline
 90
        2
 70
     1
 43
0.5
 10
-0.25
 20
0.0
 42
1.0
 10
0.25
 20
0.0
 42
1.0
  0
LINE
  5
92
330
8F
100
AcDbEntity
  8
0
  6
ByBlock
 62
     0
370
    -2
100
AcDbLine
 10
-0.5
 20
0.0
 30
0.0
 11
-1.0
 21
0.0
 31
0.0
  0
ENDBLK
  5
93
330
8F
100
AcDbEntity
  8
0
100
AcDbBlockEnd
  0
BLOCK
  5
1810
330
1806
100
AcDbEntity
  8
0
100
AcDbBlockBegin
  2
*D28
 70
     1
 10
0.0
 20
0.0
 30
0.0
  3
*D28
  1

  0
LINE
  5
1856
330
1806
100
AcDbEntity
  8
DIM
 62
     0
370
    -2
100
AcDbLine
 10
3171.471352782264
 20
1482.648466645952
 30
0.0
 11
3171.471352782264
 21
1490.268466645952
 31
0.0
  0
LINE
  5
1857
330
1806
100
AcDbEntity
  8
DIM
 62
     0
370
    -2
100
AcDbLine
 10
3709.471352782264
 20
1482.648466645952
 30
0.0
 11
3709.471352782264
 21
1490.268466645952
 31
0.0
  0
LINE
  5
1858
330
1806
100
AcDbEntity
  8
DIM
 62
     0
370
    -2
100
AcDbLine
 10
3194.331352782264
 20
1475.028466645952
 30
0.0
 11
3686.611352782264
 21
1475.028466645952
 31
0.0
  0
SOLID
  5
1859
330
1806
100
AcDbEntity
  8
DIM
 62
     0
100
AcDbTrace
 10
3194.331352782264
 20
1478.838466645952
 30
0.0
 11
3194.331352782264
 21
1471.218466645952
 31
0.0
 12
3171.471352782264
 22
1475.028466645952
 32
0.0
 13
3171.471352782264
 23
1475.028466645952
 33
0.0
  0
SOLID
  5
185A
330
1806
100
AcDbEntity
  8
DIM
 62
     0
100
AcDbTrace
 10
3686.611352782264
 20
1478.838466645952
 30
0.0
 11
3686.611352782264
 21
1471.218466645952
 31
0.0
 12
3709.471352782264
 22
1475.028466645952
 32
0.0
 13
3709.471352782264
 23
1475.028466645952
 33
0.0
  0
MTEXT
  5
185B
330
1806
100
AcDbEntity
  8
DIM
 62
     0
100
AcDbMText
 10
3440.471352782264
 20
1494.078466645952
 30
0.0
 40
22.86
 41
0.0
 71
     5
 72
     1
  1
\A1;538.0
 73
     1
 44
1.0
  0
POINT
  5
185C
330
1806
100
AcDbEntity
  8
DEFPOINTS
 62
     0
100
AcDbPoint
 10
3171.471352782264
 20
1475.028466645952
 30
0.0
  0
POINT
  5
185D
330
1806
100
AcDbEntity
  8
DEFPOINTS
 62
     0
100
AcDbPoint
 10
3709.471352782264
 20
1475.028466645952
 30
0.0
  0
POINT
  5
185E
330
1806
100
AcDbEntity
  8
DEFPOINTS
 62
     0
100
AcDbPoint
 10
3709.471352782264
 20
1475.028466645952
 30
0.0
  0
ENDBLK
  5
1811
330
1806
100
AcDbEntity
  8
0
100
AcDbBlockEnd
  0
BLOCK
  5
181C
330
1812
100
AcDbEntity
  8
0
100
AcDbBlockBegin
  2
*D29
 70
     1
 10
0.0
 20
0.0
 30
0.0
  3
*D29
  1

  0
LINE
  5
185F
330
1812
100
AcDbEntity
  8
DIM
 62
     0
370
    -2
100
AcDbLine
 10
3093.526987580836
 20
1940.627705223464
 30
0.0
 11
3085.906987580836
 21
1940.627705223464
 31
0.0
  0
LINE
  5
1860
330
1812
100
AcDbEntity
  8
DIM
 62
     0
370
    -2
100
AcDbLine
 10
3093.526987580836
 20
1537.627705223465
 30
0.0
 11
3085.906987580836
 21
1537.627705223465
 31
0.0
  0
LINE
  5
1861
330
1812
100
AcDbEntity
  8
DIM
 62
     0
370
    -2
100
AcDbLine
 10
3101.146987580837
 20
1917.767705223464
 30
0.0
 11
3101.146987580837
 21
1560.487705223465
 31
0.0
  0
SOLID
  5
1862
330
1812
100
AcDbEntity
  8
DIM
 62
     0
100
AcDbTrace
 10
3097.336987580836
 20
1917.767705223464
 30
0.0
 11
3104.956987580836
 21
1917.767705223464
 31
0.0
 12
3101.146987580837
 22
1940.627705223464
 32
0.0
 13
3101.146987580837
 23
1940.627705223464
 33
0.0
  0
SOLID
  5
1863
330
1812
100
AcDbEntity
  8
DIM
 62
     0
100
AcDbTrace
 10
3097.336987580836
 20
1560.487705223465
 30
0.0
 11
3104.956987580836
 21
1560.487705223465
 31
0.0
 12
3101.146987580837
 22
1537.627705223465
 32
0.0
 13
3101.146987580837
 23
1537.627705223465
 33
0.0
  0
MTEXT
  5
1864
330
1812
100
AcDbEntity
  8
DIM
 62
     0
100
AcDbMText
 10
3082.096987580836
 20
1739.127705223465
 30
0.0
 40
22.86
 41
0.0
 71
     5
 72
     1
  1
\A1;403.0
 11
0.0000000000000001
 21
1.0
 31
0.0
 73
     1
 44
1.0
  0
POINT
  5
1865
330
1812
100
AcDbEntity
  8
DEFPOINTS
 62
     0
100
AcDbPoint
 10
3101.146987580837
 20
1940.627705223464
 30
0.0
  0
POINT
  5
1866
330
1812
100
AcDbEntity
  8
DEFPOINTS
 62
     0
100
AcDbPoint
 10
3101.146987580837
 20
1537.627705223465
 30
0.0
  0
POINT
  5
1867
330
1812
100
AcDbEntity
  8
DEFPOINTS
 62
     0
100
AcDbPoint
 10
3101.146987580837
 20
1537.627705223465
 30
0.0
  0
ENDBLK
  5
181D
330
1812
100
AcDbEntity
  8
0
100
AcDbBlockEnd
  0
BLOCK
  5
1828
330
181E
100
AcDbEntity
  8
0
100
AcDbBlockBegin
  2
*D30
 70
     1
 10
0.0
 20
0.0
 30
0.0
  3
*D30
  1

  0
LINE
  5
1868
330
181E
100
AcDbEntity
  8
DIM
 62
     0
370
    -2
100
AcDbLine
 10
3015.729151647493
 20
1946.977705223465
 30
0.0
 11
3008.109151647494
 21
1946.977705223465
 31
0.0
  0
LINE
  5
1869
330
181E
100
AcDbEntity
  8
DIM
 62
     0
370
    -2
100
AcDbLine
 10
3015.729151647493
 20
1531.277705223465
 30
0.0
 11
3008.109151647494
 21
1531.277705223465
 31
0.0
  0
LINE
  5
186A
330
181E
100
AcDbEntity
  8
DIM
 62
     0
370
    -2
100
AcDbLine
 10
3023.349151647494
 20
1924.117705223465
 30
0.0
 11
3023.349151647494
 21
1554.137705223465
 31
0.0
  0
SOLID
  5
186B
330
181E
100
AcDbEntity
  8
DIM
 62
     0
100
AcDbTrace
 10
3019.539151647494
 20
1924.117705223465
 30
0.0
 11
3027.159151647493
 21
1924.117705223465
 31
0.0
 12
3023.349151647494
 22
1946.977705223465
 32
0.0
 13
3023.349151647494
 23
1946.977705223465
 33
0.0
  0
SOLID
  5
186C
330
181E
100
AcDbEntity
  8
DIM
 62
     0
100
AcDbTrace
 10
3019.539151647494
 20
1554.137705223465
 30
0.0
 11
3027.159151647493
 21
1554.137705223465
 31
0.0
 12
3023.349151647494
 22
1531.277705223465
 32
0.0
 13
3023.349151647494
 23
1531.277705223465
 33
0.0
  0
MTEXT
  5
186D
330
181E
100
AcDbEntity
  8
DIM
 62
     0
100
AcDbMText
 10
3004.299151647493
 20
1739.127705223465
 30
0.0
 40
22.86
 41
0.0
 71
     5
 72
     1
  1
\A1;415.7
 11
0.0000000000000001
 21
1.0
 31
0.0
 73
     1
 44
1.0
  0
POINT
  5
186E
330
181E
100
AcDbEntity
  8
DEFPOINTS
 62
     0
100
AcDbPoint
 10
3023.349151647494
 20
1946.977705223465
 30
0.0
  0
POINT
  5
186F
330
181E
100
AcDbEntity
  8
DEFPOINTS
 62
     0
100
AcDbPoint
 10
3023.349151647494
 20
1531.277705223465
 30
0.0
  0
POINT
  5
1870
330
181E
100
AcDbEntity
  8
DEFPOINTS
 62
     0
100
AcDbPoint
 10
3023.349151647494
 20
1531.277705223465
 30
0.0
  0
ENDBLK
  5
1829
330
181E
100
AcDbEntity
  8
0
100
AcDbBlockEnd
  0
BLOCK
  5
1834
330
182A
100
AcDbEntity
  8
0
100
AcDbBlockBegin
  2
*D31
 70
     1
 10
0.0
 20
0.0
 30
0.0
  3
*D31
  1

  0
LINE
  5
1871
330
182A
100
AcDbEntity
  8
DIM
 62
     0
370
    -2
100
AcDbLine
 10
3165.121352782265
 20
1422.998654944583
 30
0.0
 11
3165.121352782265
 21
1430.618654944584
 31
0.0
  0
LINE
  5
1872
330
182A
100
AcDbEntity
  8
DIM
 62
     0
370
    -2
100
AcDbLine
 10
3715.821352782265
 20
1422.998654944583
 30
0.0
 11
3715.821352782265
 21
1430.618654944584
 31
0.0
  0
LINE
  5
1873
330
182A
100
AcDbEntity
  8
DIM
 62
     0
370
    -2
100
AcDbLine
 10
3187.981352782265
 20
1415.378654944583
 30
0.0
 11
3692.961352782265
 21
1415.378654944583
 31
0.0
  0
SOLID
  5
1874
330
182A
100
AcDbEntity
  8
DIM
 62
     0
100
AcDbTrace
 10
3187.981352782265
 20
1419.188654944583
 30
0.0
 11
3187.981352782265
 21
1411.568654944584
 31
0.0
 12
3165.121352782265
 22
1415.378654944583
 32
0.0
 13
3165.121352782265
 23
1415.378654944583
 33
0.0
  0
SOLID
  5
1875
330
182A
100
AcDbEntity
  8
DIM
 62
     0
100
AcDbTrace
 10
3692.961352782265
 20
1419.188654944583
 30
0.0
 11
3692.961352782265
 21
1411.568654944584
 31
0.0
 12
3715.821352782265
 22
1415.378654944583
 32
0.0
 13
3715.821352782265
 23
1415.378654944583
 33
0.0
  0
MTEXT
  5
1876
330
182A
100
AcDbEntity
  8
DIM
 62
     0
100
AcDbMText
 10
3440.471352782264
 20
1434.428654944583
 30
0.0
 40
22.86
 41
0.0
 71
     5
 72
     1
  1
\A1;550.7
 73
     1
 44
1.0
  0
POINT
  5
1877
330
182A
100
AcDbEntity
  8
DEFPOINTS
 62
     0
100
AcDbPoint
 10
3165.121352782265
 20
1415.378654944583
 30
0.0
  0
POINT
  5
1878
330
182A
100
AcDbEntity
  8
DEFPOINTS
 62
     0
100
AcDbPoint
 10
3715.821352782265
 20
1415.378654944583
 30
0.0
  0
POINT
  5
1879
330
182A
100
AcDbEntity
  8
DEFPOINTS
 62
     0
100
AcDbPoint
 10
3715.821352782265
 20
1415.378654944583
 30
0.0
  0
ENDBLK
  5
1835
330
182A
100
AcDbEntity
  8
0
100
AcDbBlockEnd
  0
BLOCK
  5
183C
330
1836
100
AcDbEntity
  8
0
100
AcDbBlockBegin
  2
*D32
 70
     1
 10
0.0
 20
0.0
 30
0.0
  3
*D32
  1

  0
LINE
  5
187A
330
1836
100
AcDbEntity
  8
DIM
 62
     0
370
    -2
100
AcDbLine
 10
3271.971352782264
 20
1840.127705223465
 30
0.0
 11
3217.976538970461
 21
1895.917755245205
 31
0.0
  0
SOLID
  5
187B
330
1836
100
AcDbEntity
  8
DIM
 62
     0
100
AcDbTrace
 10
3220.71430417632
 20
1898.567423465491
 30
0.0
 11
3215.238773764602
 21
1893.26808702492
 31
0.0
 12
3202.078529648747
 22
1912.344346480355
 32
0.0
 13
3202.078529648747
 23
1912.344346480355
 33
0.0
  0
MTEXT
  5
187C
330
1836
100
AcDbEntity
  8
DIM
 62
     0
100
AcDbMText
 10
3258.662771905653
 20
1881.271071335764
 30
0.0
 40
22.86
 41
0.0
 71
     5
 72
     1
  1
\A1;R100.5
 11
0.6954509764529267
 21
-0.718573544844695
 31
0.0
 73
     1
 44
1.0
  0
POINT
  5
187D
330
1836
100
AcDbEntity
  8
DEFPOINTS
 62
     0
100
AcDbPoint
 10
3202.078529648747
 20
1912.344346480355
 30
0.0
  0
POINT
  5
187E
330
1836
100
AcDbEntity
  8
DEFPOINTS
 62
     0
100
AcDbPoint
 10
3271.971352782264
 20
1840.127705223465
 30
0.0
  0
ENDBLK
  5
183D
330
1836
100
AcDbEntity
  8
0
100
AcDbBlockEnd
  0
BLOCK
  5
1844
330
183E
100
AcDbEntity
  8
0
100
AcDbBlockBegin
  2
*D33
 70
     1
 10
0.0
 20
0.0
 30
0.0
  3
*D33
  1

  0
LINE
  5
187F
330
183E
100
AcDbEntity
  8
DIM
 62
     0
370
    -2
100
AcDbLine
 10
3608.971352782272
 20
1840.127705223465
 30
0.0
 11
3663.639592174756
 21
1895.258034459968
 31
0.0
  0
SOLID
  5
1880
330
183E
100
AcDbEntity
  8
DIM
 62
     0
100
AcDbTrace
 10
3660.93420121145
 20
1897.94074945334
 30
0.0
 11
3666.344983138061
 21
1892.575319466596
 31
0.0
 12
3679.735882134985
 22
1911.490380239805
 32
0.0
 13
3679.735882134985
 23
1911.490380239805
 33
0.0
  0
MTEXT
  5
1881
330
183E
100
AcDbEntity
  8
DIM
 62
     0
100
AcDbMText
 10
3621.668670173757
 20
1879.987216201469
 30
0.0
 40
22.86
 41
0.0
 71
     5
 72
     1
  1
\A1;R100.5
 11
0.7041246701762926
 21
0.7100763683218359
 31
0.0
 73
     1
 44
1.0
  0
POINT
  5
1882
330
183E
100
AcDbEntity
  8
DEFPOINTS
 62
     0
100
AcDbPoint
 10
3679.735882134985
 20
1911.490380239805
 30
0.0
  0
POINT
  5
1883
330
183E
100
AcDbEntity
  8
DEFPOINTS
 62
     0
100
AcDbPoint
 10
3608.971352782272
 20
1840.127705223465
 30
0.0
  0
ENDBLK
  5
1845
330
183E
100
AcDbEntity
  8
0
100
AcDbBlockEnd
  0
BLOCK
  5
184C
330
1846
100
AcDbEntity
  8
0
100
AcDbBlockBegin
  2
*D34
 70
     1
 10
0.0
 20
0.0
 30
0.0
  3
*D34
  1

  0
LINE
  5
1884
330
1846
100
AcDbEntity
  8
DIM
 62
     0
370
    -2
100
AcDbLine
 10
3608.971352782263
 20
1638.127705223466
 30
0.0
 11
3667.713677757599
 21
1587.360502656334
 31
0.0
  0
SOLID
  5
1885
330
1846
100
AcDbEntity
  8
DIM
 62
     0
100
AcDbTrace
 10
3670.204958563637
 20
1590.243143796932
 30
0.0
 11
3665.222396951561
 21
1584.477861515736
 31
0.0
 12
3685.009524601187
 22
1572.412817820107
 32
0.0
 13
3685.009524601187
 23
1572.412817820107
 33
0.0
  0
MTEXT
  5
1886
330
1846
100
AcDbEntity
  8
DIM
 62
     0
100
AcDbMText
 10
3650.077563678578
 20
1627.780730778793
 30
0.0
 40
22.86
 41
0.0
 71
     5
 72
     1
  1
\A1;R100.5
 11
0.7565987245663944
 21
-0.6538794766503268
 31
0.0
 73
     1
 44
1.0
  0
POINT
  5
1887
330
1846
100
AcDbEntity
  8
DEFPOINTS
 62
     0
100
AcDbPoint
 10
3685.009524601187
 20
1572.412817820107
 30
0.0
  0
POINT
  5
1888
330
1846
100
AcDbEntity
  8
DEFPOINTS
 62
     0
100
AcDbPoint
 10
3608.971352782263
 20
1638.127705223466
 30
0.0
  0
ENDBLK
  5
184D
330
1846
100
AcDbEntity
  8
0
100
AcDbBlockEnd
  0
BLOCK
  5
1854
330
184E
100
AcDbEntity
  8
0
100
AcDbBlockBegin
  2
*D35
 70
     1
 10
0.0
 20
0.0
 30
0.0
  3
*D35
  1

  0
LINE
  5
1889
330
184E
100
AcDbEntity
  8
DIM
 62
     0
370
    -2
100
AcDbLine
 10
3271.971352782265
 20
1638.127705223465
 30
0.0
 11
3217.972860609349
 21
1582.341215433805
 31
0.0
  0
SOLID
  5
188A
330
184E
100
AcDbEntity
  8
DIM
 62
     0
100
AcDbTrace
 10
3215.235270113489
 20
1584.991064160992
 30
0.0
 11
3220.71045110521
 21
1579.691366706618
 31
0.0
 12
3202.073768246226
 22
1565.915672458643
 32
0.0
 13
3202.073768246226
 23
1565.915672458643
 33
0.0
  0
MTEXT
  5
188B
330
184E
100
AcDbEntity
  8
DIM
 62
     0
100
AcDbMText
 10
3234.796186691371
 20
1627.112026829079
 30
0.0
 40
22.86
 41
0.0
 71
     5
 72
     1
  1
\A1;R100.5
 11
0.6954983535924068
 21
0.7185276892021989
 31
0.0
 73
     1
 44
1.0
  0
POINT
  5
188C
330
184E
100
AcDbEntity
  8
DEFPOINTS
 62
     0
100
AcDbPoint
 10
3202.073768246226
 20
1565.915672458643
 30
0.0
  0
POINT
  5
188D
330
184E
100
AcDbEntity
  8
DEFPOINTS
 62
     0
100
AcDbPoint
 10
3271.971352782265
 20
1638.127705223465
 30
0.0
  0
ENDBLK
  5
1855
330
184E
100
AcDbEntity
  8
0
100
AcDbBlockEnd
  0
ENDSEC
  0
SECTION
  2
ENTITIES
  0
LINE
  5
1751
330
1F
100
AcDbEntity
  8
DESHED
100
AcDbLine
 10
3171.471352782264
 20
1840.127705223465
 30
0.0
 11
3171.471352782264
 21
1638.127705223465
 31
0.0
  0
ARC
  5
1752
330
1F
100
AcDbEntity
  8
DESHED
100
AcDbCircle
 10
3271.971352782264
 20
1638.127705223465
 30
0.0
 40
100.5
100
AcDbArc
 50
180.0
 51
270.0
  0
LINE
  5
1753
330
1F
100
AcDbEntity
  8
DESHED
100
AcDbLine
 10
3271.971352782264
 20
1537.627705223465
 30
0.0
 11
3608.971352782265
 21
1537.627705223465
 31
0.0
  0
ARC
  5
1754
330
1F
100
AcDbEntity
  8
DESHED
100
AcDbCircle
 10
3608.971352782265
 20
1638.127705223465
 30
0.0
 40
100.5
100
AcDbArc
 50
270.0
 51
0.0
  0
LINE
  5
1755
330
1F
100
AcDbEntity
  8
DESHED
100
AcDbLine
 10
3709.471352782264
 20
1840.127705223465
 30
0.0
 11
3709.471352782264
 21
1638.127705223465
 31
0.0
  0
ARC
  5
1756
330
1F
100
AcDbEntity
  8
DESHED
100
AcDbCircle
 10
3608.971352782265
 20
1840.127705223465
 30
0.0
 40
100.5
100
AcDbArc
 50
0.0
 51
90.0
  0
LINE
  5
1757
330
1F
100
AcDbEntity
  8
DESHED
100
AcDbLine
 10
3271.971352782264
 20
1940.627705223464
 30
0.0
 11
3608.971352782265
 21
1940.627705223464
 31
0.0
  0
ARC
  5
1758
330
1F
100
AcDbEntity
  8
DESHED
100
AcDbCircle
 10
3271.971352782264
 20
1840.127705223465
 30
0.0
 40
100.5
100
AcDbArc
 50
90.0
 51
180.0
  0
DIMENSION
  5
1759
330
1F
100
AcDbEntity
  8
DIM
100
AcDbDimension
  2
*D28
 10
3709.471352782264
 20
1475.028466645952
 30
0.0
 11
3440.471352782264
 21
1494.078466645952
 31
0.0
 70
    32
 71
     5
 42
538.0
  3
B$0
100
AcDbAlignedDimension
 13
3171.471352782264
 23
1475.028466645952
 33
0.0
 14
3709.471352782264
 24
1475.028466645952
 34
0.0
100
AcDbRotatedDimension
1001
ACAD
1000
DSTYLE
1002
{
1070
    40
1040
7.62
1070
    41
1040
3.0
1070
    42
1040
1.0
1070
    44
1040
2.0
1070
    78
1070
     0
1070
    79
1070
     0
1070
   140
1040
3.0
1070
   141
1040
0.045
1070
   147
1040
1.0
1070
   271
1070
     1
1070
   272
1070
     4
1002
}
  0
DIMENSION
  5
175A
330
1F
100
AcDbEntity
  8
DIM
100
AcDbDimension
  2
*D29
 10
3101.146987580837
 20
1537.627705223465
 30
0.0
 11
3082.096987580836
 21
1739.127705223465
 31
0.0
 70
    32
 71
     5
 42
402.9999999999995
  3
B$0
100
AcDbAlignedDimension
 13
3101.146987580837
 23
1940.627705223464
 33
0.0
 14
3101.146987580837
 24
1537.627705223465
 34
0.0
 50
90.0
100
AcDbRotatedDimension
1001
ACAD
1000
DSTYLE
1002
{
1070
    40
1040
7.62
1070
    41
1040
3.0
1070
    42
1040
1.0
1070
    44
1040
2.0
1070
    78
1070
     0
1070
    79
1070
     0
1070
   140
1040
3.0
1070
   141
1040
0.045
1070
   147
1040
1.0
1070
   271
1070
     1
1070
   272
1070
     4
1002
}
  0
LINE
  5
175B
330
1F
100
AcDbEntity
  8
0
 62
     5
100
AcDbLine
 10
3271.971352782264
 20
1946.977705223465
 30
0.0
 11
3608.971352782265
 21
1946.977705223465
 31
0.0
  0
ARC
  5
175C
330
1F
100
AcDbEntity
  8
0
 62
     5
100
AcDbCircle
 10
3608.971352782265
 20
1840.127705223465
 30
0.0
 40
106.85
100
AcDbArc
 50
0.0
 51
90.0
  0
LINE
  5
175D
330
1F
100
AcDbEntity
  8
0
 62
     5
100
AcDbLine
 10
3715.821352782265
 20
1840.127705223465
 30
0.0
 11
3715.821352782265
 21
1638.127705223465
 31
0.0
  0
ARC
  5
175E
330
1F
100
AcDbEntity
  8
0
 62
     5
100
AcDbCircle
 10
3608.971352782265
 20
1638.127705223465
 30
0.0
 40
106.85
100
AcDbArc
 50
270.0
 51
0.0
  0
LINE
  5
175F
330
1F
100
AcDbEntity
  8
0
 62
     5
100
AcDbLine
 10
3271.971352782264
 20
1531.277705223464
 30
0.0
 11
3608.971352782265
 21
1531.277705223464
 31
0.0
  0
ARC
  5
1760
330
1F
100
AcDbEntity
  8
0
 62
     5
100
AcDbCircle
 10
3271.971352782264
 20
1638.127705223465
 30
0.0
 40
106.85
100
AcDbArc
 50
180.0
 51
270.0
  0
LINE
  5
1761
330
1F
100
AcDbEntity
  8
0
 62
     5
100
AcDbLine
 10
3165.121352782265
 20
1840.127705223465
 30
0.0
 11
3165.121352782265
 21
1638.127705223465
 31
0.0
  0
ARC
  5
1762
330
1F
100
AcDbEntity
  8
0
 62
     5
100
AcDbCircle
 10
3271.971352782264
 20
1840.127705223465
 30
0.0
 40
106.85
100
AcDbArc
 50
90.0
 51
180.0
  0
DIMENSION
  5
1763
330
1F
100
AcDbEntity
  8
DIM
100
AcDbDimension
  2
*D30
 10
3023.349151647494
 20
1531.277705223465
 30
0.0
 11
3004.299151647493
 21
1739.127705223465
 31
0.0
 70
    32
 71
     5
 42
415.7
  3
B$0
100
AcDbAlignedDimension
 13
3023.349151647494
 23
1946.977705223465
 33
0.0
 14
3023.349151647494
 24
1531.277705223465
 34
0.0
 50
90.0
100
AcDbRotatedDimension
1001
ACAD
1000
DSTYLE
1002
{
1070
    40
1040
7.62
1070
    41
1040
3.0
1070
    42
1040
1.0
1070
    44
1040
2.0
1070
    78
1070
     0
1070
    79
1070
     0
1070
   140
1040
3.0
1070
   141
1040
0.045
1070
   147
1040
1.0
1070
   271
1070
     1
1070
   272
1070
     4
1002
}
  0
DIMENSION
  5
1764
330
1F
100
AcDbEntity
  8
DIM
100
AcDbDimension
  2
*D31
 10
3715.821352782265
 20
1415.378654944583
 30
0.0
 11
3440.471352782264
 21
1434.428654944583
 31
0.0
 70
    32
 71
     5
 42
550.6999999999997
  3
B$0
100
AcDbAlignedDimension
 13
3165.121352782265
 23
1415.378654944583
 33
0.0
 14
3715.821352782265
 24
1415.378654944583
 34
0.0
100
AcDbRotatedDimension
1001
ACAD
1000
DSTYLE
1002
{
1070
    40
1040
7.62
1070
    41
1040
3.0
1070
    42
1040
1.0
1070
    44
1040
2.0
1070
    78
1070
     0
1070
    79
1070
     0
1070
   140
1040
3.0
1070
   141
1040
0.045
1070
   147
1040
1.0
1070
   271
1070
     1
1070
   272
1070
     4
1002
}
  0
DIMENSION
  5
1765
330
1F
100
AcDbEntity
  8
DIM
100
AcDbDimension
  2
*D32
 10
3271.971352782264
 20
1840.127705223465
 30
0.0
 11
3244.973945876361
 21
1868.022730234336
 31
0.0
 70
   164
 71
     5
 42
100.4999999999966
  3
B
100
AcDbRadialDimension
 15
3202.078529648747
 25
1912.344346480355
 35
0.0
 40
0.0
1001
ACAD
1000
DSTYLE
1002
{
1070
    41
1040
3.0
1070
    42
1040
1.0
1070
    44
1040
2.0
1070
   140
1040
3.0
1070
   147
1040
1.0
1002
}
  0
DIMENSION
  5
1766
330
1F
100
AcDbEntity
  8
DIM
100
AcDbDimension
  2
*D33
 10
3608.971352782272
 20
1840.127705223465
 30
0.0
 11
3635.195624990288
 21
1866.573641234611
 31
0.0
 70
   164
 71
     5
 42
100.4999999999945
  3
B
100
AcDbRadialDimension
 15
3679.735882134985
 25
1911.490380239805
 35
0.0
 40
0.0
1001
ACAD
1000
DSTYLE
1002
{
1070
    41
1040
3.0
1070
    42
1040
1.0
1070
    44
1040
2.0
1070
   140
1040
3.0
1070
   147
1040
1.0
1002
}
  0
DIMENSION
  5
1767
330
1F
100
AcDbEntity
  8
DIM
100
AcDbDimension
  2
*D34
 10
3608.971352782263
 20
1638.127705223466
 30
0.0
 11
3637.62115964839
 21
1613.367525075803
 31
0.0
 70
   164
 71
     5
 42
100.500000000002
  3
B
100
AcDbRadialDimension
 15
3685.009524601187
 25
1572.412817820107
 35
0.0
 40
0.0
1001
ACAD
1000
DSTYLE
1002
{
1070
    41
1040
3.0
1070
    42
1040
1.0
1070
    44
1040
2.0
1070
   140
1040
3.0
1070
   147
1040
1.0
1002
}
  0
DIMENSION
  5
1768
330
1F
100
AcDbEntity
  8
DIM
100
AcDbDimension
  2
*D35
 10
3271.971352782265
 20
1638.127705223465
 30
0.0
 11
3248.484139170673
 21
1613.862783193144
 31
0.0
 70
   164
 71
     5
 42
100.5000000000018
  3
B
100
AcDbRadialDimension
 15
3202.073768246226
 25
1565.915672458643
 35
0.0
 40
0.0
1001
ACAD
1000
DSTYLE
1002
{
1070
    41
1040
3.0
1070
    42
1040
1.0
1070
    44
1040
2.0
1070
   140
1040
3.0
1070
   147
1040
1.0
1002
}
  0
LWPOLYLINE
  5
1769
330
1F
100
AcDbEntity
  8
0
 62
     0
100
AcDbPolyline
 90
        2
 70
     0
 10
3536.870051864487
 20
1542.945993940325
 40
3.0084784128
 41
0.5014130687999999
 10
3542.188340581346
 20
1537.627705223465
 40
0.5014130687999999
 41
0.5014130687999999
  0
MTEXT
  5
176A
330
1F
100
AcDbEntity
  8
0
 62
     0
100
AcDbMText
 10
3389.84031651632
 20
1556.759618523815
 30
0.0
 40
6.0
 41
315.6503843244575
 71
     1
 72
     5
  1
{\fBatang|b0|i0|c0|p18;\H0.9259x;Use this line for FLUSH MOUNT CUT\H1.08x;}
 73
     1
 44
1.0
  0
LWPOLYLINE
  5
176B
330
1F
100
AcDbEntity
  8
0
 62
     0
100
AcDbPolyline
 90
        2
 70
     0
 43
0.8128
 10
3529.732924916989
 20
1550.08312088782
 10
3536.917129813846
 20
1542.898915990965
  0
MTEXT
  5
176C
330
1F
100
AcDbEntity
  8
0
 62
     0
100
AcDbMText
 10
3291.629037812749
 20
1677.646587690689
 30
0.0
 40
6.0
 41
315.6503843244575
 71
     1
 72
     5
  1
{\fBatang|b1|i0|c0|p18;Use outside line for reveal mount cut:\fBatang|b0|i0|c0|p18;\PSink rim is 1/4" revealed from the coutnertop opening.}
 73
     1
 44
1.0
  0
MTEXT
  5
176D
330
1F
100
AcDbEntity
  8
0
 62
     0
100
AcDbMText
 10
3291.629037812749
 20
1649.378362455065
 30
0.0
 40
6.0
 41
315.6503843244575
 71
     1
 72
     5
  1
{\fBatang|b1|i0|c0|p18;Use inside line for flush mount cut:\fBatang|b0|i0|c0|p18;\PSink wall is flush to the edge of countertop opening.}
 73
     1
 44
1.0
  0
MTEXT
  5
176E
330
1F
100
AcDbEntity
  8
0
 62
     0
100
AcDbMText
 10
3291.629037812749
 20
1625.036279410816
 30
0.0
 40
6.0
 41
315.6503843244575
 71
     1
 72
     5
  1
{\fBatang|b0|i0|c0|p18;Please check actual template against physical sink unit for most accurate cut!}
 73
     1
 44
1.0
  0
LWPOLYLINE
  5
17E7
330
1F
100
AcDbEntity
  8
0
  6
DASHED2
 62
     2
100
AcDbPolyline
 90
        4
 70
     1
 43
0.0
 10
3289.579290544758
 20
1823.088835579516
 10
3426.896983558491
 20
1823.088835579516
 10
3426.896983558491
 20
1760.374382805331
 10
3289.579290544758
 20
1760.374382805331
  0
MTEXT
  5
1894
330
1F
100
AcDbEntity
  8
0
 62
     5
100
AcDbMText
 10
3271.235521104247
 20
2040.462555536652
 30
0.0
 40
40.0
 41
1280.242424242424
 71
     1
 72
     5
  1
KK2318{\fSimSun|b0|i0|c134|p2;(}B{\fSimSun|b0|i0|c134|p2;)}
 73
     1
 44
1.0
  0
ARC
  5
18C8
330
1F
100
AcDbEntity
  8
0
100
AcDbCircle
 10
3856.267832733227
 20
1806.948126111716
 30
0.0
 40
21.0
100
AcDbArc
 50
90.0
 51
180.0
  0
ARC
  5
18C9
330
1F
100
AcDbEntity
  8
0
100
AcDbCircle
 10
3856.267832733227
 20
1758.948126111716
 30
0.0
 40
21.0
100
AcDbArc
 50
180.0
 51
270.0
  0
ARC
  5
18CA
330
1F
100
AcDbEntity
  8
0
100
AcDbCircle
 10
3931.267832733227
 20
1806.948126111716
 30
0.0
 40
21.0
100
AcDbArc
 50
0.0
 51
90.0
  0
CIRCLE
  5
18CB
330
1F
100
AcDbEntity
  8
0
100
AcDbCircle
 10
3893.767832733227
 20
1783.053526858542
 30
0.0
 40
11.4
  0
CIRCLE
  5
18CC
330
1F
100
AcDbEntity
  8
0
100
AcDbCircle
 10
3893.767832733227
 20
1783.053526858542
 30
0.0
 40
8.8
  0
LINE
  5
18CD
330
1F
100
AcDbEntity
  8
0
100
AcDbLine
 10
3856.267832733227
 20
1827.948126111716
 30
0.0
 11
3931.267832733227
 21
1827.948126111716
 31
0.0
  0
LINE
  5
18CE
330
1F
100
AcDbEntity
  8
0
100
AcDbLine
 10
3860.267832733227
 20
1822.948126111716
 30
0.0
 11
3927.267832733227
 21
1822.948126111716
 31
0.0
  0
LINE
  5
18CF
330
1F
100
AcDbEntity
  8
0
100
AcDbLine
 10
3856.267832733227
 20
1737.948126111716
 30
0.0
 11
3931.267832733227
 21
1737.948126111716
 31
0.0
  0
LINE
  5
18D0
330
1F
100
AcDbEntity
  8
0
100
AcDbLine
 10
3860.267832733227
 20
1742.948126111716
 30
0.0
 11
3927.267832733227
 21
1742.948126111716
 31
0.0
  0
ARC
  5
18D1
330
1F
100
AcDbEntity
  8
0
100
AcDbCircle
 10
3860.267832733227
 20
1762.948126111716
 30
0.0
 40
20.0
100
AcDbArc
 50
180.0
 51
270.0
  0
ARC
  5
18D2
330
1F
100
AcDbEntity
  8
0
100
AcDbCircle
 10
3860.267832733227
 20
1802.948126111716
 30
0.0
 40
20.0
100
AcDbArc
 50
90.0
 51
180.0
  0
LINE
  5
18D3
330
1F
100
AcDbEntity
  8
0
100
AcDbLine
 10
3840.267832733227
 20
1802.948126111716
 30
0.0
 11
3840.267832733227
 21
1762.948126111716
 31
0.0
  0
LINE
  5
18D4
330
1F
100
AcDbEntity
  8
0
100
AcDbLine
 10
3835.267832733227
 20
1806.948126111716
 30
0.0
 11
3835.267832733227
 21
1757.948126111716
 31
0.0
  0
ARC
  5
18D5
330
1F
100
AcDbEntity
  8
0
100
AcDbCircle
 10
3927.267832733227
 20
1762.948126111716
 30
0.0
 40
20.0
100
AcDbArc
 50
270.0
 51
0.0
  0
ARC
  5
18D6
330
1F
100
AcDbEntity
  8
0
100
AcDbCircle
 10
3931.267832733227
 20
1758.948126111716
 30
0.0
 40
21.0
100
AcDbArc
 50
270.0
 51
0.0
  0
ARC
  5
18D7
330
1F
100
AcDbEntity
  8
0
100
AcDbCircle
 10
3927.267832733227
 20
1802.948126111716
 30
0.0
 40
20.0
100
AcDbArc
 50
0.0
 51
90.0
  0
LINE
  5
18D8
330
1F
100
AcDbEntity
  8
0
100
AcDbLine
 10
3947.267832733227
 20
1802.948126111716
 30
0.0
 11
3947.267832733227
 21
1762.948126111716
 31
0.0
  0
LINE
  5
18D9
330
1F
100
AcDbEntity
  8
0
100
AcDbLine
 10
3952.267832733227
 20
1806.948126111716
 30
0.0
 11
3952.267832733227
 21
1758.948126111716
 31
0.0
  0
LINE
  5
18DA
330
1F
100
AcDbEntity
  8
0
100
AcDbLine
 10
3861.191567245878
 20
1628.706226867064
 30
-49.17567052175948
 11
3928.191567239178
 21
1628.706226867064
 31
-49.17567052175948
  0
LINE
  5
18DB
330
1F
100
AcDbEntity
  8
0
100
AcDbLine
 10
3928.191567239178
 20
1548.706226875064
 30
-49.17567052175948
 11
3861.191567245878
 21
1548.706226875064
 31
-49.17567052175948
  0
ARC
  5
18DC
330
1F
100
AcDbEntity
  8
0
100
AcDbCircle
 10
-3861.191567245878
 20
1608.706226869064
 30
49.17567052175948
 40
19.999999998
210
0.0
220
0.0
230
-1.0
100
AcDbArc
 50
0.0
 51
90.0
  0
ARC
  5
18DD
330
1F
100
AcDbEntity
  8
0
100
AcDbCircle
 10
-3861.191567245878
 20
1568.706226873064
 30
49.17567052175948
 40
19.999999998
210
0.0
220
0.0
230
-1.0
100
AcDbArc
 50
270.0
 51
0.0
  0
LINE
  5
18DE
330
1F
100
AcDbEntity
  8
0
100
AcDbLine
 10
3841.191567247878
 20
1568.706226873064
 30
-49.17567052175948
 11
3841.191567247878
 21
1608.706226869064
 31
-49.17567052175948
  0
ARC
  5
18DF
330
1F
100
AcDbEntity
  8
0
100
AcDbCircle
 10
-3928.191567239178
 20
1608.706226869064
 30
49.17567052175948
 40
19.999999998
210
0.0
220
0.0
230
-1.0
100
AcDbArc
 50
90.0
 51
180.0
  0
ARC
  5
18E0
330
1F
100
AcDbEntity
  8
0
100
AcDbCircle
 10
-3928.191567239178
 20
1568.706226873064
 30
49.17567052175948
 40
19.999999998
210
0.0
220
0.0
230
-1.0
100
AcDbArc
 50
180.0
 51
270.0
  0
LINE
  5
18E1
330
1F
100
AcDbEntity
  8
0
100
AcDbLine
 10
3948.191567237178
 20
1608.706226869064
 30
-49.17567052175948
 11
3948.191567237178
 21
1568.706226873064
 31
-49.17567052175948
  0
LINE
  5
18E2
330
1F
100
AcDbEntity
  8
0
 62
     5
100
AcDbLine
 10
3861.191567245878
 20
1633.706226866564
 30
0.0
 11
3928.191567239178
 21
1633.706226866564
 31
0.0
  0
LINE
  5
18E3
330
1F
100
AcDbEntity
  8
0
 62
     5
100
AcDbLine
 10
3861.191567245878
 20
1632.706226866664
 30
0.0
 11
3928.191567239178
 21
1632.706226866664
 31
0.0
  0
LINE
  5
18E4
330
1F
100
AcDbEntity
  8
0
 62
     5
100
AcDbLine
 10
3861.191567245878
 20
1543.706226875564
 30
0.0
 11
3928.191567239178
 21
1543.706226875564
 31
0.0
  0
LINE
  5
18E5
330
1F
100
AcDbEntity
  8
0
 62
     5
100
AcDbLine
 10
3861.191567245878
 20
1544.706226875464
 30
0.0
 11
3928.191567239178
 21
1544.706226875464
 31
0.0
  0
ARC
  5
18E6
330
1F
100
AcDbEntity
  8
0
 62
     5
100
AcDbCircle
 10
3861.191567245878
 20
1608.706226869064
 30
0.0
 40
24.9999999975
100
AcDbArc
 50
90.0
 51
180.0
  0
ARC
  5
18E7
330
1F
100
AcDbEntity
  8
0
 62
     5
100
AcDbCircle
 10
3861.191567245878
 20
1608.706226869064
 30
0.0
 40
23.9999999976
100
AcDbArc
 50
90.0
 51
180.0
  0
ARC
  5
18E8
330
1F
100
AcDbEntity
  8
0
 62
     5
100
AcDbCircle
 10
3861.191567245878
 20
1568.706226873064
 30
0.0
 40
24.9999999975
100
AcDbArc
 50
180.0
 51
270.0
  0
ARC
  5
18E9
330
1F
100
AcDbEntity
  8
0
 62
     5
100
AcDbCircle
 10
3861.191567245878
 20
1568.706226873064
 30
0.0
 40
23.9999999976
100
AcDbArc
 50
180.0
 51
270.0
  0
LINE
  5
18EA
330
1F
100
AcDbEntity
  8
0
 62
     5
100
AcDbLine
 10
3836.191567248377
 20
1608.706226869064
 30
0.0
 11
3836.191567248377
 21
1568.706226873064
 31
0.0
  0
LINE
  5
18EB
330
1F
100
AcDbEntity
  8
0
 62
     5
100
AcDbLine
 10
3837.191567248278
 20
1608.706226869064
 30
0.0
 11
3837.191567248278
 21
1568.706226873064
 31
0.0
  0
CIRCLE
  5
18EC
330
1F
100
AcDbEntity
  8
0
100
AcDbCircle
 10
3894.691567242528
 20
1588.811627617879
 30
0.0
 40
9.20060374652126
  0
CIRCLE
  5
18ED
330
1F
100
AcDbEntity
  8
0
100
AcDbCircle
 10
3894.691567242528
 20
1588.811627617879
 30
0.0
 40
11.39999999886
  0
ARC
  5
18EE
330
1F
100
AcDbEntity
  8
0
 62
     5
100
AcDbCircle
 10
3928.191567239178
 20
1608.706226869064
 30
0.0
 40
24.9999999975
100
AcDbArc
 50
0.0
 51
90.0
  0
ARC
  5
18EF
330
1F
100
AcDbEntity
  8
0
 62
     5
100
AcDbCircle
 10
3928.191567239178
 20
1608.706226869064
 30
0.0
 40
23.9999999976
100
AcDbArc
 50
0.0
 51
90.0
  0
ARC
  5
18F0
330
1F
100
AcDbEntity
  8
0
 62
     5
100
AcDbCircle
 10
3928.191567239178
 20
1568.706226873064
 30
0.0
 40
24.9999999975
100
AcDbArc
 50
270.0
 51
0.0
  0
ARC
  5
18F1
330
1F
100
AcDbEntity
  8
0
 62
     5
100
AcDbCircle
 10
3928.191567239178
 20
1568.706226873064
 30
0.0
 40
23.9999999976
100
AcDbArc
 50
270.0
 51
0.0
  0
LINE
  5
18F2
330
1F
100
AcDbEntity
  8
0
 62
     5
100
AcDbLine
 10
3953.191567236678
 20
1608.706226869064
 30
0.0
 11
3953.191567236678
 21
1568.706226873064
 31
0.0
  0
LINE
  5
18F3
330
1F
100
AcDbEntity
  8
0
 62
     5
100
AcDbLine
 10
3952.191567236777
 20
1608.706226869064
 30
0.0
 11
3952.191567236777
 21
1568.706226873064
 31
0.0
  0
MTEXT
  5
18F4
330
1F
100
AcDbEntity
  8
0
 62
     5
100
AcDbMText
 10
3831.52168187579
 20
1888.943543610857
 30
0.0
 40
40.0
 41
1280.242424242424
 71
     1
 72
     5
  1
2318{\fSimSun|b0|i0|c134|p2;}
 73
     1
 44
1.0
  0
MTEXT
  5
18F5
330
1F
100
AcDbEntity
  8
0
 62
     5
100
AcDbMText
 10
3822.259739929644
 20
1697.608378677804
 30
0.0
 40
40.0
 41
1280.242424242424
 71
     1
 72
     5
  1
2318B
 73
     1
 44
1.0
  0
HATCH
  5
1AD8
330
1F
100
AcDbEntity
  8
0
  6
ByBlock
 62
     0
100
AcDbHatch
 10
0.0
 20
0.0
 30
0.0
210
0.0
220
0.0
230
1.0
  2
ANSI31
 70
     0
 71
     1
 91
        1
 92
        5
 93
        9
 72
     4
 94
        3
 73
     0
 74
     0
 95
       10
 96
        6
 40
168.1890314628042
 40
168.1890314628042
 40
168.1890314628042
 40
168.1890314628042
 40
240.3970488653276
 40
404.4385438063731
 40
531.2097876496541
 40
531.2097876496541
 40
531.2097876496541
 40
531.2097876496541
 10
3539.266988988314
 20
1815.908715882311
 10
3540.226772718794
 20
1814.931946115016
 10
3542.585409173032
 20
1811.354299918175
 10
3540.593415686972
 20
1803.112907482627
 10
3543.136290804243
 20
1798.007308056834
 10
3544.640849499484
 20
1795.924887869705
 72
     1
 10
3544.640849499483
 20
1795.924887869706
 11
3587.237176639447
 21
1795.924887869705
 72
     1
 10
3587.237176639447
 20
1795.924887869705
 11
3587.237176639447
 21
1804.180347135272
 72
     1
 10
3587.237176639447
 20
1804.180347135272
 11
3593.837176639448
 21
1804.180347135272
 72
     1
 10
3593.837176639448
 20
1804.180347135272
 11
3593.837176639448
 21
1795.924887869705
 72
     1
 10
3593.837176639448
 20
1795.924887869705
 11
3629.114552910852
 21
1795.924887869706
 72
     1
 10
3629.114552910852
 20
1795.924887869706
 11
3629.114552910852
 21
1812.908715882312
 72
     2
 10
3626.114552910852
 20
1812.908715882312
 40
2.999999999999999
 50
0.0
 51
90.0
 73
     1
 72
     1
 10
3626.114552910852
 20
1815.908715882312
 11
3539.266988988314
 21
1815.908715882312
 97
        9
330
1B20
330
1B1F
330
1B24
330
1B1E
330
1B6E
330
1ADA
330
1AD9
330
1B22
330
1B21
 75
     0
 76
     1
 52
0.0
 41
0.6000000000000001
 77
     0
 78
     1
 53
45.0
 43
3203.327076571476
 44
1775.288389461642
 45
-1.347038418160372
 46
1.347038418160373
 79
     0
 47
2.847268091439218
 98
        1
 10
3561.364024450411
 20
1807.796947027181
  0
LINE
  5
1AD9
102
{ACAD_REACTORS
330
1AD8
102
}
330
1F
100
AcDbEntity
  8
0
  6
ByBlock
 62
     0
100
AcDbLine
 10
3593.837176639448
 20
1795.924887869705
 30
0.0
 11
3593.837176639448
 21
1804.180347135272
 31
0.0
  0
LINE
  5
1ADA
102
{ACAD_REACTORS
330
1AD8
102
}
330
1F
100
AcDbEntity
  8
0
  6
ByBlock
 62
     0
100
AcDbLine
 10
3587.237176639447
 20
1804.180347135272
 30
0.0
 11
3593.837176639448
 21
1804.180347135272
 31
0.0
  0
HATCH
  5
1ADB
330
1F
100
AcDbEntity
  8
DESHED
  6
ByBlock
 62
     0
100
AcDbHatch
 10
0.0
 20
0.0
 30
0.0
210
0.0
220
0.0
230
1.0
  2
ANSI31
 70
     0
 71
     0
 91
        2
 92
        7
 72
     0
 73
     1
 93
       12
 10
3589.185832945226
 20
1802.261942120903
 10
3588.737176639448
 20
1802.581589710415
 10
3589.167013129095
 20
1802.920039585712
 10
3588.737176639448
 20
1803.258490043087
 10
3589.175291943927
 20
1803.580347135271
 10
3587.837176639447
 20
1803.580347135271
 10
3587.837176639447
 20
1800.92324447216
 10
3589.117597255369
 20
1800.92324447216
 10
3589.242293489775
 20
1801.002154630718
 10
3588.737176639448
 20
1801.32180222023
 10
3589.223473673641
 20
1801.56623833829
 10
3588.737176639448
 20
1801.979900267116
 97
        0
 92
        7
 72
     0
 73
     1
 93
       13
 10
3593.237176639448
 20
1803.580347135271
 10
3591.899061334964
 20
1803.580347135271
 10
3592.337176639447
 20
1803.258490043087
 10
3591.907340149799
 20
1802.920039585712
 10
3592.305774843384
 20
1802.590986633613
 10
3592.337176639447
 20
1802.581589710415
 10
3591.888520333666
 20
1802.261942120903
 10
3592.337176639447
 20
1801.979900267117
 10
3591.85087960525
 20
1801.56623833829
 10
3592.337176639447
 20
1801.32180222023
 10
3591.832059789118
 20
1801.002154630718
 10
3591.956756023526
 20
1800.92324447216
 10
3593.237176639448
 20
1800.92324447216
 97
        0
 75
     0
 76
     1
 52
270.0
 41
0.06
 77
     0
 78
     1
 53
315.0
 43
3203.327076571476
 44
1775.288389461642
 45
0.1347038418160373
 46
0.1347038418160372
 79
     0
 47
0.4906110457808098
 98
        2
 10
3588.443174352992
 20
1802.049700721099
 10
3592.833307481152
 20
1801.725897628847
  0
HATCH
  5
1ADC
330
1F
100
AcDbEntity
  8
DESHED
  6
ByBlock
 62
     0
100
AcDbHatch
 10
0.0
 20
0.0
 30
0.0
210
0.0
220
0.0
230
1.0
  2
ANSI31
 70
     0
 71
     0
 91
        2
 92
        7
 72
     0
 73
     1
 93
        9
 10
3593.837176639447
 20
1804.180347135272
 10
3591.764886757736
 20
1804.180347135272
 10
3591.764886757736
 20
1803.580347135271
 10
3593.237176639448
 20
1803.580347135271
 10
3593.237176639448
 20
1795.324887869705
 10
3593.260914231515
 20
1795.324887869705
 10
3594.437176639446
 20
1795.324887869705
 10
3594.437176639446
 20
1795.924887869705
 10
3593.837176639447
 20
1795.924887869705
 97
        0
 92
        7
 72
     0
 73
     1
 93
        8
 10
3589.297097326004
 20
1804.180347135272
 10
3587.237176639447
 20
1804.180347135272
 10
3587.237176639447
 20
1795.924887869705
 10
3586.637176639448
 20
1795.924887869705
 10
3586.637176639448
 20
1795.324887869705
 10
3587.837176639447
 20
1795.324887869705
 10
3587.837176639447
 20
1803.580347135271
 10
3589.297097326004
 20
1803.580347135271
 97
        0
 75
     0
 76
     1
 52
0.0
 41
0.12
 77
     0
 78
     1
 53
45.0
 43
3203.327076571476
 44
1775.288389461642
 45
-0.2694076836320746
 46
0.2694076836320747
 79
     0
 47
0.9928036230062964
 98
        2
 10
3592.986099745647
 20
1803.879956120242
 10
3587.679608880219
 20
1803.760819724473
  0
LINE
  5
1ADD
330
1F
100
AcDbEntity
  8
DESHED
  6
ByBlock
 62
     0
100
AcDbLine
 10
3588.737176639448
 20
1796.249151920382
 30
0.0
 11
3589.309166923067
 21
1795.656055576053
 31
0.0
  0
LINE
  5
1ADE
330
1F
100
AcDbEntity
  8
DESHED
  6
ByBlock
 62
     0
100
AcDbLine
 10
3589.309166923067
 20
1795.656055576053
 30
0.0
 11
3588.737176639448
 21
1795.14291604272
 31
0.0
  0
LINE
  5
1ADF
330
1F
100
AcDbEntity
  8
DESHED
  6
ByBlock
 62
     0
100
AcDbLine
 10
3588.737176639448
 20
1795.14291604272
 30
0.0
 11
3589.309166923067
 21
1794.59237960238
 31
0.0
  0
LINE
  5
1AE0
330
1F
100
AcDbEntity
  8
DESHED
  6
ByBlock
 62
     0
100
AcDbLine
 10
3589.309166923067
 20
1794.59237960238
 30
0.0
 11
3588.737176639448
 21
1793.944925189785
 31
0.0
  0
LINE
  5
1AE1
330
1F
100
AcDbEntity
  8
DESHED
  6
ByBlock
 62
     0
100
AcDbLine
 10
3588.737176639448
 20
1793.944925189785
 30
0.0
 11
3589.309166923067
 21
1793.343717195722
 31
0.0
  0
LINE
  5
1AE2
330
1F
100
AcDbEntity
  8
DESHED
  6
ByBlock
 62
     0
100
AcDbLine
 10
3589.309166923067
 20
1793.343717195722
 30
0.0
 11
3588.737176639448
 21
1792.811878829455
 31
0.0
  0
LINE
  5
1AE3
330
1F
100
AcDbEntity
  8
DESHED
  6
ByBlock
 62
     0
100
AcDbLine
 10
3588.737176639448
 20
1792.811878829455
 30
0.0
 11
3589.309166923067
 21
1792.280041222049
 31
0.0
  0
LINE
  5
1AE4
330
1F
100
AcDbEntity
  8
DESHED
  6
ByBlock
 62
     0
100
AcDbLine
 10
3589.309166923067
 20
1792.280041222049
 30
0.0
 11
3588.737176639448
 21
1791.86381966097
 31
0.0
  0
LINE
  5
1AE5
330
1F
100
AcDbEntity
  8
DESHED
  6
ByBlock
 62
     0
100
AcDbLine
 10
3591.765186355825
 20
1792.280041222049
 30
0.0
 11
3592.337176639448
 21
1791.86381966097
 31
0.0
  0
LINE
  5
1AE6
330
1F
100
AcDbEntity
  8
DESHED
  6
ByBlock
 62
     0
100
AcDbLine
 10
3592.337176639448
 20
1792.811878829455
 30
0.0
 11
3591.765186355825
 21
1792.280041222049
 31
0.0
  0
LINE
  5
1AE7
330
1F
100
AcDbEntity
  8
DESHED
  6
ByBlock
 62
     0
100
AcDbLine
 10
3591.765186355825
 20
1793.343717195722
 30
0.0
 11
3592.337176639448
 21
1792.811878829455
 31
0.0
  0
LINE
  5
1AE8
330
1F
100
AcDbEntity
  8
DESHED
  6
ByBlock
 62
     0
100
AcDbLine
 10
3592.337176639448
 20
1793.944925189785
 30
0.0
 11
3591.765186355825
 21
1793.343717195722
 31
0.0
  0
LINE
  5
1AE9
330
1F
100
AcDbEntity
  8
DESHED
  6
ByBlock
 62
     0
100
AcDbLine
 10
3591.765186355825
 20
1794.59237960238
 30
0.0
 11
3592.337176639448
 21
1793.944925189785
 31
0.0
  0
LINE
  5
1AEA
330
1F
100
AcDbEntity
  8
DESHED
  6
ByBlock
 62
     0
100
AcDbLine
 10
3592.337176639448
 20
1795.14291604272
 30
0.0
 11
3591.765186355825
 21
1794.59237960238
 31
0.0
  0
LINE
  5
1AEB
330
1F
100
AcDbEntity
  8
DESHED
  6
ByBlock
 62
     0
100
AcDbLine
 10
3589.167013129095
 20
1802.920039585712
 30
0.0
 11
3588.737176639448
 21
1802.581589710415
 31
0.0
  0
LINE
  5
1AEC
330
1F
100
AcDbEntity
  8
DESHED
  6
ByBlock
 62
     0
100
AcDbLine
 10
3591.9073401498
 20
1802.920039585712
 30
0.0
 11
3592.305774843387
 21
1802.590986633613
 31
0.0
  0
LINE
  5
1AED
330
1F
100
AcDbEntity
  8
DESHED
  6
ByBlock
 62
     0
100
AcDbLine
 10
3589.297097326004
 20
1803.581673441426
 30
0.0
 11
3589.297097326004
 21
1804.180347135272
 31
0.0
  0
LINE
  5
1AEE
330
1F
100
AcDbEntity
  8
DESHED
  6
ByBlock
 62
     0
100
AcDbLine
 10
3591.764886757736
 20
1803.590760348786
 30
0.0
 11
3591.764886757736
 21
1804.180347135272
 31
0.0
  0
LINE
  5
1AEF
330
1F
100
AcDbEntity
  8
DESHED
  6
ByBlock
 62
     0
100
AcDbLine
 10
3587.837176639447
 20
1795.324887869705
 30
0.0
 11
3593.260914231515
 21
1795.324887869705
 31
0.0
  0
LINE
  5
1AF0
330
1F
100
AcDbEntity
  8
DESHED
  6
ByBlock
 62
     0
100
AcDbLine
 10
3591.899061334964
 20
1803.580347135271
 30
0.0
 11
3592.337176639448
 21
1803.258490043087
 31
0.0
  0
LINE
  5
1AF1
330
1F
100
AcDbEntity
  8
DESHED
  6
ByBlock
 62
     0
100
AcDbLine
 10
3589.175291943931
 20
1803.580347135271
 30
0.0
 11
3588.737176639448
 21
1803.258490043087
 31
0.0
  0
LINE
  5
1AF2
330
1F
100
AcDbEntity
  8
DESHED
  6
ByBlock
 62
     0
100
AcDbLine
 10
3586.637176639449
 20
1795.924887869705
 30
0.0
 11
3587.237176639447
 21
1795.924887869705
 31
0.0
  0
LINE
  5
1AF3
330
1F
100
AcDbEntity
  8
DESHED
  6
ByBlock
 62
     0
100
AcDbLine
 10
3593.837176639448
 20
1795.924887869705
 30
0.0
 11
3594.437176639446
 21
1795.924887869705
 31
0.0
  0
LINE
  5
1AF4
330
1F
100
AcDbEntity
  8
DESHED
 62
     0
100
AcDbLine
 10
3593.837176639448
 20
1795.954907124247
 30
0.0
 11
3594.437176639446
 21
1795.924887869705
 31
0.0
  0
LINE
  5
1AF5
330
1F
100
AcDbEntity
  8
DESHED
  6
ByBlock
 62
     0
100
AcDbLine
 10
3589.477097326003
 20
1804.180347135272
 30
0.0
 11
3593.837176639448
 21
1804.180347135272
 31
0.0
  0
LINE
  5
1AF6
330
1F
100
AcDbEntity
  8
DESHED
  6
ByBlock
 62
     0
100
AcDbLine
 10
3591.956756023526
 20
1800.92324447216
 30
0.0
 11
3593.237176639448
 21
1800.92324447216
 31
0.0
  0
LINE
  5
1AF7
330
1F
100
AcDbEntity
  8
DESHED
  6
ByBlock
 62
     0
100
AcDbLine
 10
3591.764886757736
 20
1803.580347135271
 30
0.0
 11
3593.237176639448
 21
1803.580347135271
 31
0.0
  0
LINE
  5
1AF8
330
1F
100
AcDbEntity
  8
DESHED
  6
ByBlock
 62
     0
100
AcDbLine
 10
3587.237176639447
 20
1804.180347135272
 30
0.0
 11
3589.477097326003
 21
1804.180347135272
 31
0.0
  0
LINE
  5
1AF9
330
1F
100
AcDbEntity
  8
DESHED
  6
ByBlock
 62
     0
370
     0
100
AcDbLine
 10
3593.237176639448
 20
1803.580347135271
 30
0.0
 11
3593.237176639448
 21
1795.324887869705
 31
0.0
  0
LINE
  5
1AFA
330
1F
100
AcDbEntity
  8
DESHED
  6
ByBlock
 62
     0
370
     0
100
AcDbLine
 10
3587.837176639447
 20
1795.324887869705
 30
0.0
 11
3587.837176639447
 21
1803.580347135271
 31
0.0
  0
LINE
  5
1AFB
330
1F
100
AcDbEntity
  8
DIM
 62
     0
100
AcDbLine
 10
3592.937176639446
 20
1790.902415796317
 30
0.0
 11
3592.937176639446
 21
1788.80143034428
 31
0.0
  0
LINE
  5
1AFC
330
1F
100
AcDbEntity
  8
DIM
 62
     0
100
AcDbLine
 10
3588.137176639449
 20
1791.049482811148
 30
0.0
 11
3588.137176639449
 21
1788.948497359111
 31
0.0
  0
LINE
  5
1AFD
330
1F
100
AcDbEntity
  8
DESHED
  6
ByBlock
 62
     0
100
AcDbLine
 10
3593.260914231515
 20
1795.324887869705
 30
0.0
 11
3594.437176639446
 21
1795.324887869705
 31
0.0
  0
LINE
  5
1AFE
330
1F
100
AcDbEntity
  8
DESHED
  6
ByBlock
 62
     0
100
AcDbLine
 10
3586.637176639449
 20
1795.324887869705
 30
0.0
 11
3587.81343904738
 21
1795.324887869705
 31
0.0
  0
LINE
  5
1AFF
330
1F
100
AcDbEntity
  8
DESHED
  6
ByBlock
 62
     0
370
     0
100
AcDbLine
 10
3586.637176639449
 20
1795.324887869705
 30
0.0
 11
3586.637176639449
 21
1795.924887869705
 31
0.0
  0
LINE
  5
1B00
330
1F
100
AcDbEntity
  8
DESHED
  6
ByBlock
 62
     0
370
     0
100
AcDbLine
 10
3594.437176639446
 20
1795.924887869705
 30
0.0
 11
3594.437176639446
 21
1795.324887869705
 31
0.0
  0
LINE
  5
1B01
330
1F
100
AcDbEntity
  8
DIM
 62
     0
100
AcDbLine
 10
3588.737176639448
 20
1791.86381966097
 30
0.0
 11
3588.737176639448
 21
1788.072746706303
 31
0.0
  0
LINE
  5
1B02
330
1F
100
AcDbEntity
  8
DIM
 62
     0
100
AcDbLine
 10
3592.337176639448
 20
1791.86381966097
 30
0.0
 11
3592.337176639448
 21
1788.072746706303
 31
0.0
  0
LINE
  5
1B03
330
1F
100
AcDbEntity
  8
DESHED
  6
ByBlock
 62
     0
100
AcDbLine
 10
3587.837176639447
 20
1800.92324447216
 30
0.0
 11
3589.117597255369
 21
1800.92324447216
 31
0.0
  0
LINE
  5
1B04
330
1F
100
AcDbEntity
  8
DESHED
  6
ByBlock
 62
     0
100
AcDbLine
 10
3587.837176639447
 20
1803.580347135271
 30
0.0
 11
3589.297097326004
 21
1803.580347135271
 31
0.0
  0
LINE
  5
1B05
330
1F
100
AcDbEntity
  8
DIM
 62
     0
100
AcDbLine
 10
3618.519044916507
 20
1794.638919703484
 30
0.0
 11
3618.537499234287
 21
1793.439061612643
 31
0.0
  0
LINE
  5
1B06
330
1F
100
AcDbEntity
  8
DIM
 62
     0
100
AcDbLine
 10
3619.250316814806
 20
1795.924887869705
 30
0.0
 11
3619.819436058712
 21
1794.658920261514
 31
0.0
  0
LINE
  5
1B07
330
1F
100
AcDbEntity
  8
DIM
 62
     0
100
AcDbLine
 10
3630.051896682861
 20
1795.924887869705
 30
0.0
 11
3630.310238091877
 21
1794.820273171446
 31
0.0
  0
LINE
  5
1B08
330
1F
100
AcDbEntity
  8
DIM
 62
     0
100
AcDbLine
 10
3634.45404471461
 20
1793.683864719327
 30
0.0
 11
3618.537499234287
 21
1793.439061612643
 31
0.0
  0
LEADER
  5
1B09
330
1F
100
AcDbEntity
  8
DIM
 62
     0
100
AcDbLeader
  3
B
 73
     0
 74
     0
 75
     1
 40
3.06366047745358
 41
9.851458885941642
 76
     3
 10
3637.953936149516
 20
1792.230921963103
 30
0.0
 10
3646.133463254469
 20
1801.568556755239
 30
0.0
 10
3657.563463254469
 20
1801.568556755239
 30
0.0
340
1B0A
213
0.0
223
-1.5
233
0.0
1001
ACAD
1000
DSTYLE
1002
{
1070
   147
1040
0.3
1070
    77
1070
     0
1002
}
  0
MTEXT
  5
1B0A
102
{ACAD_REACTORS
330
1B09
102
}
330
1F
100
AcDbEntity
  8
DIM
 62
     0
100
AcDbMText
 10
3659.849463254469
 20
1803.068556755239
 30
0.0
 40
3.0
 41
42.17142857142856
 71
     1
 72
     1
  1
{\fBatang|b0|i0|c0|p18;SINK}
 73
     1
 44
1.0
  0
MTEXT
  5
1B0B
102
{ACAD_REACTORS
330
1B0C
102
}
330
1F
100
AcDbEntity
  8
DIM
 62
     0
100
AcDbMText
 10
3562.307218147283
 20
1771.486649836709
 30
0.0
 40
3.0
 41
37.45714285714285
 71
     9
 72
     1
  1
{\fBatang|b0|i0|c0|p18;SCREWS}
 73
     1
 44
1.0
  0
LEADER
  5
1B0C
330
1F
100
AcDbEntity
  8
DIM
 62
     0
100
AcDbLeader
  3
B
 73
     0
 75
     1
 40
3.071618037135278
 41
16.92572944297082
 76
     3
 10
3588.122188633766
 20
1786.60078243103
 30
0.0
 10
3576.023218147283
 20
1772.986649836709
 30
0.0
 10
3564.593218147283
 20
1772.986649836709
 30
0.0
340
1B0B
213
0.0
223
1.5
233
0.0
1001
ACAD
1000
DSTYLE
1002
{
1070
   147
1040
0.3
1070
    77
1070
     0
1002
}
  0
MTEXT
  5
1B0D
102
{ACAD_REACTORS
330
1B0E
102
}
330
1F
100
AcDbEntity
  8
DIM
 62
     0
100
AcDbMText
 10
3550.113358713205
 20
1778.807566739872
 30
0.0
 40
3.0
 41
48.17142857142857
 71
     9
 72
     1
  1
{\fBatang|b0|i0|c0|p18;FASTENER}
 73
     1
 44
1.0
  0
LEADER
  5
1B0E
330
1F
100
AcDbEntity
  8
DIM
 62
     0
100
AcDbLeader
  3
B
 73
     0
 75
     1
 40
3.06366047745358
 41
22.43236074270557
 76
     3
 10
3571.977208813139
 20
1789.443621989939
 30
0.0
 10
3563.829358713205
 20
1780.307566739872
 30
0.0
 10
3552.399358713206
 20
1780.307566739872
 30
0.0
340
1B0D
213
0.0
223
1.5
233
0.0
1001
ACAD
1000
DSTYLE
1002
{
1070
   147
1040
0.3
1070
    77
1070
     0
1002
}
  0
LINE
  5
1B0F
330
1F
100
AcDbEntity
  8
DIM
 62
     0
370
     0
100
AcDbLine
 10
3598.937176639446
 20
1790.718582027779
 30
0.0
 11
3598.937176639446
 21
1788.617596575742
 31
0.0
  0
LINE
  5
1B10
330
1F
100
AcDbEntity
  8
DIM
 62
     0
100
AcDbLine
 10
3582.137176639449
 20
1791.233316579686
 30
0.0
 11
3582.137176639449
 21
1789.132331127649
 31
0.0
  0
LINE
  5
1B11
330
1F
100
AcDbEntity
  8
DIM
 62
     0
370
     0
100
AcDbLine
 10
3625.346737385809
 20
1787.808435062835
 30
0.0
 11
3627.553163459506
 21
1792.682222686854
 31
0.0
  0
LINE
  5
1B12
330
1F
100
AcDbEntity
  8
DIM
 62
     0
370
     0
100
AcDbLine
 10
3592.937176639446
 20
1788.80143034428
 30
0.0
 11
3625.346737385809
 21
1787.808435062835
 31
0.0
  0
LINE
  5
1B13
330
1F
100
AcDbEntity
  8
DIM
 62
     0
370
     0
100
AcDbLine
 10
3624.011231305019
 20
1789.950339034161
 30
0.0
 11
3592.937176639446
 21
1790.902415796317
 31
0.0
  0
LINE
  5
1B14
330
1F
100
AcDbEntity
  8
DIM
 62
     0
370
     0
100
AcDbLine
 10
3625.640075305069
 20
1793.548302194385
 30
0.0
 11
3624.011231305019
 21
1789.950339034161
 31
0.0
  0
LINE
  5
1B15
330
1F
100
AcDbEntity
  8
DIM
 62
     0
370
     0
100
AcDbLine
 10
3627.553163459506
 20
1792.682222686854
 30
0.0
 11
3625.640075305069
 21
1793.548302194385
 31
0.0
  0
ARC
  5
1B16
330
1F
100
AcDbEntity
  8
DIM
 62
     0
370
     0
100
AcDbCircle
 10
3634.490953350168
 20
1791.284148537646
 30
0.0
 40
3.59999999999999
100
AcDbArc
 50
1.83944125196927
 51
90.8811635037197
  0
LINE
  5
1B17
330
1F
100
AcDbEntity
  8
DIM
 62
     0
370
     0
100
AcDbLine
 10
3639.025771797579
 20
1761.834817550006
 30
0.0
 11
3638.089098273845
 21
1791.399704187463
 31
0.0
  0
LINE
  5
1B18
330
1F
100
AcDbEntity
  8
DIM
 62
     0
370
     0
100
AcDbLine
 10
3637.851973330156
 20
1761.398660594174
 30
0.0
 11
3639.025771797579
 21
1761.834817550006
 31
0.0
  0
LINE
  5
1B19
330
1F
100
AcDbEntity
  8
DIM
 62
     0
370
     0
100
AcDbLine
 10
3636.88971663262
 20
1791.361185637524
 30
0.0
 11
3637.851973330156
 21
1761.398660594174
 31
0.0
  0
ARC
  5
1B1A
330
1F
100
AcDbEntity
  8
DIM
 62
     0
370
     0
100
AcDbCircle
 10
3634.490953350168
 20
1791.284148537646
 30
0.0
 40
2.399999999999972
100
AcDbArc
 50
1.83944125196927
 51
90.8811635037197
  0
LINE
  5
1B1B
330
1F
100
AcDbEntity
  8
DIM
 62
     0
370
     0
100
AcDbLine
 10
3618.537499234287
 20
1793.439061612643
 30
0.0
 11
3634.45404471461
 21
1793.683864719327
 31
0.0
  0
LINE
  5
1B1C
330
1F
100
AcDbEntity
  8
DIM
 62
     0
370
     0
100
AcDbLine
 10
3634.435590396834
 20
1794.883722810167
 30
0.0
 11
3618.519044916507
 21
1794.638919703484
 31
0.0
  0
LINE
  5
1B1D
330
1F
100
AcDbEntity
  8
DESHED
  6
ByBlock
 62
     0
370
     0
100
AcDbLine
 10
3587.237176639447
 20
1795.924887869705
 30
0.0
 11
3587.237176639447
 21
1804.180347135272
 31
0.0
  0
LINE
  5
1B1E
102
{ACAD_REACTORS
330
1AD8
102
}
330
1F
100
AcDbEntity
  8
DIM
 62
     0
370
     0
100
AcDbLine
 10
3544.640849499473
 20
1795.924887869705
 30
0.0
 11
3587.237176639447
 21
1795.924887869705
 31
0.0
  0
LINE
  5
1B1F
102
{ACAD_REACTORS
330
1AD8
102
}
330
1F
100
AcDbEntity
  8
DIM
 62
     0
370
     0
100
AcDbLine
 10
3626.114552910852
 20
1815.908715882312
 30
0.0
 11
3539.266988988303
 21
1815.908715882312
 31
0.0
  0
ARC
  5
1B20
102
{ACAD_REACTORS
330
1AD8
102
}
330
1F
100
AcDbEntity
  8
DIM
 62
     0
370
     0
100
AcDbCircle
 10
3626.114552910852
 20
1812.908715882312
 30
0.0
 40
3.0
100
AcDbArc
 50
0.0
 51
90.0
  0
LINE
  5
1B21
102
{ACAD_REACTORS
330
1AD8
102
}
330
1F
100
AcDbEntity
  8
DIM
 62
     0
370
     0
100
AcDbLine
 10
3629.114552910852
 20
1795.924887869705
 30
0.0
 11
3629.114552910852
 21
1812.908715882312
 31
0.0
  0
LINE
  5
1B22
102
{ACAD_REACTORS
330
1AD8
102
}
330
1F
100
AcDbEntity
  8
DIM
 62
     0
370
     0
100
AcDbLine
 10
3593.837176639448
 20
1795.924887869705
 30
0.0
 11
3629.114552910852
 21
1795.924887869705
 31
0.0
  0
LINE
  5
1B23
330
1F
100
AcDbEntity
  8
DESHED
  6
ByBlock
 62
     0
370
     0
100
AcDbLine
 10
3593.837176639448
 20
1804.180347135272
 30
0.0
 11
3593.837176639448
 21
1795.924887869705
 31
0.0
  0
SPLINE
  5
1B24
102
{ACAD_REACTORS
330
1AD8
102
}
330
1F
100
AcDbEntity
  8
DIM
 62
     0
100
AcDbSpline
210
0.0
220
0.0
230
1.0
 70
     8
 71
     3
 72
    10
 73
     6
 74
     0
 42
0.0000000001
 43
0.0000000001
 40
168.1890314628042
 40
168.1890314628042
 40
168.1890314628042
 40
168.1890314628042
 40
240.3970488653276
 40
404.4385438063731
 40
531.2097876496541
 40
531.2097876496541
 40
531.2097876496541
 40
531.2097876496541
 10
3539.266988988314
 20
1815.908715882311
 30
0.0
 10
3540.226772718794
 20
1814.931946115016
 30
0.0
 10
3542.585409173032
 20
1811.354299918175
 30
0.0
 10
3540.593415686972
 20
1803.112907482627
 30
0.0
 10
3543.136290804243
 20
1798.007308056834
 30
0.0
 10
3544.640849499484
 20
1795.924887869705
 30
0.0
  0
MTEXT
  5
1B25
102
{ACAD_REACTORS
330
1B26
102
}
330
1F
100
AcDbEntity
  8
DIM
 62
     0
100
AcDbMText
 10
3541.351377925198
 20
1828.038099806368
 30
0.0
 40
3.0
 41
0.0
 71
     9
 72
     1
  1
{\fBatang|b0|i0|c0|p18;COUNTERTOP}
 73
     1
 44
1.0
  0
LEADER
  5
1B26
330
1F
100
AcDbEntity
  8
DIM
 62
     0
100
AcDbLeader
  3
B
 73
     0
 75
     1
 40
50.0
 41
483.3333333333334
 76
     3
 10
3560.933695748192
 20
1815.908715882312
 30
0.0
 10
3552.961377925191
 20
1828.488099806367
 30
0.0
 10
3541.531377925191
 20
1828.488099806367
 30
0.0
213
0.0
223
0.4500000000000001
233
0.0
1001
ACAD
1000
DSTYLE
1002
{
1070
   147
1040
0.3
1070
    77
1070
     0
1002
}
  0
LINE
  5
1B27
330
1F
100
AcDbEntity
  8
DESHED
  6
ByBlock
 62
     0
100
AcDbLine
 10
3588.737176639448
 20
1803.258490043087
 30
0.0
 11
3589.167013129095
 21
1802.920039585712
 31
0.0
  0
LINE
  5
1B28
330
1F
100
AcDbEntity
  8
DESHED
  6
ByBlock
 62
     0
100
AcDbLine
 10
3590.537176639448
 20
1803.12023602622
 30
0.0
 11
3588.737176639448
 21
1802.581589710415
 31
0.0
  0
LINE
  5
1B29
330
1F
100
AcDbEntity
  8
DESHED
  6
ByBlock
 62
     0
100
AcDbLine
 10
3588.737176639448
 20
1802.581589710415
 30
0.0
 11
3589.185832945226
 21
1802.261942120903
 31
0.0
  0
LINE
  5
1B2A
330
1F
100
AcDbEntity
  8
DESHED
  6
ByBlock
 62
     0
100
AcDbLine
 10
3589.185832945226
 20
1802.261942120903
 30
0.0
 11
3588.737176639448
 21
1801.979900267116
 31
0.0
  0
LINE
  5
1B2B
330
1F
100
AcDbEntity
  8
DESHED
  6
ByBlock
 62
     0
100
AcDbLine
 10
3588.737176639448
 20
1801.979900267116
 30
0.0
 11
3589.223473673642
 21
1801.56623833829
 31
0.0
  0
LINE
  5
1B2C
330
1F
100
AcDbEntity
  8
DESHED
  6
ByBlock
 62
     0
100
AcDbLine
 10
3589.223473673642
 20
1801.56623833829
 30
0.0
 11
3588.737176639448
 21
1801.32180222023
 31
0.0
  0
LINE
  5
1B2D
330
1F
100
AcDbEntity
  8
DESHED
  6
ByBlock
 62
     0
100
AcDbLine
 10
3588.737176639448
 20
1801.32180222023
 30
0.0
 11
3589.242293489775
 21
1801.002154630718
 31
0.0
  0
LINE
  5
1B2E
330
1F
100
AcDbEntity
  8
DESHED
  6
ByBlock
 62
     0
100
AcDbLine
 10
3589.242293489775
 20
1801.002154630718
 30
0.0
 11
3588.737176639448
 21
1800.682507041205
 31
0.0
  0
LINE
  5
1B2F
330
1F
100
AcDbEntity
  8
DESHED
  6
ByBlock
 62
     0
100
AcDbLine
 10
3588.737176639448
 20
1800.682507041205
 30
0.0
 11
3589.261113305909
 21
1800.28764856232
 31
0.0
  0
LINE
  5
1B30
330
1F
100
AcDbEntity
  8
DESHED
  6
ByBlock
 62
     0
100
AcDbLine
 10
3589.261113305909
 20
1800.28764856232
 30
0.0
 11
3588.737176639448
 21
1799.949198104945
 31
0.0
  0
LINE
  5
1B31
330
1F
100
AcDbEntity
  8
DESHED
  6
ByBlock
 62
     0
100
AcDbLine
 10
3588.737176639448
 20
1799.949198104945
 30
0.0
 11
3589.242293489775
 21
1799.516733890334
 31
0.0
  0
LINE
  5
1B32
330
1F
100
AcDbEntity
  8
DESHED
  6
ByBlock
 62
     0
100
AcDbLine
 10
3589.242293489775
 20
1799.516733890334
 30
0.0
 11
3588.737176639448
 21
1799.215889168685
 31
0.0
  0
LINE
  5
1B33
330
1F
100
AcDbEntity
  8
DESHED
  6
ByBlock
 62
     0
100
AcDbLine
 10
3588.737176639448
 20
1799.215889168685
 30
0.0
 11
3589.223473673642
 21
1798.7082140647
 31
0.0
  0
LINE
  5
1B34
330
1F
100
AcDbEntity
  8
DESHED
  6
ByBlock
 62
     0
100
AcDbLine
 10
3589.223473673642
 20
1798.7082140647
 30
0.0
 11
3588.737176639448
 21
1798.3321578716
 31
0.0
  0
LINE
  5
1B35
330
1F
100
AcDbEntity
  8
DESHED
  6
ByBlock
 62
     0
100
AcDbLine
 10
3588.737176639448
 20
1798.3321578716
 30
0.0
 11
3589.232333861993
 21
1797.692067573933
 31
0.0
  0
LINE
  5
1B36
330
1F
100
AcDbEntity
  8
DESHED
  6
ByBlock
 62
     0
100
AcDbLine
 10
3589.232333861993
 20
1797.692067573933
 30
0.0
 11
3588.737176639448
 21
1797.259192994283
 31
0.0
  0
LINE
  5
1B37
330
1F
100
AcDbEntity
  8
DESHED
  6
ByBlock
 62
     0
100
AcDbLine
 10
3588.737176639448
 20
1797.259192994283
 30
0.0
 11
3589.309166923067
 21
1796.604903891907
 31
0.0
  0
LINE
  5
1B38
330
1F
100
AcDbEntity
  8
DESHED
  6
ByBlock
 62
     0
100
AcDbLine
 10
3589.309166923067
 20
1796.604903891907
 30
0.0
 11
3588.737176639448
 21
1796.249151920382
 31
0.0
  0
LINE
  5
1B39
330
1F
100
AcDbEntity
  8
DESHED
  6
ByBlock
 62
     0
100
AcDbLine
 10
3591.765186355825
 20
1795.656055576053
 30
0.0
 11
3592.337176639448
 21
1795.14291604272
 31
0.0
  0
LINE
  5
1B3A
330
1F
100
AcDbEntity
  8
DESHED
  6
ByBlock
 62
     0
100
AcDbLine
 10
3592.337176639448
 20
1796.249151920382
 30
0.0
 11
3591.765186355825
 21
1795.656055576053
 31
0.0
  0
LINE
  5
1B3B
330
1F
100
AcDbEntity
  8
DESHED
  6
ByBlock
 62
     0
100
AcDbLine
 10
3591.765186355825
 20
1796.604903891907
 30
0.0
 11
3592.337176639448
 21
1796.249151920382
 31
0.0
  0
LINE
  5
1B3C
330
1F
100
AcDbEntity
  8
DESHED
  6
ByBlock
 62
     0
100
AcDbLine
 10
3592.337176639448
 20
1797.259192994283
 30
0.0
 11
3591.765186355825
 21
1796.604903891907
 31
0.0
  0
LINE
  5
1B3D
330
1F
100
AcDbEntity
  8
DESHED
  6
ByBlock
 62
     0
100
AcDbLine
 10
3591.8420194169
 20
1797.692067573933
 30
0.0
 11
3592.337176639448
 21
1797.259192994283
 31
0.0
  0
LINE
  5
1B3E
330
1F
100
AcDbEntity
  8
DESHED
  6
ByBlock
 62
     0
100
AcDbLine
 10
3592.337176639448
 20
1798.3321578716
 30
0.0
 11
3591.8420194169
 21
1797.692067573933
 31
0.0
  0
LINE
  5
1B3F
330
1F
100
AcDbEntity
  8
DESHED
  6
ByBlock
 62
     0
100
AcDbLine
 10
3591.850879605252
 20
1798.7082140647
 30
0.0
 11
3592.337176639448
 21
1798.3321578716
 31
0.0
  0
LINE
  5
1B40
330
1F
100
AcDbEntity
  8
DESHED
  6
ByBlock
 62
     0
100
AcDbLine
 10
3592.337176639448
 20
1799.215889168685
 30
0.0
 11
3591.850879605252
 21
1798.7082140647
 31
0.0
  0
LINE
  5
1B41
330
1F
100
AcDbEntity
  8
DESHED
  6
ByBlock
 62
     0
100
AcDbLine
 10
3591.832059789121
 20
1799.516733890334
 30
0.0
 11
3592.337176639448
 21
1799.215889168685
 31
0.0
  0
LINE
  5
1B42
330
1F
100
AcDbEntity
  8
DESHED
  6
ByBlock
 62
     0
100
AcDbLine
 10
3592.337176639448
 20
1799.949198104945
 30
0.0
 11
3591.832059789121
 21
1799.516733890334
 31
0.0
  0
LINE
  5
1B43
330
1F
100
AcDbEntity
  8
DESHED
  6
ByBlock
 62
     0
100
AcDbLine
 10
3591.813239972986
 20
1800.28764856232
 30
0.0
 11
3592.337176639448
 21
1799.949198104945
 31
0.0
  0
LINE
  5
1B44
330
1F
100
AcDbEntity
  8
DESHED
  6
ByBlock
 62
     0
100
AcDbLine
 10
3592.337176639448
 20
1800.682507041205
 30
0.0
 11
3591.813239972986
 21
1800.28764856232
 31
0.0
  0
LINE
  5
1B45
330
1F
100
AcDbEntity
  8
DESHED
  6
ByBlock
 62
     0
100
AcDbLine
 10
3591.832059789121
 20
1801.002154630718
 30
0.0
 11
3592.337176639448
 21
1800.682507041205
 31
0.0
  0
LINE
  5
1B46
330
1F
100
AcDbEntity
  8
DESHED
  6
ByBlock
 62
     0
100
AcDbLine
 10
3592.337176639448
 20
1801.32180222023
 30
0.0
 11
3591.832059789121
 21
1801.002154630718
 31
0.0
  0
LINE
  5
1B47
330
1F
100
AcDbEntity
  8
DESHED
  6
ByBlock
 62
     0
100
AcDbLine
 10
3591.850879605252
 20
1801.56623833829
 30
0.0
 11
3592.337176639448
 21
1801.32180222023
 31
0.0
  0
LINE
  5
1B48
330
1F
100
AcDbEntity
  8
DESHED
  6
ByBlock
 62
     0
100
AcDbLine
 10
3592.337176639448
 20
1801.979900267116
 30
0.0
 11
3591.850879605252
 21
1801.56623833829
 31
0.0
  0
LINE
  5
1B49
330
1F
100
AcDbEntity
  8
DESHED
  6
ByBlock
 62
     0
100
AcDbLine
 10
3591.888520333666
 20
1802.261942120903
 30
0.0
 11
3592.337176639448
 21
1801.979900267116
 31
0.0
  0
LINE
  5
1B4A
330
1F
100
AcDbEntity
  8
DESHED
  6
ByBlock
 62
     0
100
AcDbLine
 10
3592.337176639448
 20
1802.581589710415
 30
0.0
 11
3591.888520333666
 21
1802.261942120903
 31
0.0
  0
LINE
  5
1B4B
330
1F
100
AcDbEntity
  8
DESHED
  6
ByBlock
 62
     0
100
AcDbLine
 10
3590.537176639448
 20
1803.12023602622
 30
0.0
 11
3592.337176639448
 21
1802.581589710415
 31
0.0
  0
LINE
  5
1B4C
330
1F
100
AcDbEntity
  8
DESHED
  6
ByBlock
 62
     0
100
AcDbLine
 10
3592.337176639448
 20
1803.258490043087
 30
0.0
 11
3591.9073401498
 21
1802.920039585712
 31
0.0
  0
LINE
  5
1B4D
330
1F
100
AcDbEntity
  8
DIM
 62
     0
100
AcDbLine
 10
3588.737176639448
 20
1788.672746706304
 30
0.0
 11
3583.937176639447
 21
1788.672746706304
 31
0.0
  0
LINE
  5
1B4E
330
1F
100
AcDbEntity
  8
DIM
 62
     0
100
AcDbLine
 10
3587.237176639447
 20
1795.924887869705
 30
0.0
 11
3544.640849499473
 21
1795.924887869705
 31
0.0
  0
LINE
  5
1B4F
330
1F
100
AcDbEntity
  8
DIM
 62
     0
100
AcDbLine
 10
3588.737176639448
 20
1791.031099434294
 30
0.0
 11
3559.419273288452
 21
1791.92936954407
 31
0.0
  0
LINE
  5
1B50
330
1F
100
AcDbEntity
  8
DIM
 62
     0
100
AcDbLine
 10
3588.737176639448
 20
1788.930113982257
 30
0.0
 11
3558.324780574568
 21
1789.861918212071
 31
0.0
  0
LINE
  5
1B51
330
1F
100
AcDbEntity
  8
DIM
 62
     0
100
AcDbLine
 10
3592.637176639449
 20
1788.672746706304
 30
0.0
 11
3592.637176639449
 21
1788.072746706303
 31
0.0
  0
LINE
  5
1B52
330
1F
100
AcDbEntity
  8
DIM
 62
     0
100
AcDbLine
 10
3588.437176639446
 20
1788.672746706304
 30
0.0
 11
3588.437176639446
 21
1788.072746706303
 31
0.0
  0
ARC
  5
1B53
330
1F
100
AcDbEntity
  8
DIM
 62
     0
100
AcDbCircle
 10
3590.537176639448
 20
1789.75796223364
 30
0.0
 40
3.974915266213253
100
AcDbArc
 50
279.911167827012
 51
334.9149811222883
  0
LINE
  5
1B54
330
1F
100
AcDbEntity
  8
DIM
 62
     0
100
AcDbLine
 10
3590.537176639448
 20
1786.504173766407
 30
0.0
 11
3591.221343466997
 21
1785.842369414455
 31
0.0
  0
LINE
  5
1B55
330
1F
100
AcDbEntity
  8
DIM
 62
     0
100
AcDbLine
 10
3590.537176639448
 20
1786.504173766407
 30
0.0
 11
3589.853009811899
 21
1785.842369414455
 31
0.0
  0
LINE
  5
1B56
330
1F
100
AcDbEntity
  8
DIM
 62
     0
100
AcDbLine
 10
3597.137176639449
 20
1788.072746706303
 30
0.0
 11
3583.937176639447
 21
1788.072746706303
 31
0.0
  0
LINE
  5
1B57
330
1F
100
AcDbEntity
  8
DIM
 62
     0
100
AcDbLine
 10
3597.137176639449
 20
1788.672746706304
 30
0.0
 11
3592.337176639448
 21
1788.672746706304
 31
0.0
  0
ARC
  5
1B58
330
1F
100
AcDbEntity
  8
DIM
 62
     0
100
AcDbCircle
 10
3590.537176639448
 20
1789.75796223364
 30
0.0
 40
3.974915266213253
100
AcDbArc
 50
205.0850188777117
 51
260.088832172988
  0
LINE
  5
1B59
330
1F
100
AcDbEntity
  8
DIM
 62
     0
100
AcDbLine
 10
3583.937176639447
 20
1788.672746706304
 30
0.0
 11
3583.937176639447
 21
1788.072746706303
 31
0.0
  0
LINE
  5
1B5A
330
1F
100
AcDbEntity
  8
DIM
 62
     0
100
AcDbLine
 10
3597.137176639449
 20
1788.672746706304
 30
0.0
 11
3597.137176639449
 21
1788.072746706303
 31
0.0
  0
LINE
  5
1B5B
330
1F
100
AcDbEntity
  8
DIM
 62
     0
100
AcDbLine
 10
3555.388840794214
 20
1794.916003431555
 30
0.0
 11
3557.230620420137
 21
1795.924887869705
 31
0.0
  0
LINE
  5
1B5C
330
1F
100
AcDbEntity
  8
DIM
 62
     0
100
AcDbLine
 10
3558.1544942445
 20
1789.867135608369
 30
0.0
 11
3555.388840794214
 21
1794.916003431555
 31
0.0
  0
LINE
  5
1B5D
330
1F
100
AcDbEntity
  8
DIM
 62
     0
100
AcDbLine
 10
3625.640075305069
 20
1793.548302194385
 30
0.0
 11
3627.553163459506
 21
1792.682222686854
 31
0.0
  0
LINE
  5
1B5E
330
1F
100
AcDbEntity
  8
DIM
 62
     0
100
AcDbLine
 10
3627.553163459506
 20
1792.682222686854
 30
0.0
 11
3625.346737385809
 21
1787.808435062835
 31
0.0
  0
LINE
  5
1B5F
330
1F
100
AcDbEntity
  8
DIM
 62
     0
100
AcDbLine
 10
3625.346737385809
 20
1787.808435062835
 30
0.0
 11
3592.337176639448
 21
1788.819813721135
 31
0.0
  0
LINE
  5
1B60
330
1F
100
AcDbEntity
  8
DIM
 62
     0
100
AcDbLine
 10
3559.419273288452
 20
1791.92936954407
 30
0.0
 11
3557.230620420137
 21
1795.924887869705
 31
0.0
  0
LINE
  5
1B61
330
1F
100
AcDbEntity
  8
DIM
 62
     0
100
AcDbLine
 10
3624.011231305019
 20
1789.950339034161
 30
0.0
 11
3592.337176639448
 21
1790.920799173171
 31
0.0
  0
LINE
  5
1B62
330
1F
100
AcDbEntity
  8
DIM
 62
     0
100
AcDbLine
 10
3625.640075305069
 20
1793.548302194385
 30
0.0
 11
3624.011231305019
 21
1789.950339034161
 31
0.0
  0
LINE
  5
1B63
330
1F
100
AcDbEntity
  8
DIM
 62
     0
100
AcDbLine
 10
3638.983033400261
 20
1763.564560321046
 30
0.0
 11
3637.851973330156
 21
1761.398660594174
 31
0.0
  0
LINE
  5
1B64
330
1F
100
AcDbEntity
  8
DIM
 62
     0
100
AcDbLine
 10
3636.88971663262
 20
1791.361185637524
 30
0.0
 11
3637.851973330156
 21
1761.398660594174
 31
0.0
  0
ARC
  5
1B65
330
1F
100
AcDbEntity
  8
DIM
 62
     0
100
AcDbCircle
 10
3634.490953350168
 20
1791.284148537646
 30
0.0
 40
2.4
100
AcDbArc
 50
1.83944125196927
 51
90.8811635037197
  0
ARC
  5
1B66
330
1F
100
AcDbEntity
  8
DIM
 62
     0
100
AcDbCircle
 10
3634.490953350168
 20
1791.284148537646
 30
0.0
 40
3.6
100
AcDbArc
 50
1.83944125196927
 51
90.8811635037197
  0
LINE
  5
1B67
330
1F
100
AcDbEntity
  8
DIM
 62
     0
100
AcDbLine
 10
3638.089098273845
 20
1791.399704187463
 30
0.0
 11
3639.025771797579
 21
1761.834817550006
 31
0.0
  0
LINE
  5
1B68
330
1F
100
AcDbEntity
  8
DIM
 62
     0
100
AcDbLine
 10
3634.435590396834
 20
1794.883722810167
 30
0.0
 11
3618.519044916507
 21
1794.638919703484
 31
0.0
  0
LINE
  5
1B69
330
1F
100
AcDbEntity
  8
DIM
 62
     0
100
AcDbLine
 10
3615.473803513375
 20
1795.924887869705
 30
0.0
 11
3630.051896682861
 21
1795.924887869705
 31
0.0
  0
LINE
  5
1B6A
330
1F
100
AcDbEntity
  8
DIM
 62
     0
100
AcDbLine
 10
3629.114552910852
 20
1795.924887869705
 30
0.0
 11
3593.837176639448
 21
1795.924887869705
 31
0.0
  0
LINE
  5
1B6B
330
1F
100
AcDbEntity
  8
DIM
 62
     0
100
AcDbLine
 10
3629.114552910852
 20
1812.908715882312
 30
0.0
 11
3629.114552910852
 21
1795.924887869705
 31
0.0
  0
ARC
  5
1B6C
330
1F
100
AcDbEntity
  8
DIM
 62
     0
100
AcDbCircle
 10
3626.114552910852
 20
1812.908715882312
 30
0.0
 40
3.0
100
AcDbArc
 50
0.0
 51
90.0
  0
LINE
  5
1B6D
330
1F
100
AcDbEntity
  8
DIM
 62
     0
100
AcDbLine
 10
3539.266988988303
 20
1815.908715882312
 30
0.0
 11
3626.114552910852
 21
1815.908715882312
 31
0.0
  0
LINE
  5
1B6E
102
{ACAD_REACTORS
330
1AD8
102
}
330
1F
100
AcDbEntity
  8
DIM
  6
ByBlock
 62
     0
100
AcDbLine
 10
3587.237176639447
 20
1804.180347135272
 30
0.0
 11
3587.237176639447
 21
1795.924887869705
 31
0.0
  0
LINE
  5
1B6F
330
1F
100
AcDbEntity
  8
DIM
 62
     0
100
AcDbLine
 10
3590.537176639448
 20
1807.924887869705
 30
0.0
 11
3590.537176639448
 21
1785.116688825288
 31
0.0
  0
SPLINE
  5
1B70
330
1F
100
AcDbEntity
  8
DIM
 62
     0
100
AcDbSpline
210
0.0
220
0.0
230
1.0
 70
     8
 71
     3
 72
    10
 73
     6
 74
     0
 42
0.0000000001
 43
0.0000000001
 40
168.1890314628042
 40
168.1890314628042
 40
168.1890314628042
 40
168.1890314628042
 40
240.3970488653276
 40
404.4385438063731
 40
531.2097876496541
 40
531.2097876496541
 40
531.2097876496541
 40
531.2097876496541
 10
3539.266988988314
 20
1815.908715882311
 30
0.0
 10
3540.226772718794
 20
1814.931946115016
 30
0.0
 10
3542.585409173032
 20
1811.354299918175
 30
0.0
 10
3540.593415686972
 20
1803.112907482627
 30
0.0
 10
3543.136290804243
 20
1798.007308056834
 30
0.0
 10
3544.640849499484
 20
1795.924887869705
 30
0.0
  0
ENDSEC
  0
SECTION
  2
OBJECTS
  0
DICTIONARY
  5
C
330
0
100
AcDbDictionary
281
     1
  3
ACAD_COLOR
350
73
  3
ACAD_GROUP
350
D
  3
ACAD_LAYOUT
350
1A
  3
ACAD_MATERIAL
350
72
  3
ACAD_MLINESTYLE
350
17
  3
ACAD_PLOTSETTINGS
350
19
  3
ACAD_PLOTSTYLENAME
350
E
  3
AcDbVariableDictionary
350
66
  0
DICTIONARY
  5
F2
330
2
100
AcDbDictionary
280
     1
281
     1
  3
ACAD_LAYERSTATES
360
F3
  0
DICTIONARY
  5
73
102
{ACAD_REACTORS
330
C
102
}
330
C
100
AcDbDictionary
281
     1
  0
DICTIONARY
  5
D
102
{ACAD_REACTORS
330
C
102
}
330
C
100
AcDbDictionary
281
     1
  0
DICTIONARY
  5
1A
102
{ACAD_REACTORS
330
C
102
}
330
C
100
AcDbDictionary
281
     1
  3
Model
350
22
  3
布局1
350
59
  3
布局2
350
5E
  0
DICTIONARY
  5
72
102
{ACAD_REACTORS
330
C
102
}
330
C
100
AcDbDictionary
281
     1
  0
DICTIONARY
  5
17
102
{ACAD_REACTORS
330
C
102
}
330
C
100
AcDbDictionary
281
     1
  3
Standard
350
18
  0
DICTIONARY
  5
19
102
{ACAD_REACTORS
330
C
102
}
330
C
100
AcDbDictionary
281
     1
  0
ACDBDICTIONARYWDFLT
  5
E
102
{ACAD_REACTORS
330
C
102
}
330
C
100
AcDbDictionary
281
     1
  3
Normal
350
F
100
AcDbDictionaryWithDefault
340
F
  0
DICTIONARY
  5
66
102
{ACAD_REACTORS
330
C
102
}
330
C
100
AcDbDictionary
281
     1
  3
DIMASSOC
350
67
  3
HIDETEXT
350
6B
  0
DICTIONARY
  5
F3
102
{ACAD_REACTORS
330
F2
102
}
330
F2
100
AcDbDictionary
281
     1
  0
LAYOUT
  5
22
102
{ACAD_REACTORS
330
1A
102
}
330
1A
100
AcDbPlotSettings
  1

  2
none_device
  4
ANSI_A_(8.50_x_11.00_Inches)
  6

 40
6.349999904632568
 41
19.04999923706055
 42
6.350006103515625
 43
19.04998779296875
 44
215.8999938964844
 45
279.3999938964844
 46
0.0
 47
0.0
 48
0.0
 49
0.0
140
0.0
141
0.0
142
1.0
143
2.584895464708373
 70
 11952
 72
     0
 73
     1
 74
     0
  7

 75
     0
147
0.3868628397755418
 76
     0
 77
     2
 78
   300
148
0.0
149
0.0
100
AcDbLayout
  1
Model
 70
     1
 71
     0
 10
0.0
 20
0.0
 11
12.0
 21
9.0
 12
0.0
 22
0.0
 32
0.0
 14
0.0
 24
0.0
 34
0.0
 15
0.0
 25
0.0
 35
0.0
146
0.0
 13
0.0
 23
0.0
 33
0.0
 16
1.0
 26
0.0
 36
0.0
 17
0.0
 27
1.0
 37
0.0
 76
     0
330
1F
  0
LAYOUT
  5
59
102
{ACAD_REACTORS
330
1A
102
}
330
1A
100
AcDbPlotSettings
  1

  2
None
  4

  6

 40
0.0
 41
0.0
 42
0.0
 43
0.0
 44
0.0
 45
0.0
 46
0.0
 47
0.0
 48
0.0
 49
0.0
140
0.0
141
0.0
142
1.0
143
1.0
 70
   688
 72
     0
 73
     0
 74
     5
  7

 75
    16
147
1.0
 76
     0
 77
     2
 78
   300
148
0.0
149
0.0
100
AcDbLayout
  1
布局1
 70
     1
 71
     1
 10
0.0
 20
0.0
 11
12.0
 21
9.0
 12
0.0
 22
0.0
 32
0.0
 14
0.0
 24
0.0
 34
0.0
 15
0.0
 25
0.0
 35
0.0
146
0.0
 13
0.0
 23
0.0
 33
0.0
 16
1.0
 26
0.0
 36
0.0
 17
0.0
 27
1.0
 37
0.0
 76
     0
330
58
  0
LAYOUT
  5
5E
102
{ACAD_REACTORS
330
1A
102
}
330
1A
100
AcDbPlotSettings
  1

  2
None
  4

  6

 40
0.0
 41
0.0
 42
0.0
 43
0.0
 44
0.0
 45
0.0
 46
0.0
 47
0.0
 48
0.0
 49
0.0
140
0.0
141
0.0
142
1.0
143
1.0
 70
   688
 72
     0
 73
     0
 74
     5
  7

 75
    16
147
1.0
 76
     0
 77
     2
 78
   300
148
0.0
149
0.0
100
AcDbLayout
  1
布局2
 70
     1
 71
     2
 10
0.0
 20
0.0
 11
12.0
 21
9.0
 12
0.0
 22
0.0
 32
0.0
 14
0.0
 24
0.0
 34
0.0
 15
0.0
 25
0.0
 35
0.0
146
0.0
 13
0.0
 23
0.0
 33
0.0
 16
1.0
 26
0.0
 36
0.0
 17
0.0
 27
1.0
 37
0.0
 76
     0
330
5D
  0
MLINESTYLE
  5
18
102
{ACAD_REACTORS
330
17
102
}
330
17
100
AcDbMlineStyle
  2
STANDARD
 70
     0
  3

 62
   256
 51
90.0
 52
90.0
 71
     2
 49
0.5
 62
   256
  6
BYLAYER
 49
-0.5
 62
   256
  6
BYLAYER
  0
ACDBPLACEHOLDER
  5
F
102
{ACAD_REACTORS
330
E
102
}
330
E
  0
DICTIONARYVAR
  5
67
102
{ACAD_REACTORS
330
66
102
}
330
66
100
DictionaryVariables
280
     0
  1
2
  0
DICTIONARYVAR
  5
6B
102
{ACAD_REACTORS
330
66
102
}
330
66
100
DictionaryVariables
280
     0
  1
1
  0
ENDSEC
  0
EOF
