  0
SECTION
  2
HEADER
  9
$ACADVER
  1
AC1021
  9
$ACADMAINTVER
 70
    25
  9
$DWGCODEPAGE
  3
ANSI_936
  9
$INSBASE
 10
0.0
 20
0.0
 30
0.0
  9
$EXTMIN
 10
4837.312250179109
 20
3952.468555968694
 30
0.0
  9
$EXTMAX
 10
5495.074005360675
 20
4494.005616245356
 30
2563.30184894353
  9
$LIMMIN
 10
0.0
 20
0.0
  9
$LIMMAX
 10
420.0
 20
297.0
  9
$ORTHOMODE
 70
     1
  9
$REGENMODE
 70
     1
  9
$FILLMODE
 70
     1
  9
$QTEXTMODE
 70
     0
  9
$MIRRTEXT
 70
     0
  9
$LTSCALE
 40
1.0
  9
$ATTMODE
 70
     1
  9
$TEXTSIZE
 40
2.5
  9
$TRACEWID
 40
1.0
  9
$TEXTSTYLE
  7
STANDARD
  9
$CLAYER
  8
0
  9
$CELTYPE
  6
BYLAYER
  9
$CECOLOR
 62
   256
  9
$CELTSCALE
 40
14.14729501082547
  9
$DISPSILH
 70
     0
  9
$DIMSCALE
 40
1.0
  9
$DIMASZ
 40
2.5
  9
$DIMEXO
 40
0.625
  9
$DIMDLI
 40
3.75
  9
$DIMRND
 40
0.0
  9
$DIMDLE
 40
0.0
  9
$DIMEXE
 40
1.25
  9
$DIMTP
 40
0.0
  9
$DIMTM
 40
0.0
  9
$DIMTXT
 40
15.0
  9
$DIMCEN
 40
2.5
  9
$DIMTSZ
 40
0.0
  9
$DIMTOL
 70
     0
  9
$DIMLIM
 70
     0
  9
$DIMTIH
 70
     0
  9
$DIMTOH
 70
     0
  9
$DIMSE1
 70
     0
  9
$DIMSE2
 70
     0
  9
$DIMTAD
 70
     1
  9
$DIMZIN
 70
     8
  9
$DIMBLK
  1

  9
$DIMASO
 70
     1
  9
$DIMSHO
 70
     1
  9
$DIMPOST
  1

  9
$DIMAPOST
  1

  9
$DIMALT
 70
     0
  9
$DIMALTD
 70
     4
  9
$DIMALTF
 40
0.0394
  9
$DIMLFAC
 40
1.0
  9
$DIMTOFL
 70
     1
  9
$DIMTVP
 40
0.0
  9
$DIMTIX
 70
     0
  9
$DIMSOXD
 70
     0
  9
$DIMSAH
 70
     0
  9
$DIMBLK1
  1

  9
$DIMBLK2
  1

  9
$DIMSTYLE
  2
STANDARD
  9
$DIMCLRD
 70
     0
  9
$DIMCLRE
 70
     0
  9
$DIMCLRT
 70
     0
  9
$DIMTFAC
 40
1.0
  9
$DIMGAP
 40
3.0
  9
$DIMJUST
 70
     0
  9
$DIMSD1
 70
     0
  9
$DIMSD2
 70
     0
  9
$DIMTOLJ
 70
     1
  9
$DIMTZIN
 70
     0
  9
$DIMALTZ
 70
     0
  9
$DIMALTTZ
 70
     0
  9
$DIMUPT
 70
     0
  9
$DIMDEC
 70
     4
  9
$DIMTDEC
 70
     4
  9
$DIMALTU
 70
     8
  9
$DIMALTTD
 70
     4
  9
$DIMTXSTY
  7
STANDARD
  9
$DIMAUNIT
 70
     0
  9
$DIMADEC
 70
     0
  9
$DIMALTRND
 40
0.0
  9
$DIMAZIN
 70
     0
  9
$DIMDSEP
 70
    46
  9
$DIMATFIT
 70
     3
  9
$DIMFRAC
 70
     0
  9
$DIMLDRBLK
  1

  9
$DIMLUNIT
 70
     2
  9
$DIMLWD
 70
    -2
  9
$DIMLWE
 70
    -2
  9
$DIMTMOVE
 70
     0
  9
$DIMFXL
 40
1.0
  9
$DIMFXLON
 70
     0
  9
$DIMJOGANG
 40
0.7853981633974483
  9
$DIMTFILL
 70
     0
  9
$DIMTFILLCLR
 70
     0
  9
$DIMARCSYM
 70
     0
  9
$DIMLTYPE
  6

  9
$DIMLTEX1
  6

  9
$DIMLTEX2
  6

  9
$LUNITS
 70
     2
  9
$LUPREC
 70
     4
  9
$SKETCHINC
 40
1.0
  9
$FILLETRAD
 40
15.0
  9
$AUNITS
 70
     0
  9
$AUPREC
 70
     0
  9
$MENU
  1
.
  9
$ELEVATION
 40
0.0
  9
$PELEVATION
 40
0.0
  9
$THICKNESS
 40
0.0
  9
$LIMCHECK
 70
     0
  9
$CHAMFERA
 40
10.0
  9
$CHAMFERB
 40
10.0
  9
$CHAMFERC
 40
20.0
  9
$CHAMFERD
 40
0.0
  9
$SKPOLY
 70
     0
  9
$TDCREATE
 40
2453155.539762732
  9
$TDUCREATE
 40
2453155.206429398
  9
$TDUPDATE
 40
2459887.391326922
  9
$TDUUPDATE
 40
2459887.057993588
  9
$TDINDWG
 40
0.0997383565
  9
$TDUSRTIMER
 40
0.0997381713
  9
$USRTIMER
 70
     1
  9
$ANGBASE
 50
0.0
  9
$ANGDIR
 70
     0
  9
$PDMODE
 70
     0
  9
$PDSIZE
 40
0.0
  9
$PLINEWID
 40
0.0
  9
$SPLFRAME
 70
     0
  9
$SPLINETYPE
 70
     6
  9
$SPLINESEGS
 70
     8
  9
$HANDSEED
  5
1811
  9
$SURFTAB1
 70
     6
  9
$SURFTAB2
 70
     6
  9
$SURFTYPE
 70
     6
  9
$SURFU
 70
     6
  9
$SURFV
 70
     6
  9
$UCSBASE
  2

  9
$UCSNAME
  2

  9
$UCSORG
 10
0.0
 20
0.0
 30
0.0
  9
$UCSXDIR
 10
1.0
 20
0.0
 30
0.0
  9
$UCSYDIR
 10
0.0
 20
1.0
 30
0.0
  9
$UCSORTHOREF
  2

  9
$UCSORTHOVIEW
 70
     0
  9
$UCSORGTOP
 10
0.0
 20
0.0
 30
0.0
  9
$UCSORGBOTTOM
 10
0.0
 20
0.0
 30
0.0
  9
$UCSORGLEFT
 10
0.0
 20
0.0
 30
0.0
  9
$UCSORGRIGHT
 10
0.0
 20
0.0
 30
0.0
  9
$UCSORGFRONT
 10
0.0
 20
0.0
 30
0.0
  9
$UCSORGBACK
 10
0.0
 20
0.0
 30
0.0
  9
$PUCSBASE
  2

  9
$PUCSNAME
  2

  9
$PUCSORG
 10
0.0
 20
0.0
 30
0.0
  9
$PUCSXDIR
 10
1.0
 20
0.0
 30
0.0
  9
$PUCSYDIR
 10
0.0
 20
1.0
 30
0.0
  9
$PUCSORTHOREF
  2

  9
$PUCSORTHOVIEW
 70
     0
  9
$PUCSORGTOP
 10
0.0
 20
0.0
 30
0.0
  9
$PUCSORGBOTTOM
 10
0.0
 20
0.0
 30
0.0
  9
$PUCSORGLEFT
 10
0.0
 20
0.0
 30
0.0
  9
$PUCSORGRIGHT
 10
0.0
 20
0.0
 30
0.0
  9
$PUCSORGFRONT
 10
0.0
 20
0.0
 30
0.0
  9
$PUCSORGBACK
 10
0.0
 20
0.0
 30
0.0
  9
$USERI1
 70
     0
  9
$USERI2
 70
     0
  9
$USERI3
 70
     0
  9
$USERI4
 70
     0
  9
$USERI5
 70
     0
  9
$USERR1
 40
0.0
  9
$USERR2
 40
0.0
  9
$USERR3
 40
0.0
  9
$USERR4
 40
0.0
  9
$USERR5
 40
0.0
  9
$WORLDVIEW
 70
     1
  9
$SHADEDGE
 70
     3
  9
$SHADEDIF
 70
    70
  9
$TILEMODE
 70
     1
  9
$MAXACTVP
 70
    48
  9
$PINSBASE
 10
0.0
 20
0.0
 30
0.0
  9
$PLIMCHECK
 70
     0
  9
$PEXTMIN
 10
1.000000000000000E+20
 20
1.000000000000000E+20
 30
1.000000000000000E+20
  9
$PEXTMAX
 10
-1.000000000000000E+20
 20
-1.000000000000000E+20
 30
-1.000000000000000E+20
  9
$PLIMMIN
 10
0.0
 20
0.0
  9
$PLIMMAX
 10
420.0
 20
297.0
  9
$UNITMODE
 70
     0
  9
$VISRETAIN
 70
     1
  9
$PLINEGEN
 70
     0
  9
$PSLTSCALE
 70
     1
  9
$TREEDEPTH
 70
  3020
  9
$CMLSTYLE
  2
STANDARD
  9
$CMLJUST
 70
     0
  9
$CMLSCALE
 40
20.0
  9
$PROXYGRAPHICS
 70
     1
  9
$MEASUREMENT
 70
     1
  9
$CELWEIGHT
370
    -1
  9
$ENDCAPS
280
     0
  9
$JOINSTYLE
280
     0
  9
$LWDISPLAY
290
     1
  9
$INSUNITS
 70
     0
  9
$HYPERLINKBASE
  1

  9
$STYLESHEET
  1

  9
$XEDIT
290
     1
  9
$CEPSNTYPE
380
     0
  9
$PSTYLEMODE
290
     1
  9
$FINGERPRINTGUID
  2
{AEA4C562-6A69-4577-B3D9-11D4D737C7CC}
  9
$VERSIONGUID
  2
{BF238DF7-8D92-47AB-89FE-2F49EC8B3730}
  9
$EXTNAMES
290
     1
  9
$PSVPSCALE
 40
0.0
  9
$OLESTARTUP
290
     0
  9
$SORTENTS
280
   127
  9
$INDEXCTL
280
     0
  9
$HIDETEXT
280
     0
  9
$XCLIPFRAME
290
     0
  9
$HALOGAP
280
     0
  9
$OBSCOLOR
 70
   257
  9
$OBSLTYPE
280
     0
  9
$INTERSECTIONDISPLAY
280
     0
  9
$INTERSECTIONCOLOR
 70
   257
  9
$DIMASSOC
280
     1
  9
$PROJECTNAME
  1

  9
$CAMERADISPLAY
290
     0
  9
$LENSLENGTH
 40
50.0
  9
$CAMERAHEIGHT
 40
0.0
  9
$STEPSPERSEC
 40
2.0
  9
$STEPSIZE
 40
6.0
  9
$3DDWFPREC
 40
2.0
  9
$PSOLWIDTH
 40
0.25
  9
$PSOLHEIGHT
 40
4.0
  9
$LOFTANG1
 40
1.570796326794897
  9
$LOFTANG2
 40
1.570796326794897
  9
$LOFTMAG1
 40
0.0
  9
$LOFTMAG2
 40
0.0
  9
$LOFTPARAM
 70
     7
  9
$LOFTNORMALS
280
     1
  9
$LATITUDE
 40
0.0
  9
$LONGITUDE
 40
0.0
  9
$NORTHDIRECTION
 40
0.0
  9
$TIMEZONE
 70
 -8000
  9
$LIGHTGLYPHDISPLAY
280
     1
  9
$TILEMODELIGHTSYNCH
280
     1
  9
$SOLIDHIST
280
     1
  9
$SHOWHIST
280
     1
  9
$DWFFRAME
280
     2
  9
$DGNFRAME
280
     0
  9
$REALWORLDSCALE
290
     1
  9
$INTERFERECOLOR
 62
     1
  9
$CSHADOW
280
     0
  9
$SHADOWPLANELOCATION
 40
0.0
  0
ENDSEC
  0
SECTION
  2
CLASSES
  0
CLASS
  1
ACDBDICTIONARYWDFLT
  2
AcDbDictionaryWithDefault
  3
ObjectDBX Classes
 90
        0
 91
        3
280
     0
281
     0
  0
CLASS
  1
DICTIONARYVAR
  2
AcDbDictionaryVar
  3
ObjectDBX Classes
 90
        0
 91
        3
280
     0
281
     0
  0
CLASS
  1
ACDBPLACEHOLDER
  2
AcDbPlaceHolder
  3
ObjectDBX Classes
 90
        0
 91
        1
280
     0
281
     0
  0
CLASS
  1
LAYOUT
  2
AcDbLayout
  3
ObjectDBX Classes
 90
        0
 91
        1
280
     0
281
     0
  0
CLASS
  1
DIMASSOC
  2
AcDbDimAssoc
  3
"AcDbDimAssoc|Product Desc:     AcDim ARX App For Dimension|Company:          Autodesk, Inc.|WEB Address:      www.autodesk.com"
 90
        0
 91
        3
280
     0
281
     0
  0
CLASS
  1
MATERIAL
  2
AcDbMaterial
  3
ObjectDBX Classes
 90
     1153
 91
        3
280
     0
281
     0
  0
CLASS
  1
VISUALSTYLE
  2
AcDbVisualStyle
  3
ObjectDBX Classes
 90
     4095
 91
        3
280
     0
281
     0
  0
CLASS
  1
TABLESTYLE
  2
AcDbTableStyle
  3
ObjectDBX Classes
 90
     4095
 91
        3
280
     0
281
     0
  0
CLASS
  1
MLEADERSTYLE
  2
AcDbMLeaderStyle
  3
ACDB_MLEADERSTYLE_CLASS
 90
     4095
 91
        3
280
     0
281
     0
  0
CLASS
  1
SCALE
  2
AcDbScale
  3
ObjectDBX Classes
 90
     1153
 91
        3
280
     0
281
     0
  0
CLASS
  1
ZWMSTANDARD
  2
ZwmStandard
  3
ZWMCUSTCORE
 90
        1
 91
        2
280
     1
281
     0
  0
CLASS
  1
ZWMLAYERSTD
  2
ZwmLayerStd
  3
ZWMCUSTCORE
 90
        1
 91
        2
280
     1
281
     0
  0
CLASS
  1
ZWMTEXTSTYLESTD
  2
ZwmTextStyleStd
  3
ZWMCUSTCORE
 90
        1
 91
        2
280
     1
281
     0
  0
CLASS
  1
ZWMLINETYPESTD
  2
ZwmLineTypeStd
  3
ZWMCUSTCORE
 90
        1
 91
        2
280
     1
281
     0
  0
CLASS
  1
ZWMDIMSTYLESTD
  2
ZwmDimStyleStd
  3
ZWMCUSTCORE
 90
        1
 91
        2
280
     1
281
     0
  0
CLASS
  1
ZWMCOLORSTD
  2
ZwmColorStd
  3
ZWMCUSTCORE
 90
        1
 91
        2
280
     1
281
     0
  0
CLASS
  1
ZWMPARTREFSTD
  2
ZwmPartRefStd
  3
ZWMCUSTCORE
 90
        1
 91
        2
280
     1
281
     0
  0
CLASS
  1
ZWMBALLOONSTD
  2
ZwmBalloonStd
  3
ZWMCUSTCORE
 90
        1
 91
        2
280
     1
281
     0
  0
CLASS
  1
ZWMSURFSYMSTD
  2
ZwmSurfSymStd
  3
ZWMCUSTCORE
 90
        1
 91
        2
280
     1
281
     0
  0
CLASS
  1
ZWMNOTESTD
  2
ZwmNoteStd
  3
ZWMCUSTCORE
 90
        1
 91
        2
280
     1
281
     0
  0
CLASS
  1
ZWMFCFRAMESTD
  2
ZwmFCFrameStd
  3
ZWMCUSTCORE
 90
        1
 91
        2
280
     1
281
     0
  0
CLASS
  1
ZWMDATUMIDSTD
  2
ZwmDatumIdStd
  3
ZWMCUSTCORE
 90
        1
 91
        2
280
     1
281
     0
  0
CLASS
  1
ZWMFEATUREIDSTD
  2
ZwmFeatureIdStd
  3
ZWMCUSTCORE
 90
        1
 91
        2
280
     1
281
     0
  0
CLASS
  1
ZWMDATUMTARGETSTD
  2
ZwmDatumTargetStd
  3
ZWMCUSTCORE
 90
        1
 91
        2
280
     1
281
     0
  0
CLASS
  1
ZWMTAPERSLOPESTD
  2
ZwmTaperSlopeStd
  3
ZWMCUSTCORE
 90
        1
 91
        2
280
     1
281
     0
  0
CLASS
  1
ZWMCENTERHOLESTD
  2
ZwmCenterHoleStd
  3
ZWMCUSTCORE
 90
        1
 91
        2
280
     1
281
     0
  0
CLASS
  1
ZWMCHAMFERSTD
  2
ZwmChamferStd
  3
ZWMCUSTCORE
 90
        1
 91
        2
280
     1
281
     0
  0
CLASS
  1
ZWMCIRCLEMARKSTD
  2
ZwmCircleMarkStd
  3
ZWMCUSTCORE
 90
        1
 91
        2
280
     1
281
     0
  0
CLASS
  1
ZWMWELDINGSTD
  2
ZwmWeldingStd
  3
ZWMCUSTCORE
 90
        1
 91
        2
280
     1
281
     0
  0
CLASS
  1
ZWMDETAILSTD
  2
ZwmDetailStd
  3
ZWMCUSTCORE
 90
        1
 91
        2
280
     1
281
     0
  0
CLASS
  1
ZWMSECTIONSYMSTD
  2
ZwmSectionSymStd
  3
ZWMCUSTCORE
 90
        1
 91
        2
280
     1
281
     0
  0
CLASS
  1
ZWMVIEWDIRECTIONSTD
  2
ZwmViewDirectionStd
  3
ZWMCUSTCORE
 90
        1
 91
        2
280
     1
281
     0
  0
CLASS
  1
ZWMELEVSYMSTD
  2
ZwmElevSymStd
  3
ZWMCUSTCORE
 90
        1
 91
        2
280
     1
281
     0
  0
CLASS
  1
ZWMBREAKSYMSTD
  2
ZwmBreakSymStd
  3
ZWMCUSTCORE
 90
        1
 91
        2
280
     1
281
     0
  0
CLASS
  1
ZWMHOLECHARTSTD
  2
ZwmHoleChartStd
  3
ZWMCUSTCORE
 90
        1
 91
        2
280
     1
281
     0
  0
CLASS
  1
ZWMBOMSTYLESTD
  2
ZwmBomStyleStd
  3
ZWMCUSTCORE
 90
        1
 91
        2
280
     1
281
     0
  0
CLASS
  1
ZWMTITLESTYLESTD
  2
ZwmTitleStyleStd
  3
ZWMCUSTCORE
 90
        1
 91
        2
280
     1
281
     0
  0
CLASS
  1
ZWMFRAMESTYLESTD
  2
ZwmFrameStyleStd
  3
ZWMCUSTCORE
 90
        1
 91
        2
280
     1
281
     0
  0
CLASS
  1
SUN
  2
AcDbSun
  3
SCENEOE
 90
     1153
 91
        3
280
     0
281
     0
  0
CLASS
  1
CELLSTYLEMAP
  2
AcDbCellStyleMap
  3
ObjectDBX Classes
 90
     1152
 91
        3
280
     0
281
     0
  0
ENDSEC
  0
SECTION
  2
TABLES
  0
TABLE
  2
VPORT
  5
8
330
0
100
AcDbSymbolTable
 70
     1
  0
VPORT
  5
142C
330
8
100
AcDbSymbolTableRecord
100
AcDbViewportTableRecord
  2
*Active
 70
     0
 10
0.0
 20
0.0
 11
1.0
 21
1.0
 12
5206.462476963779
 22
4146.46581521299
 13
0.0
 23
0.0
 14
10.0
 24
10.0
 15
10.0
 25
10.0
 16
0.0
 26
0.0
 36
1.0
 17
0.0
 27
0.0
 37
0.0
 40
1290.303394004127
 41
1.786433848220282
 42
50.0
 43
0.0
 44
0.0
 50
0.0
 51
0.0
 71
     0
 72
   100
 73
     1
 74
     1
 75
     0
 76
     0
 77
     0
 78
     0
281
     0
 65
     1
110
0.0
120
0.0
130
0.0
111
1.0
121
0.0
131
0.0
112
0.0
122
1.0
132
0.0
 79
     0
146
0.0
348
1435
 60
     3
 61
     5
292
     1
282
     1
141
0.0
142
0.0
 63
   256
361
17D4
  0
ENDTAB
  0
TABLE
  2
LTYPE
  5
5
330
0
100
AcDbSymbolTable
 70
    13
  0
LTYPE
  5
12
330
5
100
AcDbSymbolTableRecord
100
AcDbLinetypeTableRecord
  2
BYBLOCK
 70
     0
  3

 72
    65
 73
     0
 40
0.0
  0
LTYPE
  5
13
330
5
100
AcDbSymbolTableRecord
100
AcDbLinetypeTableRecord
  2
BYLAYER
 70
     0
  3

 72
    65
 73
     0
 40
0.0
  0
LTYPE
  5
14
330
5
100
AcDbSymbolTableRecord
100
AcDbLinetypeTableRecord
  2
CONTINUOUS
 70
     0
  3
Solid line
 72
    65
 73
     0
 40
0.0
  0
LTYPE
  5
80
330
5
100
AcDbSymbolTableRecord
100
AcDbLinetypeTableRecord
  2
CENTER2
 70
     0
  3
___ _ ___ _ ___ _ ___ _ ___ _ ___ _ ___ _ ___ _
 72
    65
 73
     4
 40
1.125
 49
0.75
 74
     0
 49
-0.125
 74
     0
 49
0.125
 74
     0
 49
-0.125
 74
     0
  0
LTYPE
  5
18C
330
5
100
AcDbSymbolTableRecord
100
AcDbLinetypeTableRecord
  2
DASHED2
 70
     0
  3
_ _ _ _ _ _ _ _ _ _ _ _ _ _ _ _ _ _ _ _ _ _ _ _
 72
    65
 73
     2
 40
0.375
 49
0.25
 74
     0
 49
-0.125
 74
     0
  0
LTYPE
  5
7A4
330
5
100
AcDbSymbolTableRecord
100
AcDbLinetypeTableRecord
  2
PHANTOM2
 70
     0
  3
___ _ _ ___ _ _ ___ _ _ ___ _ _ ___ _ _ ___ _ _
 72
    65
 73
     6
 40
1.25
 49
0.625
 74
     0
 49
-0.125
 74
     0
 49
0.125
 74
     0
 49
-0.125
 74
     0
 49
0.125
 74
     0
 49
-0.125
 74
     0
  0
LTYPE
  5
7A5
330
5
100
AcDbSymbolTableRecord
100
AcDbLinetypeTableRecord
  2
CENTER
 70
     0
  3
Center ____ _ ____ _ ____ _ ____ _ ____ _ ____
 72
    65
 73
     4
 40
2.0
 49
1.25
 74
     0
 49
-0.25
 74
     0
 49
0.25
 74
     0
 49
-0.25
 74
     0
  0
LTYPE
  5
1799
330
5
100
AcDbSymbolTableRecord
100
AcDbLinetypeTableRecord
  2
PHANTOM4
 70
     0
  3
Phantom (.25x) ___ _ _ ___ _ _ ___ _ _ ___ _ _
 72
    65
 73
     6
 40
15.875
 49
7.9375
 74
     0
 49
-1.5875
 74
     0
 49
1.5875
 74
     0
 49
-1.5875
 74
     0
 49
1.5875
 74
     0
 49
-1.5875
 74
     0
  0
LTYPE
  5
17BC
330
5
100
AcDbSymbolTableRecord
100
AcDbLinetypeTableRecord
  2
ACISOTGB
 70
     0
  3
ACISOTGB __ . . __ . .__ . . __ . .__ . . __ . 
 72
    65
 73
     6
 40
9.0
 49
4.0
 74
     0
 49
-1.0
 74
     0
 49
1.0
 74
     0
 49
-1.0
 74
     0
 49
1.0
 74
     0
 49
-1.0
 74
     0
  0
LTYPE
  5
17BD
330
5
100
AcDbSymbolTableRecord
100
AcDbLinetypeTableRecord
  2
ACISOTGL
 70
     0
  3
ACISOTGL __ __ __ __ __ __ __ __ __ __ __ __ __
 72
    65
 73
     2
 40
3.0
 49
2.0
 74
     0
 49
-1.0
 74
     0
  0
LTYPE
  5
17C3
330
5
100
AcDbSymbolTableRecord
100
AcDbLinetypeTableRecord
  2
ACISOWELD
 70
     0
  3
ACISOWELD __ __ __ __ __ __ __ __ __ __ __ __ _
 72
    65
 73
     2
 40
3.0
 49
2.0
 74
     0
 49
-1.0
 74
     0
  0
LTYPE
  5
17D0
330
5
100
AcDbSymbolTableRecord
100
AcDbLinetypeTableRecord
  2
DASHDOT
 70
     0
  3
Dash dot __ . __ . __ . __ . __ . __ . __ . __
 72
    65
 73
     4
 40
1.0
 49
0.5
 74
     0
 49
-0.25
 74
     0
 49
0.0
 74
     0
 49
-0.25
 74
     0
  0
LTYPE
  5
17D1
330
5
100
AcDbSymbolTableRecord
100
AcDbLinetypeTableRecord
  2
DOT2
 70
     0
  3
Dot (.5x) ........................................
 72
    65
 73
     2
 40
0.125
 49
0.0
 74
     0
 49
-0.125
 74
     0
  0
LTYPE
  5
17D2
330
5
100
AcDbSymbolTableRecord
100
AcDbLinetypeTableRecord
  2
PTHANTOM2
 70
     0
  3
Phantom (.5x) ___ _ _ ___ _ _ ___ _ _ ___ _ _
 72
    65
 73
     6
 40
1.25
 49
0.625
 74
     0
 49
-0.125
 74
     0
 49
0.125
 74
     0
 49
-0.125
 74
     0
 49
0.125
 74
     0
 49
-0.125
 74
     0
  0
LTYPE
  5
17D3
330
5
100
AcDbSymbolTableRecord
100
AcDbLinetypeTableRecord
  2
CENTERX2
 70
     0
  3
Center (2x) ________  __  ________  __  _____
 72
    65
 73
     4
 40
2.4
 49
1.5
 74
     0
 49
-0.3
 74
     0
 49
0.3
 74
     0
 49
-0.3
 74
     0
  0
ENDTAB
  0
TABLE
  2
LAYER
  5
2
102
{ACAD_XDICTIONARY
360
9F6
102
}
330
0
100
AcDbSymbolTable
 70
    35
  0
LAYER
  5
E
330
2
100
AcDbSymbolTableRecord
100
AcDbLayerTableRecord
  2
0
 70
     0
 62
     5
  6
CONTINUOUS
370
    -3
390
176
347
142F
  0
LAYER
  5
81
330
2
100
AcDbSymbolTableRecord
100
AcDbLayerTableRecord
  2
CENTER
 70
     0
 62
     1
  6
CENTER2
370
    -3
390
176
347
142F
  0
LAYER
  5
82
330
2
100
AcDbSymbolTableRecord
100
AcDbLayerTableRecord
  2
DIM
 70
     0
 62
     1
  6
CONTINUOUS
370
    -3
390
176
347
142F
  0
LAYER
  5
83
330
2
100
AcDbSymbolTableRecord
100
AcDbLayerTableRecord
  2
DEFPOINTS
 70
     0
 62
     7
  6
CONTINUOUS
290
     0
370
    -3
390
176
347
142F
  0
LAYER
  5
18D
330
2
100
AcDbSymbolTableRecord
100
AcDbLayerTableRecord
  2
DESHED
 70
     0
 62
   190
  6
DASHED2
370
    -3
390
176
347
142F
  0
LAYER
  5
7A6
330
2
100
AcDbSymbolTableRecord
100
AcDbLayerTableRecord
  2
HATCH
 70
     0
 62
     3
  6
CONTINUOUS
370
    -3
390
176
347
142F
  0
LAYER
  5
89D
330
2
100
AcDbSymbolTableRecord
100
AcDbLayerTableRecord
  2
标注线
 70
     0
 62
     1
  6
CONTINUOUS
370
    -3
390
176
347
142F
  0
LAYER
  5
9F0
330
2
100
AcDbSymbolTableRecord
100
AcDbLayerTableRecord
  2
DRAW
 70
     0
 62
     5
  6
CONTINUOUS
370
    -3
390
176
347
142F
  0
LAYER
  5
9F1
330
2
100
AcDbSymbolTableRecord
100
AcDbLayerTableRecord
  2
实体
 70
     0
 62
     5
  6
CONTINUOUS
370
    -3
390
176
347
142F
  0
LAYER
  5
9F2
330
2
100
AcDbSymbolTableRecord
100
AcDbLayerTableRecord
  2
中心线
 70
     0
 62
     1
  6
CENTER
370
    -3
390
176
347
142F
  0
LAYER
  5
C3C
330
2
100
AcDbSymbolTableRecord
100
AcDbLayerTableRecord
  2
标注
 70
     0
 62
     2
  6
CONTINUOUS
370
    -3
390
176
347
142F
  0
LAYER
  5
13ED
330
2
100
AcDbSymbolTableRecord
100
AcDbLayerTableRecord
  2
layer2
 70
     0
 62
     1
  6
CONTINUOUS
370
    -3
390
176
347
142F
  0
LAYER
  5
13EE
330
2
100
AcDbSymbolTableRecord
100
AcDbLayerTableRecord
  2
layer3
 70
     0
 62
     2
  6
CONTINUOUS
370
    -3
390
176
347
142F
  0
LAYER
  5
13EF
330
2
100
AcDbSymbolTableRecord
100
AcDbLayerTableRecord
  2
layer4
 70
     0
 62
     3
  6
CONTINUOUS
370
    -3
390
176
347
142F
  0
LAYER
  5
13F0
330
2
100
AcDbSymbolTableRecord
100
AcDbLayerTableRecord
  2
layer5
 70
     0
 62
     5
  6
CONTINUOUS
370
    -3
390
176
347
142F
  0
LAYER
  5
13F1
330
2
100
AcDbSymbolTableRecord
100
AcDbLayerTableRecord
  2
layer6
 70
     0
 62
   140
  6
CONTINUOUS
370
    -3
390
176
347
142F
  0
LAYER
  5
13F2
330
2
100
AcDbSymbolTableRecord
100
AcDbLayerTableRecord
  2
layer7
 70
     0
 62
    30
  6
CONTINUOUS
370
    -3
390
176
347
142F
  0
LAYER
  5
13F3
330
2
100
AcDbSymbolTableRecord
100
AcDbLayerTableRecord
  2
layer8
 70
     0
 62
    60
  6
CONTINUOUS
370
    -3
390
176
347
142F
  0
LAYER
  5
13F4
330
2
100
AcDbSymbolTableRecord
100
AcDbLayerTableRecord
  2
layer9
 70
     0
 62
   210
  6
CONTINUOUS
370
    -3
390
176
347
142F
  0
LAYER
  5
1791
330
2
100
AcDbSymbolTableRecord
100
AcDbLayerTableRecord
  2
1轮廓实线层
 70
     0
 62
     7
  6
CONTINUOUS
370
    -3
390
176
347
142F
  0
LAYER
  5
1792
330
2
100
AcDbSymbolTableRecord
100
AcDbLayerTableRecord
  2
2细线层
 70
     0
 62
     4
  6
CONTINUOUS
370
    -3
390
176
347
142F
  0
LAYER
  5
1793
330
2
100
AcDbSymbolTableRecord
100
AcDbLayerTableRecord
  2
3中心线层
 70
     0
 62
     1
  6
CENTER2
370
    -3
390
176
347
142F
  0
LAYER
  5
1794
330
2
100
AcDbSymbolTableRecord
100
AcDbLayerTableRecord
  2
4虚线层
 70
     0
 62
     6
  6
DASHED2
370
    -3
390
176
347
142F
  0
LAYER
  5
1795
330
2
100
AcDbSymbolTableRecord
100
AcDbLayerTableRecord
  2
5剖面线层
 70
     0
 62
     2
  6
CONTINUOUS
370
    -3
390
176
347
142F
  0
LAYER
  5
1796
330
2
100
AcDbSymbolTableRecord
100
AcDbLayerTableRecord
  2
6文字层
 70
     0
 62
     3
  6
CONTINUOUS
370
    -3
390
176
347
142F
  0
LAYER
  5
1797
330
2
100
AcDbSymbolTableRecord
100
AcDbLayerTableRecord
  2
7标注层
 70
     0
 62
     4
  6
CONTINUOUS
370
    -3
390
176
347
142F
  0
LAYER
  5
1798
330
2
100
AcDbSymbolTableRecord
100
AcDbLayerTableRecord
  2
8符号标注层
 70
     0
 62
    31
  6
CONTINUOUS
370
    -3
390
176
347
142F
  0
LAYER
  5
179A
330
2
100
AcDbSymbolTableRecord
100
AcDbLayerTableRecord
  2
9双点划线层
 70
     0
 62
     6
  6
PHANTOM4
370
    -3
390
176
347
142F
  0
LAYER
  5
179B
330
2
100
AcDbSymbolTableRecord
100
AcDbLayerTableRecord
  2
轮廓虚线层
 70
     0
 62
     7
  6
DASHED2
370
    -3
390
176
347
142F
  0
LAYER
  5
179C
330
2
100
AcDbSymbolTableRecord
100
AcDbLayerTableRecord
  2
图框层
 70
     0
 62
     7
  6
CONTINUOUS
370
    -3
390
176
347
142F
  0
LAYER
  5
179D
330
2
100
AcDbSymbolTableRecord
100
AcDbLayerTableRecord
  2
排图层
 70
     0
 62
     5
  6
CONTINUOUS
370
    -3
390
176
347
142F
  0
LAYER
  5
179E
330
2
100
AcDbSymbolTableRecord
100
AcDbLayerTableRecord
  2
消隐层
 70
     0
 62
    -5
  6
CONTINUOUS
370
    -3
390
176
347
142F
  0
LAYER
  5
179F
330
2
100
AcDbSymbolTableRecord
100
AcDbLayerTableRecord
  2
用户自定义1
 70
     0
 62
     7
  6
CONTINUOUS
370
    -3
390
176
347
142F
  0
LAYER
  5
17A0
330
2
100
AcDbSymbolTableRecord
100
AcDbLayerTableRecord
  2
用户自定义2
 70
     0
 62
     7
  6
CONTINUOUS
370
    -3
390
176
347
142F
  0
LAYER
  5
17A1
330
2
100
AcDbSymbolTableRecord
100
AcDbLayerTableRecord
  2
用户自定义3
 70
     0
 62
     7
  6
CONTINUOUS
370
    -3
390
176
347
142F
  0
ENDTAB
  0
TABLE
  2
STYLE
  5
3
330
0
100
AcDbSymbolTable
 70
     8
  0
STYLE
  5
F
330
3
100
AcDbSymbolTableRecord
100
AcDbTextStyleTableRecord
  2
STANDARD
 70
     0
 40
0.0
 41
1.0
 50
0.0
 71
     0
 42
2.5
  3
txt
  4
hztxt.shx
  0
STYLE
  5
195
330
3
100
AcDbSymbolTableRecord
100
AcDbTextStyleTableRecord
  2

 70
     1
 40
0.0
 41
1.0
 50
0.0
 71
     0
 42
2.5
  3
ltypeshp.shx
  4

  0
STYLE
  5
17A3
330
3
100
AcDbSymbolTableRecord
100
AcDbTextStyleTableRecord
  2
PC_TEXTSTYLE
 70
     0
 40
0.0
 41
0.707
 50
0.0
 71
     0
 42
2.5
  3
ISOCP.SHX
  4
GBCBIG.SHX
  0
STYLE
  5
17A4
330
3
100
AcDbSymbolTableRecord
100
AcDbTextStyleTableRecord
  2
PC_TEXTSTYLE2
 70
     0
 40
0.0
 41
0.707
 50
0.0
 71
     0
 42
2.5
  3
ISOCP.SHX
  4
GBCBIG.SHX
  0
STYLE
  5
17A5
330
3
100
AcDbSymbolTableRecord
100
AcDbTextStyleTableRecord
  2
PC_TEXTSTYLE3
 70
     0
 40
0.0
 41
0.707
 50
0.0
 71
     0
 42
2.5
  3
ISOCP.SHX
  4
GBCBIG.SHX
  0
STYLE
  5
17A6
330
3
100
AcDbSymbolTableRecord
100
AcDbTextStyleTableRecord
  2
PC_TEXTSTYLE4
 70
     0
 40
0.0
 41
0.707
 50
0.0
 71
     0
 42
2.5
  3
ISOCP.SHX
  4
GBCBIG.SHX
  0
STYLE
  5
17A7
330
3
100
AcDbSymbolTableRecord
100
AcDbTextStyleTableRecord
  2
PC_TEXTSTYLE5
 70
     0
 40
0.0
 41
0.707
 50
0.0
 71
     0
 42
2.5
  3
ISOCP.SHX
  4
GBCBIG.SHX
  0
STYLE
  5
17A8
330
3
100
AcDbSymbolTableRecord
100
AcDbTextStyleTableRecord
  2
ZWISOGDT
 70
     0
 40
0.0
 41
1.0
 50
0.0
 71
     0
 42
2.5
  3
ISOCP.SHX
  4
GBCBIG.SHX
  0
ENDTAB
  0
TABLE
  2
VIEW
  5
6
330
0
100
AcDbSymbolTable
 70
     0
  0
ENDTAB
  0
TABLE
  2
UCS
  5
7
330
0
100
AcDbSymbolTable
 70
     0
  0
ENDTAB
  0
TABLE
  2
APPID
  5
9
330
0
100
AcDbSymbolTable
 70
     5
  0
APPID
  5
10
330
9
100
AcDbSymbolTableRecord
100
AcDbRegAppTableRecord
  2
ACAD
 70
     0
  0
APPID
  5
2BB
330
9
100
AcDbSymbolTableRecord
100
AcDbRegAppTableRecord
  2
DCO15
 70
     0
  0
APPID
  5
178A
330
9
100
AcDbSymbolTableRecord
100
AcDbRegAppTableRecord
  2
ZWMCAD_GENSTANDARDFRAME_13_
 70
     0
  0
APPID
  5
178B
330
9
100
AcDbSymbolTableRecord
100
AcDbRegAppTableRecord
  2
ZWMCAD_GENSCA_13_
 70
     0
  0
APPID
  5
17D9
330
9
100
AcDbSymbolTableRecord
100
AcDbRegAppTableRecord
  2
ACAD_MLEADERVER
 70
     0
  0
ENDTAB
  0
TABLE
  2
DIMSTYLE
  5
A
330
0
100
AcDbSymbolTable
 70
    19
100
AcDbDimStyleTable
  0
DIMSTYLE
105
1D
330
A
100
AcDbSymbolTableRecord
100
AcDbDimStyleTableRecord
  2
STANDARD
 70
     0
178
     0
340
F
  0
DIMSTYLE
105
84
102
{ACAD_REACTORS
330
8D
330
8B
330
86
330
95
330
89
330
90
330
8F
330
9C
330
88
330
87
102
}
330
A
100
AcDbSymbolTableRecord
100
AcDbDimStyleTableRecord
  2
B
 70
     0
 40
7.62
 41
1.5
 42
0.3125
 43
0.7
 44
1.0
 73
     0
 74
     0
 77
     1
140
1.5
141
0.045
147
0.3
178
     0
271
     1
340
F
  0
DIMSTYLE
105
204
330
A
100
AcDbSymbolTableRecord
100
AcDbDimStyleTableRecord
  2
b1
 70
     0
  3
"
  4
"
 40
10.0
 41
1.5
 42
0.3125
 43
0.7
 44
1.0
 47
1.0
 48
1.0
 77
     1
140
3.0
141
0.045
143
0.03937
144
0.03937
146
0.8
147
0.8
178
     0
271
     3
272
     3
273
     5
277
     5
340
F
  0
DIMSTYLE
105
205
330
A
100
AcDbSymbolTableRecord
100
AcDbDimStyleTableRecord
  2
B4
 70
     0
 40
7.62
 41
2.5
 42
0.3125
 43
0.7
 44
1.0
 77
     1
140
3.3
141
0.045
147
0.8
178
     0
271
     1
272
     1
289
     2
340
F
  0
DIMSTYLE
105
206
330
A
100
AcDbSymbolTableRecord
100
AcDbDimStyleTableRecord
  2
b44
 70
     0
  3
"
  4
"
 40
10.0
 41
2.1
 42
0.3125
 43
0.7
 44
1.0
 47
1.0
 48
1.0
 77
     1
140
3.0
141
0.045
143
0.03937
144
0.03937
146
0.8
147
0.8
178
     0
271
     3
272
     3
273
     5
277
     5
340
F
  0
DIMSTYLE
105
54B
330
A
100
AcDbSymbolTableRecord
100
AcDbDimStyleTableRecord
  2
bb
 70
     0
  4
"
 40
7.62
 41
1.5
 42
0.3125
 43
0.7
 44
1.0
 47
2.0
 48
2.0
 71
     1
 73
     0
 74
     0
 77
     1
140
1.5
141
0.045
143
0.03937
146
0.7
147
0.3
170
     1
178
     0
271
     1
272
     1
273
     5
284
     8
286
     8
289
     2
340
F
  0
DIMSTYLE
105
9F3
102
{ACAD_REACTORS
330
1109
330
110A
102
}
330
A
100
AcDbSymbolTableRecord
100
AcDbDimStyleTableRecord
  2
ISO-25
 70
     0
 41
2.5
 42
0.625
 43
3.75
 44
1.25
 73
     0
 74
     0
 77
     1
 78
     8
140
2.5
141
2.5
143
0.03937007874016
147
0.625
171
     3
172
     1
178
     0
271
     2
272
     2
274
     3
278
    44
283
     0
284
     8
340
F
  0
DIMSTYLE
105
9F4
330
A
100
AcDbSymbolTableRecord
100
AcDbDimStyleTableRecord
  2
B11
 70
     0
 40
7.62
 41
2.0
 42
0.8
 43
0.7
 44
1.5
 47
0.1
 71
     1
 73
     0
 74
     0
 77
     1
140
1.9
141
0.1
144
0.25
146
0.7
147
0.6
178
     0
271
     1
272
     1
340
F
  0
DIMSTYLE
105
9F5
330
A
100
AcDbSymbolTableRecord
100
AcDbDimStyleTableRecord
  2
A
 70
     0
 40
7.62
 41
2.0
 42
0.6
 43
0.7
 44
1.5
 73
     0
 74
     0
 77
     1
140
1.9
141
0.1
147
0.6
178
     0
271
     2
289
     2
340
F
  0
DIMSTYLE
105
C3D
330
A
100
AcDbSymbolTableRecord
100
AcDbDimStyleTableRecord
  2
圆角
 70
     0
 41
2.5
 42
0.0
 43
8.0
 44
1.25
 73
     0
 77
     1
 78
     8
 79
     2
140
2.5
141
0.0
147
1.0
176
   256
177
   256
271
     2
178
   256
179
     2
271
     2
272
     2
340
F
371
    -1
372
    -1
  0
DIMSTYLE
105
C3E
330
A
100
AcDbSymbolTableRecord
100
AcDbDimStyleTableRecord
  2
ISO
 70
     0
 41
50.0
 42
0.0
 43
160.0
 44
25.0
 73
     0
 77
     1
 78
     8
 79
     2
140
50.0
141
0.0
147
18.0
176
   256
177
   256
271
     0
178
   256
179
     2
271
     0
272
     0
340
F
371
    -1
372
    -1
  0
DIMSTYLE
105
17AB
330
A
100
AcDbSymbolTableRecord
100
AcDbDimStyleTableRecord
  2
GB_DIMSTYLE
 70
     0
 41
3.5
 42
0.0
 43
10.0
 44
1.0
 47
0.1
 48
0.1
 69
     1
 70
     0
 73
     0
 74
     0
 77
     1
 78
     8
 79
     2
140
3.5
141
0.0
143
0.04
146
0.71
147
1.5
172
     1
175
     1
176
   256
271
     2
178
     3
271
     2
272
     3
274
     4
283
     0
284
     8
340
17A3
  0
DIMSTYLE
105
17AC
330
A
100
AcDbSymbolTableRecord
100
AcDbDimStyleTableRecord
  2
GB_LINEAR
 70
     0
 41
3.5
 42
0.0
 43
10.0
 44
1.0
 47
0.1
 48
0.1
 69
     1
 70
     0
 73
     0
 74
     0
 77
     1
 78
     8
 79
     2
140
3.5
141
0.0
143
0.04
146
0.71
147
1.5
172
     1
175
     1
176
   256
271
     2
178
     3
271
     2
272
     3
274
     4
283
     0
284
     8
340
17A3
  0
DIMSTYLE
105
17AD
330
A
100
AcDbSymbolTableRecord
100
AcDbDimStyleTableRecord
  2
GB_DIAMETER
 70
     0
 41
3.5
 42
0.0
 43
10.0
 44
1.0
 47
0.1
 48
0.1
 69
     1
 70
     0
 73
     0
 74
     0
 77
     1
 78
     8
 79
     2
140
3.5
141
0.0
143
0.04
146
0.71
147
1.5
172
     1
175
     1
176
   256
271
     2
178
     3
271
     2
272
     3
274
     4
280
     4
283
     0
284
     8
288
     1
289
     2
340
17A3
  0
DIMSTYLE
105
17AE
330
A
100
AcDbSymbolTableRecord
100
AcDbDimStyleTableRecord
  2
GB_RADIAL
 70
     0
 41
3.5
 42
0.0
 43
10.0
 44
1.0
 47
0.1
 48
0.1
 69
     1
 70
     0
 73
     0
 74
     0
 77
     1
 78
     8
 79
     2
140
3.5
141
0.0
143
0.04
146
0.71
147
1.5
172
     1
175
     1
176
   256
271
     2
178
     3
271
     2
272
     3
274
     4
280
     4
283
     0
284
     8
289
     2
340
17A3
  0
DIMSTYLE
105
17AF
330
A
100
AcDbSymbolTableRecord
100
AcDbDimStyleTableRecord
  2
GB_LEADER
 70
     0
 41
3.5
 42
0.0
 43
10.0
 44
1.0
 47
0.1
 48
0.1
 69
     1
 70
     0
 73
     0
 74
     0
 77
     1
 78
     8
 79
     2
140
3.5
141
0.0
143
0.04
146
0.71
147
1.5
172
     1
175
     1
176
   256
271
     2
178
     3
271
     2
272
     3
274
     4
283
     0
284
     8
340
17A3
  0
DIMSTYLE
105
17B0
330
A
100
AcDbSymbolTableRecord
100
AcDbDimStyleTableRecord
  2
GB_ORDINATE
 70
     0
 41
3.5
 42
0.0
 43
10.0
 44
1.0
 47
0.1
 48
0.1
 69
     1
 70
     0
 73
     0
 74
     0
 77
     1
 78
     8
 79
     2
140
3.5
141
0.0
143
0.04
146
0.71
147
1.5
172
     1
175
     1
176
   256
271
     2
178
     3
271
     2
272
     3
274
     4
283
     0
284
     8
340
17A3
  0
DIMSTYLE
105
17B1
330
A
100
AcDbSymbolTableRecord
100
AcDbDimStyleTableRecord
  2
GB_ANGULAR
 70
     0
 41
3.5
 42
0.0
 43
10.0
 44
1.0
 47
0.1
 48
0.1
 69
     1
 70
     0
 77
     1
 78
     8
 79
     2
140
3.5
141
0.0
143
0.04
146
0.71
147
1.5
172
     1
176
   256
271
     2
178
     3
271
     2
272
     3
274
     4
283
     0
284
     8
340
17A3
  0
DIMSTYLE
105
17B2
330
A
100
AcDbSymbolTableRecord
100
AcDbDimStyleTableRecord
  2
GB_BALLOON
 70
     0
 41
3.5
 42
0.0
 43
10.0
 44
1.0
 47
0.1
 48
0.1
 69
     1
 70
     0
 73
     0
 74
     0
 77
     1
 78
     8
 79
     2
140
3.5
141
0.0
143
0.04
146
0.71
147
1.5
172
     1
175
     1
176
   256
271
     2
178
     3
271
     2
272
     3
274
     4
283
     0
284
     8
340
17A3
  0
ENDTAB
  0
TABLE
  2
BLOCK_RECORD
  5
1
330
0
100
AcDbSymbolTable
 70
    16
  0
BLOCK_RECORD
  5
18
330
1
100
AcDbSymbolTableRecord
100
AcDbBlockTableRecord
  2
*Model_Space
340
17B
 70
     0
280
     1
281
     0
  0
BLOCK_RECORD
  5
15
330
1
100
AcDbSymbolTableRecord
100
AcDbBlockTableRecord
  2
*PAPER_SPACE
340
17C
 70
     0
280
     1
281
     0
  0
BLOCK_RECORD
  5
20
330
1
100
AcDbSymbolTableRecord
100
AcDbBlockTableRecord
  2
*D0
340
0
 70
     0
280
     1
281
     0
  0
BLOCK_RECORD
  5
2A
330
1
100
AcDbSymbolTableRecord
100
AcDbBlockTableRecord
  2
*D1
340
0
 70
     0
280
     1
281
     0
  0
BLOCK_RECORD
  5
34
330
1
100
AcDbSymbolTableRecord
100
AcDbBlockTableRecord
  2
*D2
340
0
 70
     0
280
     1
281
     0
  0
BLOCK_RECORD
  5
3C
330
1
100
AcDbSymbolTableRecord
100
AcDbBlockTableRecord
  2
*D3
340
0
 70
     0
280
     1
281
     0
  0
BLOCK_RECORD
  5
48
330
1
100
AcDbSymbolTableRecord
100
AcDbBlockTableRecord
  2
*D4
340
0
 70
     0
280
     1
281
     0
  0
BLOCK_RECORD
  5
54
330
1
100
AcDbSymbolTableRecord
100
AcDbBlockTableRecord
  2
*D5
340
0
 70
     0
280
     1
281
     0
  0
BLOCK_RECORD
  5
5C
330
1
100
AcDbSymbolTableRecord
100
AcDbBlockTableRecord
  2
*D6
340
0
 70
     0
280
     1
281
     0
  0
BLOCK_RECORD
  5
64
330
1
100
AcDbSymbolTableRecord
100
AcDbBlockTableRecord
  2
*D7
340
0
 70
     0
280
     1
281
     0
  0
BLOCK_RECORD
  5
6C
330
1
100
AcDbSymbolTableRecord
100
AcDbBlockTableRecord
  2
*D8
340
0
 70
     0
280
     1
281
     0
  0
BLOCK_RECORD
  5
74
330
1
100
AcDbSymbolTableRecord
100
AcDbBlockTableRecord
  2
*D9
340
0
 70
     0
280
     1
281
     0
  0
BLOCK_RECORD
  5
85
330
1
100
AcDbSymbolTableRecord
100
AcDbBlockTableRecord
  2
A$C656C1E65
340
0
 70
     0
280
     1
281
     0
  0
BLOCK_RECORD
  5
9F8
330
1
100
AcDbSymbolTableRecord
100
AcDbBlockTableRecord
  2
A$C2CB4366D
340
0
 70
     0
280
     1
281
     0
  0
BLOCK_RECORD
  5
115B
330
1
100
AcDbSymbolTableRecord
100
AcDbBlockTableRecord
  2
*D12
340
0
 70
     0
280
     1
281
     0
  0
BLOCK_RECORD
  5
1167
330
1
100
AcDbSymbolTableRecord
100
AcDbBlockTableRecord
  2
*D13
340
0
 70
     0
280
     1
281
     0
  0
BLOCK_RECORD
  5
1417
330
1
100
AcDbSymbolTableRecord
100
AcDbBlockTableRecord
  2
*D15
340
0
 70
     0
280
     1
281
     0
  0
BLOCK_RECORD
  5
17D6
330
1
100
AcDbSymbolTableRecord
100
AcDbBlockTableRecord
  2
12345ssdlh@&&@12345ssdlh+createbycq
340
0
 70
     0
280
     1
281
     0
  0
ENDTAB
  0
ENDSEC
  0
SECTION
  2
BLOCKS
  0
BLOCK
  5
19
330
18
100
AcDbEntity
  8
0
100
AcDbBlockBegin
  2
*Model_Space
 70
     0
 10
0.0
 20
0.0
 30
0.0
  3
*Model_Space
  1

  0
ENDBLK
  5
1A
330
18
100
AcDbEntity
  8
0
100
AcDbBlockEnd
  0
BLOCK
  5
16
330
15
100
AcDbEntity
 67
     1
  8
0
100
AcDbBlockBegin
  2
*PAPER_SPACE
 70
     0
 10
0.0
 20
0.0
 30
0.0
  3
*PAPER_SPACE
  1

  0
ENDBLK
  5
17
330
15
100
AcDbEntity
 67
     1
  8
0
100
AcDbBlockEnd
  0
BLOCK
  5
28
330
20
100
AcDbEntity
  8
0
100
AcDbBlockBegin
  2
*D0
 70
     1
 10
0.0
 20
0.0
 30
0.0
  3
*D0
  1

  0
LINE
  5
21
330
20
100
AcDbEntity
  8
0
  6
ByBlock
 62
     0
100
AcDbLine
 10
14341.544259
 20
-6766.314711
 30
0.0
 11
14255.088024
 21
-6768.621370999999
 31
0.0
  0
MTEXT
  5
22
330
20
100
AcDbEntity
  8
0
  6
ByBlock
 62
     0
100
AcDbMText
 10
14309.528684
 20
-6759.165042000001
 30
0.0
 40
11.43
 41
0.0
 46
0.0
 71
     5
 72
     1
  1
\A1;R1201.7
 11
0.9996442654170835
 21
0.02667100708146003
 31
0.0
 73
     1
 44
1.0
  0
SOLID
  5
23
330
20
100
AcDbEntity
  8
0
  6
ByBlock
 62
     0
100
AcDbTrace
 10
14266.463151
 20
-6766.412204
 30
0.0
 11
14266.564766
 21
-6770.220848000001
 31
0.0
 12
14255.088024
 22
-6768.621370999999
 32
0.0
 13
14255.088024
 23
-6768.621370999999
 33
0.0
  0
LINE
  5
24
330
20
100
AcDbEntity
  8
0
  6
ByBlock
 62
     0
100
AcDbLine
 10
13053.472597
 20
-6800.671423000001
 30
0.0
 11
13054.158397
 21
-6800.671423000001
 31
0.0
  0
LINE
  5
25
330
20
100
AcDbEntity
  8
0
  6
ByBlock
 62
     0
100
AcDbLine
 10
13053.815497
 20
-6801.014323
 30
0.0
 11
13053.815497
 21
-6800.328523
 31
0.0
  0
POINT
  5
26
330
20
100
AcDbEntity
  8
DEFPOINTS
  6
ByBlock
 62
     0
100
AcDbPoint
 10
14255.088024
 20
-6768.621370999999
 30
0.0
  0
POINT
  5
27
330
20
100
AcDbEntity
  8
DEFPOINTS
  6
ByBlock
 62
     0
100
AcDbPoint
 10
13053.815497
 20
-6800.671423000001
 30
0.0
  0
ENDBLK
  5
29
330
20
100
AcDbEntity
  8
0
100
AcDbBlockEnd
  0
BLOCK
  5
32
330
2A
100
AcDbEntity
  8
0
100
AcDbBlockBegin
  2
*D1
 70
     1
 10
0.0
 20
0.0
 30
0.0
  3
*D1
  1

  0
LINE
  5
2B
330
2A
100
AcDbEntity
  8
0
  6
ByBlock
 62
     0
100
AcDbLine
 10
13395.876672
 20
-6775.386468000001
 30
0.0
 11
13482.34701
 21
-6777.084062999999
 31
0.0
  0
MTEXT
  5
2C
330
2A
100
AcDbEntity
  8
0
  6
ByBlock
 62
     0
100
AcDbMText
 10
13427.841089
 20
-6768.011455
 30
0.0
 40
11.43
 41
0.0
 46
0.0
 71
     5
 72
     1
  1
\A1;R1201.7
 11
0.9998073521157146
 21
-0.01962800691266139
 31
0.0
 73
     1
 44
1.0
  0
SOLID
  5
2D
330
2A
100
AcDbEntity
  8
0
  6
ByBlock
 62
     0
100
AcDbTrace
 10
13470.956604
 20
-6774.955078
 30
0.0
 11
13470.88182
 21
-6778.764344
 31
0.0
 12
13482.34701
 22
-6777.084062999999
 32
0.0
 13
13482.34701
 23
-6777.084062999999
 33
0.0
  0
LINE
  5
2E
330
2A
100
AcDbEntity
  8
0
  6
ByBlock
 62
     0
100
AcDbLine
 10
14683.472597
 20
-6800.671423000001
 30
0.0
 11
14684.158397
 21
-6800.671423000001
 31
0.0
  0
LINE
  5
2F
330
2A
100
AcDbEntity
  8
0
  6
ByBlock
 62
     0
100
AcDbLine
 10
14683.815497
 20
-6801.014323
 30
0.0
 11
14683.815497
 21
-6800.328523
 31
0.0
  0
POINT
  5
30
330
2A
100
AcDbEntity
  8
DEFPOINTS
  6
ByBlock
 62
     0
100
AcDbPoint
 10
13482.34701
 20
-6777.084062999999
 30
0.0
  0
POINT
  5
31
330
2A
100
AcDbEntity
  8
DEFPOINTS
  6
ByBlock
 62
     0
100
AcDbPoint
 10
14683.815497
 20
-6800.671423000001
 30
0.0
  0
ENDBLK
  5
33
330
2A
100
AcDbEntity
  8
0
100
AcDbBlockEnd
  0
BLOCK
  5
3A
330
34
100
AcDbEntity
  8
0
100
AcDbBlockBegin
  2
*D2
 70
     1
 10
0.0
 20
0.0
 30
0.0
  3
*D2
  1

  0
LINE
  5
35
330
34
100
AcDbEntity
  8
0
  6
ByBlock
 62
     0
100
AcDbLine
 10
13677.052022
 20
-8359.574506
 30
0.0
 11
13678.646219
 21
-8460.301735
 31
0.0
  0
MTEXT
  5
36
330
34
100
AcDbEntity
  8
0
  6
ByBlock
 62
     0
100
AcDbMText
 10
13685.585612
 20
-8393.162169
 30
0.0
 40
11.43
 41
0.0
 46
0.0
 71
     5
 72
     1
  1
\A1;R1992.0
 11
0.01582499646904806
 21
-0.9998747769029653
 31
0.0
 73
     1
 44
1.0
  0
SOLID
  5
37
330
34
100
AcDbEntity
  8
0
  6
ByBlock
 62
     0
100
AcDbTrace
 10
13680.370102
 20
-8448.84302
 30
0.0
 11
13676.560579
 21
-8448.903312
 31
0.0
 12
13678.646219
 22
-8460.301735
 32
0.0
 13
13678.646219
 23
-8460.301735
 33
0.0
  0
POINT
  5
38
330
34
100
AcDbEntity
  8
DEFPOINTS
  6
ByBlock
 62
     0
100
AcDbPoint
 10
13678.646219
 20
-8460.301735
 30
-240.0
  0
POINT
  5
39
330
34
100
AcDbEntity
  8
DEFPOINTS
  6
ByBlock
 62
     0
100
AcDbPoint
 10
13647.123023
 20
-6468.551176
 30
-240.0
  0
ENDBLK
  5
3B
330
34
100
AcDbEntity
  8
0
100
AcDbBlockEnd
  0
BLOCK
  5
46
330
3C
100
AcDbEntity
  8
0
100
AcDbBlockBegin
  2
*D3
 70
     1
 10
0.0
 20
0.0
 30
0.0
  3
*D3
  1

  0
LINE
  5
3D
330
3C
100
AcDbEntity
  8
0
  6
ByBlock
 62
     0
100
AcDbLine
 10
13668.815497
 20
-7011.227542000001
 30
0.0
 11
13668.815497
 21
-7154.564311
 31
0.0
  0
LINE
  5
3E
330
3C
100
AcDbEntity
  8
0
  6
ByBlock
 62
     0
100
AcDbLine
 10
14067.315497
 20
-7011.227542000001
 30
0.0
 11
14067.315497
 21
-7154.564311
 31
0.0
  0
LINE
  5
3F
330
3C
100
AcDbEntity
  8
0
  6
ByBlock
 62
     0
100
AcDbLine
 10
13680.245497
 20
-7146.944311
 30
0.0
 11
14055.885497
 21
-7146.944311
 31
0.0
  0
SOLID
  5
40
330
3C
100
AcDbEntity
  8
0
  6
ByBlock
 62
     0
100
AcDbTrace
 10
13680.245497
 20
-7145.039311
 30
0.0
 11
13680.245497
 21
-7148.849311
 31
0.0
 12
13668.815497
 22
-7146.944311
 32
0.0
 13
13668.815497
 23
-7146.944311
 33
0.0
  0
SOLID
  5
41
330
3C
100
AcDbEntity
  8
0
  6
ByBlock
 62
     0
100
AcDbTrace
 10
14055.885497
 20
-7145.039311
 30
0.0
 11
14055.885497
 21
-7148.849311
 31
0.0
 12
14067.315497
 22
-7146.944311
 32
0.0
 13
14067.315497
 23
-7146.944311
 33
0.0
  0
MTEXT
  5
42
330
3C
100
AcDbEntity
  8
0
  6
ByBlock
 62
     0
100
AcDbMText
 10
13868.065497
 20
-7138.943311
 30
0.0
 40
11.43
 41
0.0
 46
0.0
 71
     5
 72
     1
  1
\A1;398.5
 73
     1
 44
1.0
  0
POINT
  5
43
330
3C
100
AcDbEntity
  8
DEFPOINTS
  6
ByBlock
 62
     0
100
AcDbPoint
 10
13668.815497
 20
-7008.846292
 30
0.0
  0
POINT
  5
44
330
3C
100
AcDbEntity
  8
DEFPOINTS
  6
ByBlock
 62
     0
100
AcDbPoint
 10
14067.315497
 20
-7008.846292
 30
0.0
  0
POINT
  5
45
330
3C
100
AcDbEntity
  8
DEFPOINTS
  6
ByBlock
 62
     0
100
AcDbPoint
 10
14067.315497
 20
-7146.944311
 30
0.0
  0
ENDBLK
  5
47
330
3C
100
AcDbEntity
  8
0
100
AcDbBlockEnd
  0
BLOCK
  5
52
330
48
100
AcDbEntity
  8
0
100
AcDbBlockBegin
  2
*D4
 70
     1
 10
0.0
 20
0.0
 30
0.0
  3
*D4
  1

  0
LINE
  5
49
330
48
100
AcDbEntity
  8
0
  6
ByBlock
 62
     0
100
AcDbLine
 10
14013.139376
 20
-7008.846292
 30
0.0
 11
14397.146276
 21
-7008.846292
 31
0.0
  0
LINE
  5
4A
330
48
100
AcDbEntity
  8
0
  6
ByBlock
 62
     0
100
AcDbLine
 10
14013.139376
 20
-6598.846292
 30
0.0
 11
14397.146276
 21
-6598.846292
 31
0.0
  0
LINE
  5
4B
330
48
100
AcDbEntity
  8
0
  6
ByBlock
 62
     0
100
AcDbLine
 10
14389.526276
 20
-6997.416292
 30
0.0
 11
14389.526276
 21
-6610.276292
 31
0.0
  0
SOLID
  5
4C
330
48
100
AcDbEntity
  8
0
  6
ByBlock
 62
     0
100
AcDbTrace
 10
14387.621276
 20
-6997.416292
 30
0.0
 11
14391.431276
 21
-6997.416292
 31
0.0
 12
14389.526276
 22
-7008.846292
 32
0.0
 13
14389.526276
 23
-7008.846292
 33
0.0
  0
SOLID
  5
4D
330
48
100
AcDbEntity
  8
0
  6
ByBlock
 62
     0
100
AcDbTrace
 10
14387.621276
 20
-6610.276292
 30
0.0
 11
14391.431276
 21
-6610.276292
 31
0.0
 12
14389.526276
 22
-6598.846292
 32
0.0
 13
14389.526276
 23
-6598.846292
 33
0.0
  0
MTEXT
  5
4E
330
48
100
AcDbEntity
  8
0
  6
ByBlock
 62
     0
100
AcDbMText
 10
14381.525276
 20
-6803.846292
 30
0.0
 40
11.43
 41
0.0
 46
0.0
 71
     5
 72
     1
  1
\A1;410.0
 11
0.0
 21
1.0
 31
0.0
 73
     1
 44
1.0
  0
POINT
  5
4F
330
48
100
AcDbEntity
  8
DEFPOINTS
  6
ByBlock
 62
     0
100
AcDbPoint
 10
14010.758126
 20
-7008.846292
 30
0.0
  0
POINT
  5
50
330
48
100
AcDbEntity
  8
DEFPOINTS
  6
ByBlock
 62
     0
100
AcDbPoint
 10
14010.758126
 20
-6598.846292
 30
0.0
  0
POINT
  5
51
330
48
100
AcDbEntity
  8
DEFPOINTS
  6
ByBlock
 62
     0
100
AcDbPoint
 10
14389.526276
 20
-6598.846292
 30
0.0
  0
ENDBLK
  5
53
330
48
100
AcDbEntity
  8
0
100
AcDbBlockEnd
  0
BLOCK
  5
5A
330
54
100
AcDbEntity
  8
0
100
AcDbBlockBegin
  2
*D5
 70
     1
 10
0.0
 20
0.0
 30
0.0
  3
*D5
  1

  0
LINE
  5
55
330
54
100
AcDbEntity
  8
0
  6
ByBlock
 62
     0
100
AcDbLine
 10
13568.490578
 20
-6688.648233
 30
0.0
 11
13508.594126
 21
-6643.415852
 31
0.0
  0
MTEXT
  5
56
330
54
100
AcDbEntity
  8
0
  6
ByBlock
 62
     0
100
AcDbMText
 10
13552.485365
 20
-6666.535321
 30
0.0
 40
11.43
 41
0.0
 46
0.0
 71
     5
 72
     1
  1
\A1;R100.0
 11
0.7980131126120273
 21
-0.6026400850418629
 31
0.0
 73
     1
 44
1.0
  0
SOLID
  5
57
330
54
100
AcDbEntity
  8
0
  6
ByBlock
 62
     0
100
AcDbTrace
 10
13518.863443
 20
-6648.783817
 30
0.0
 11
13516.567383
 21
-6651.824246
 31
0.0
 12
13508.594126
 22
-6643.415852
 32
0.0
 13
13508.594126
 23
-6643.415852
 33
0.0
  0
POINT
  5
58
330
54
100
AcDbEntity
  8
DEFPOINTS
  6
ByBlock
 62
     0
100
AcDbPoint
 10
13508.594126
 20
-6643.415852
 30
0.0
  0
POINT
  5
59
330
54
100
AcDbEntity
  8
DEFPOINTS
  6
ByBlock
 62
     0
100
AcDbPoint
 10
13588.395413
 20
-6703.679893
 30
0.0
  0
ENDBLK
  5
5B
330
54
100
AcDbEntity
  8
0
100
AcDbBlockEnd
  0
BLOCK
  5
62
330
5C
100
AcDbEntity
  8
0
100
AcDbBlockBegin
  2
*D6
 70
     1
 10
0.0
 20
0.0
 30
0.0
  3
*D6
  1

  0
LINE
  5
5D
330
5C
100
AcDbEntity
  8
0
  6
ByBlock
 62
     0
100
AcDbLine
 10
13567.56031
 20
-6916.906498
 30
0.0
 11
13503.100062
 21
-6955.356852
 31
0.0
  0
MTEXT
  5
5E
330
5C
100
AcDbEntity
  8
0
  6
ByBlock
 62
     0
100
AcDbMText
 10
13541.047699
 20
-6923.404893999999
 30
0.0
 40
11.43
 41
0.0
 46
0.0
 71
     5
 72
     1
  1
\A1;R100.0
 11
0.8588172202810629
 21
0.5122821313970537
 31
0.0
 73
     1
 44
1.0
  0
SOLID
  5
5F
330
5C
100
AcDbEntity
  8
0
  6
ByBlock
 62
     0
100
AcDbTrace
 10
13511.940446
 20
-6947.865421
 30
0.0
 11
13513.892241
 21
-6951.137515
 31
0.0
 12
13503.100062
 22
-6955.356852
 32
0.0
 13
13503.100062
 23
-6955.356852
 33
0.0
  0
POINT
  5
60
330
5C
100
AcDbEntity
  8
DEFPOINTS
  6
ByBlock
 62
     0
100
AcDbPoint
 10
13503.100062
 20
-6955.356852
 30
0.0
  0
POINT
  5
61
330
5C
100
AcDbEntity
  8
DEFPOINTS
  6
ByBlock
 62
     0
100
AcDbPoint
 10
13588.981789
 20
-6904.128647
 30
0.0
  0
ENDBLK
  5
63
330
5C
100
AcDbEntity
  8
0
100
AcDbBlockEnd
  0
BLOCK
  5
6A
330
64
100
AcDbEntity
  8
0
100
AcDbBlockBegin
  2
*D7
 70
     1
 10
0.0
 20
0.0
 30
0.0
  3
*D7
  1

  0
LINE
  5
65
330
64
100
AcDbEntity
  8
0
  6
ByBlock
 62
     0
100
AcDbLine
 10
14155.379353
 20
-6910.746087
 30
0.0
 11
14221.683408
 21
-6972.025601
 31
0.0
  0
MTEXT
  5
66
330
64
100
AcDbEntity
  8
0
  6
ByBlock
 62
     0
100
AcDbMText
 10
14179.976244
 20
-6922.584188
 30
0.0
 40
11.43
 41
0.0
 46
0.0
 71
     5
 72
     1
  1
\A1;R100.0
 11
0.7343850684762703
 21
-0.67873306328711
 31
0.0
 73
     1
 44
1.0
  0
SOLID
  5
67
330
64
100
AcDbEntity
  8
0
  6
ByBlock
 62
     0
100
AcDbTrace
 10
14214.582374
 20
-6962.868678
 30
0.0
 11
14211.996401
 21
-6965.666684999999
 31
0.0
 12
14221.683408
 22
-6972.025601
 32
0.0
 13
14221.683408
 23
-6972.025601
 33
0.0
  0
POINT
  5
68
330
64
100
AcDbEntity
  8
DEFPOINTS
  6
ByBlock
 62
     0
100
AcDbPoint
 10
14221.683408
 20
-6972.025601
 30
0.0
  0
POINT
  5
69
330
64
100
AcDbEntity
  8
DEFPOINTS
  6
ByBlock
 62
     0
100
AcDbPoint
 10
14148.244905
 20
-6904.152290000001
 30
0.0
  0
ENDBLK
  5
6B
330
64
100
AcDbEntity
  8
0
100
AcDbBlockEnd
  0
BLOCK
  5
72
330
6C
100
AcDbEntity
  8
0
100
AcDbBlockBegin
  2
*D8
 70
     1
 10
0.0
 20
0.0
 30
0.0
  3
*D8
  1

  0
LINE
  5
6D
330
6C
100
AcDbEntity
  8
0
  6
ByBlock
 62
     0
100
AcDbLine
 10
14147.071113
 20
-6705.400954
 30
0.0
 11
14218.907586
 21
-6632.269192
 31
0.0
  0
MTEXT
  5
6E
330
6C
100
AcDbEntity
  8
0
  6
ByBlock
 62
     0
100
AcDbMText
 10
14159.652036
 20
-6681.175593999999
 30
0.0
 40
11.43
 41
0.0
 46
0.0
 71
     5
 72
     1
  1
\A1;R100.0
 11
0.7007610588860054
 21
0.7133960599477436
 31
0.0
 73
     1
 44
1.0
  0
SOLID
  5
6F
330
6C
100
AcDbEntity
  8
0
  6
ByBlock
 62
     0
100
AcDbTrace
 10
14209.53887
 20
-6639.088362
 30
0.0
 11
14212.25691
 21
-6641.758261
 31
0.0
 12
14218.907586
 22
-6632.269192
 32
0.0
 13
14218.907586
 23
-6632.269192
 33
0.0
  0
POINT
  5
70
330
6C
100
AcDbEntity
  8
DEFPOINTS
  6
ByBlock
 62
     0
100
AcDbPoint
 10
14218.907586
 20
-6632.269192
 30
0.0
  0
POINT
  5
71
330
6C
100
AcDbEntity
  8
DEFPOINTS
  6
ByBlock
 62
     0
100
AcDbPoint
 10
14148.831504
 20
-6703.608821
 30
0.0
  0
ENDBLK
  5
73
330
6C
100
AcDbEntity
  8
0
100
AcDbBlockEnd
  0
BLOCK
  5
7E
330
74
100
AcDbEntity
  8
0
100
AcDbBlockBegin
  2
*D9
 70
     1
 10
0.0
 20
0.0
 30
0.0
  3
*D9
  1

  0
LINE
  5
75
330
74
100
AcDbEntity
  8
0
  6
ByBlock
 62
     0
100
AcDbLine
 10
13484.120708
 20
-6806.591445
 30
0.0
 11
13484.120708
 21
-7187.83882
 31
0.0
  0
LINE
  5
76
330
74
100
AcDbEntity
  8
0
  6
ByBlock
 62
     0
100
AcDbLine
 10
14253.110425
 20
-6806.567684000001
 30
0.0
 11
14253.110425
 21
-7187.83882
 31
0.0
  0
LINE
  5
77
330
74
100
AcDbEntity
  8
0
  6
ByBlock
 62
     0
100
AcDbLine
 10
13495.550708
 20
-7180.21882
 30
0.0
 11
14241.680425
 21
-7180.21882
 31
0.0
  0
SOLID
  5
78
330
74
100
AcDbEntity
  8
0
  6
ByBlock
 62
     0
100
AcDbTrace
 10
13495.550708
 20
-7178.31382
 30
0.0
 11
13495.550708
 21
-7182.123820000001
 31
0.0
 12
13484.120708
 22
-7180.21882
 32
0.0
 13
13484.120708
 23
-7180.21882
 33
0.0
  0
SOLID
  5
79
330
74
100
AcDbEntity
  8
0
  6
ByBlock
 62
     0
100
AcDbTrace
 10
14241.680425
 20
-7178.31382
 30
0.0
 11
14241.680425
 21
-7182.123820000001
 31
0.0
 12
14253.110425
 22
-7180.21882
 32
0.0
 13
14253.110425
 23
-7180.21882
 33
0.0
  0
MTEXT
  5
7A
330
74
100
AcDbEntity
  8
0
  6
ByBlock
 62
     0
100
AcDbMText
 10
13868.615566
 20
-7172.21782
 30
0.0
 40
11.43
 41
0.0
 46
0.0
 71
     5
 72
     1
  1
\A1;769.0
 73
     1
 44
1.0
  0
POINT
  5
7B
330
74
100
AcDbEntity
  8
DEFPOINTS
  6
ByBlock
 62
     0
100
AcDbPoint
 10
13484.120708
 20
-6804.210195000001
 30
0.0
  0
POINT
  5
7C
330
74
100
AcDbEntity
  8
DEFPOINTS
  6
ByBlock
 62
     0
100
AcDbPoint
 10
14253.110425
 20
-6804.186434
 30
0.0
  0
POINT
  5
7D
330
74
100
AcDbEntity
  8
DEFPOINTS
  6
ByBlock
 62
     0
100
AcDbPoint
 10
14253.110425
 20
-7180.21882
 30
0.0
  0
ENDBLK
  5
7F
330
74
100
AcDbEntity
  8
0
100
AcDbBlockEnd
  0
BLOCK
  5
9F
330
85
100
AcDbEntity
  8
0
100
AcDbBlockBegin
  2
A$C656C1E65
 70
     0
 10
0.0
 20
0.0
 30
0.0
  3
A$C656C1E65
  1

  0
DIMENSION
  5
86
330
85
100
AcDbEntity
  8
DIM
100
AcDbDimension
  2
*D2
 10
595.1504150000001
 20
1991.750582
 30
-240.0
 11
625.6130049999999
 21
67.012975
 31
0.0
 12
-13051.972608
 22
8460.301758
 32
0.0
 70
   132
 71
     5
 42
-1.0
 73
     0
 74
     0
 75
     0
  3
B
100
AcDbRadialDimension
 15
626.673611
 25
0.000023
 35
-240.0
 40
0.0
1001
ACAD
1000
DSTYLE
1002
{
1070
   288
1070
     1
1070
   287
1070
     3
1002
}
  0
DIMENSION
  5
87
330
85
100
AcDbEntity
  8
DIM
100
AcDbDimension
  2
*D9
 10
1201.137817
 20
1280.082938
 30
0.0
 11
816.642958
 21
1288.083938
 31
0.0
 12
-13051.972608
 22
8460.301758
 32
0.0
 71
     5
 42
-1.0
 73
     0
 74
     0
 75
     0
  3
B
100
AcDbAlignedDimension
 13
432.148099
 23
1656.091563
 33
0.0
 14
1201.137817
 24
1656.115324
 34
0.0
100
AcDbRotatedDimension
1001
ACAD
1000
DSTYLE
1002
{
1070
   287
1070
     3
1002
}
  0
DIMENSION
  5
88
330
85
100
AcDbEntity
  8
DIM
100
AcDbDimension
  2
*D8
 10
1096.858896
 20
1756.692937
 30
0.0
 11
1113.387311
 21
1773.519377
 31
0.0
 12
-13051.972608
 22
8460.301758
 32
0.0
 70
   132
 71
     5
 42
-1.0
 73
     0
 74
     0
 75
     0
  3
B
100
AcDbRadialDimension
 15
1166.934978
 25
1828.032566
 35
0.0
 40
0.0
1001
ACAD
1000
DSTYLE
1002
{
1070
   288
1070
     1
1070
   287
1070
     3
1002
}
  0
DIMENSION
  5
89
330
85
100
AcDbEntity
  8
DIM
100
AcDbDimension
  2
*D4
 10
1337.553668
 20
1861.455466
 30
0.0
 11
1329.552668
 21
1656.455466
 31
0.0
 12
-13051.972608
 22
8460.301758
 32
0.0
 71
     5
 42
-1.0
 73
     0
 74
     0
 75
     0
  3
B
100
AcDbAlignedDimension
 13
958.785517
 23
1451.455466
 33
0.0
 14
958.785517
 24
1861.455466
 34
0.0
 50
90.0
100
AcDbRotatedDimension
1001
ACAD
1000
DSTYLE
1002
{
1070
   287
1070
     3
1002
}
  0
LINE
  5
8A
330
85
100
AcDbEntity
  8
CENTER
100
AcDbLine
 10
1279.165219
 20
1656.091563
 30
0.0
 11
383.128884
 21
1656.091563
 31
0.0
  0
DIMENSION
  5
8B
330
85
100
AcDbEntity
  8
DIM
100
AcDbDimension
  2
*D1
 10
1633.342957
 20
1659.606933
 30
0.0
 11
377.211503
 21
1684.267442
 31
0.0
 12
-13050.47254
 22
8460.278356
 32
0.0
 70
   132
 71
     5
 42
-1.0
 73
     0
 74
     0
 75
     0
  3
B
100
AcDbRadialDimension
 15
431.87447
 25
1683.194293
 35
0.0
 40
0.0
1001
ACAD
1000
DSTYLE
1002
{
1070
   288
1070
     1
1070
   287
1070
     3
1002
}
  0
ARC
  5
8C
330
85
100
AcDbEntity
  8
0
100
AcDbCircle
 10
1015.342889
 20
2251.455466
 30
0.0
 40
800.0
100
AcDbArc
 50
270.0
 51
276.6390089999999
  0
DIMENSION
  5
8D
330
85
100
AcDbEntity
  8
DIM
100
AcDbDimension
  2
*D0
 10
0.342889
 20
1659.630335
 30
0.0
 11
1256.269467
 21
1693.138562
 31
0.0
 12
-13053.472608
 22
8460.301758
 32
0.0
 70
   132
 71
     5
 42
-1.0
 73
     0
 74
     0
 75
     0
  3
B
100
AcDbRadialDimension
 15
1201.615416
 25
1691.680387
 35
0.0
 40
0.0
1001
ACAD
1000
DSTYLE
1002
{
1070
   288
1070
     1
1070
   287
1070
     3
1002
}
  0
ARC
  5
8E
330
85
100
AcDbEntity
  8
0
100
AcDbCircle
 10
1015.342889
 20
1061.455466
 30
0.0
 40
800.0
100
AcDbArc
 50
83.312651
 51
90.0
  0
DIMENSION
  5
8F
330
85
100
AcDbEntity
  8
DIM
100
AcDbDimension
  2
*D6
 10
537.00918
 20
1556.173112
 30
0.0
 11
493.173859
 21
1530.025467
 31
0.0
 12
-13051.972608
 22
8460.301758
 32
0.0
 70
   132
 71
     5
 42
-1.0
 73
     0
 74
     0
 75
     0
  3
B
100
AcDbRadialDimension
 15
451.127454
 25
1504.944906
 35
0.0
 40
0.0
1001
ACAD
1000
DSTYLE
1002
{
1070
   288
1070
     1
1070
   287
1070
     3
1002
}
  0
DIMENSION
  5
90
330
85
100
AcDbEntity
  8
DIM
100
AcDbDimension
  2
*D5
 10
536.422804
 20
1756.621866
 30
0.0
 11
495.69103
 21
1787.381536
 31
0.0
 12
-13051.972608
 22
8460.301758
 32
0.0
 70
   132
 71
     5
 42
-1.0
 73
     0
 74
     0
 75
     0
  3
B
100
AcDbRadialDimension
 15
456.621517
 25
1816.885906
 35
0.0
 40
0.0
1001
ACAD
1000
DSTYLE
1002
{
1070
   288
1070
     1
1070
   287
1070
     3
1002
}
  0
ARC
  5
91
330
85
100
AcDbEntity
  8
0
100
AcDbCircle
 10
537.00918
 20
1556.173112
 30
0.0
 40
100.0
100
AcDbArc
 50
185.387186
 51
263.311912
  0
ARC
  5
92
330
85
100
AcDbEntity
  8
0
100
AcDbCircle
 10
536.422804
 20
1756.621866
 30
0.0
 40
100.0
100
AcDbArc
 50
96.70306
 51
174.94803
  0
ARC
  5
93
330
85
100
AcDbEntity
  8
0
100
AcDbCircle
 10
1633.842957
 20
1659.606933
 30
0.0
 40
1201.7
100
AcDbArc
 50
174.94803
 51
185.387186
  0
LINE
  5
94
330
85
100
AcDbEntity
  8
CENTER
100
AcDbLine
 10
816.842889
 20
1938.975354
 30
0.0
 11
816.842889
 21
1347.654955
 31
0.0
  0
DIMENSION
  5
95
330
85
100
AcDbEntity
  8
DIM
100
AcDbDimension
  2
*D3
 10
1015.342889
 20
1313.357448
 30
0.0
 11
816.092889
 21
1321.358448
 31
0.0
 12
-13051.972608
 22
8460.301758
 32
0.0
 71
     5
 42
-1.0
 73
     0
 74
     0
 75
     0
  3
B
100
AcDbAlignedDimension
 13
616.842889
 23
1451.455466
 33
0.0
 14
1015.342889
 24
1451.455466
 34
0.0
100
AcDbRotatedDimension
1001
ACAD
1000
DSTYLE
1002
{
1070
   287
1070
     3
1002
}
  0
LINE
  5
96
330
85
100
AcDbEntity
  8
0
100
AcDbLine
 10
616.842889
 20
1451.455466
 30
0.0
 11
1015.342889
 21
1451.455466
 31
0.0
  0
ARC
  5
97
330
85
100
AcDbEntity
  8
0
100
AcDbCircle
 10
617.757021
 20
2244.782231
 30
0.0
 40
793.3272910000001
100
AcDbArc
 50
263.311912
 51
269.933979
  0
MTEXT
  5
98
330
85
100
AcDbEntity
  8
DIM
 62
     4
100
AcDbMText
 10
885.0721289999999
 20
1611.242917
 30
0.0
 40
50.0
 41
156.6151
 46
0.0
 71
     1
 72
     5
  1
\f华文新魏|b0|i0|c134|p2;\C3;502
 73
     1
 44
1.0
  0
LINE
  5
99
330
85
100
AcDbEntity
  8
0
100
AcDbLine
 10
1015.342889
 20
1861.455466
 30
0.0
 11
616.842889
 21
1861.455466
 31
0.0
  0
ARC
  5
9A
330
85
100
AcDbEntity
  8
0
100
AcDbCircle
 10
619.0106
 20
1053.909345
 30
0.0
 40
807.549031
100
AcDbArc
 50
90.1538
 51
96.70306
  0
ARC
  5
9B
330
85
100
AcDbEntity
  8
0
100
AcDbCircle
 10
-0.5570430000000001
 20
1659.630335
 30
0.0
 40
1201.7
100
AcDbArc
 50
354.610357
 51
5.054459
  0
DIMENSION
  5
9C
330
85
100
AcDbEntity
  8
DIM
100
AcDbDimension
  2
*D7
 10
1096.272297
 20
1556.149468
 30
0.0
 11
1122.573092
 21
1531.841755
 31
0.0
 12
-13051.972608
 22
8460.301758
 32
0.0
 70
   132
 71
     5
 42
-1.0
 73
     0
 74
     0
 75
     0
  3
B
100
AcDbRadialDimension
 15
1169.7108
 25
1488.276157
 35
0.0
 40
0.0
1001
ACAD
1000
DSTYLE
1002
{
1070
   288
1070
     1
1070
   287
1070
     3
1002
}
  0
ARC
  5
9D
330
85
100
AcDbEntity
  8
0
100
AcDbCircle
 10
1096.272297
 20
1556.149468
 30
0.0
 40
100.0
100
AcDbArc
 50
276.6390089999999
 51
354.610357
  0
ARC
  5
9E
330
85
100
AcDbEntity
  8
0
100
AcDbCircle
 10
1096.858896
 20
1756.692937
 30
0.0
 40
100.0
100
AcDbArc
 50
5.054459
 51
83.312651
  0
ENDBLK
  5
A0
330
85
100
AcDbEntity
  8
0
100
AcDbBlockEnd
  0
BLOCK
  5
A72
330
9F8
100
AcDbEntity
  8
0
100
AcDbBlockBegin
  2
A$C2CB4366D
 70
     0
 10
0.0
 20
0.0
 30
0.0
  3
A$C2CB4366D
  1

  0
MTEXT
  5
9F9
330
9F8
100
AcDbEntity
  8
DIM
  6
Continuous
 62
     0
100
AcDbMText
 10
4813.21739608237
 20
657.0541696522463
 30
-198.8766513823
 40
19.05
 41
0.0
 46
0.0
 71
     5
 72
     1
  1
\A1;456 [18"]
 11
6.123031769111886E-17
 21
1.0
 31
0.0
 73
     1
 44
1.0
  0
SOLID
  5
9FA
330
9F8
100
AcDbEntity
  8
DIM
  6
Continuous
 62
     0
100
AcDbTrace
 10
4828.457396082371
 20
440.484169652245
 30
-198.8766513823
 11
4832.26739608237
 21
440.484169652245
 31
-198.8766513823
 12
4830.362396082371
 22
429.054169652245
 32
-198.8766513823
 13
4830.362396082371
 23
429.054169652245
 33
-198.8766513823
  0
SOLID
  5
9FB
330
9F8
100
AcDbEntity
  8
DIM
  6
Continuous
 62
     0
100
AcDbTrace
 10
4828.457396082371
 20
873.6241696522451
 30
-198.8766513823
 11
4832.26739608237
 21
873.6241696522451
 31
-198.8766513823
 12
4830.362396082371
 22
885.054169652245
 32
-198.8766513823
 13
4830.362396082371
 23
885.054169652245
 33
-198.8766513823
  0
LINE
  5
9FC
330
9F8
100
AcDbEntity
  8
DIM
  6
Continuous
 62
     0
100
AcDbLine
 10
4830.362396082371
 20
873.6241696522451
 30
-198.8766513823
 11
4830.362396082371
 21
440.484169652245
 31
-198.8766513823
  0
LINE
  5
9FD
330
9F8
100
AcDbEntity
  8
DIM
  6
Continuous
 62
     0
100
AcDbLine
 10
4768.966121483924
 20
429.054169652245
 30
-198.8766513823
 11
4837.982396082371
 21
429.054169652245
 31
-198.8766513823
  0
LINE
  5
9FE
330
9F8
100
AcDbEntity
  8
DIM
  6
Continuous
 62
     0
100
AcDbLine
 10
4768.966121483927
 20
885.054169652245
 30
-198.8766513823
 11
4837.982396082371
 21
885.054169652245
 31
-198.8766513823
  0
MTEXT
  5
9FF
330
9F8
100
AcDbEntity
  8
DIM
  6
Continuous
 62
     0
100
AcDbMText
 10
4375.584871483928
 20
359.552818743135
 30
-198.8766513823
 40
19.05
 41
0.0
 46
0.0
 71
     5
 72
     1
  1
\A1;786 [31"]
 73
     1
 44
1.0
  0
SOLID
  5
A00
330
9F8
100
AcDbEntity
  8
DIM
  6
Continuous
 62
     0
100
AcDbTrace
 10
4757.154871483926
 20
344.312818743135
 30
-198.8766513823
 11
4757.154871483926
 21
340.5028187431351
 31
-198.8766513823
 12
4768.584871483927
 22
342.4078187431351
 32
-198.8766513823
 13
4768.584871483927
 23
342.4078187431351
 33
-198.8766513823
  0
SOLID
  5
A01
330
9F8
100
AcDbEntity
  8
DIM
  6
Continuous
 62
     0
100
AcDbTrace
 10
3994.014871483928
 20
344.312818743135
 30
-198.8766513823
 11
3994.014871483928
 21
340.5028187431351
 31
-198.8766513823
 12
3982.584871483928
 22
342.4078187431351
 32
-198.8766513823
 13
3982.584871483928
 23
342.4078187431351
 33
-198.8766513823
  0
LINE
  5
A02
330
9F8
100
AcDbEntity
  8
DIM
  6
Continuous
 62
     0
100
AcDbLine
 10
3994.014871483928
 20
342.4078187431351
 30
-198.8766513823
 11
4757.154871483926
 21
342.4078187431351
 31
-198.8766513823
  0
LINE
  5
A03
330
9F8
100
AcDbEntity
  8
DIM
  6
Continuous
 62
     0
100
AcDbLine
 10
4768.584871483927
 20
428.6729196522468
 30
-198.8766513823
 11
4768.584871483927
 21
334.7878187431351
 31
-198.8766513823
  0
LINE
  5
A04
330
9F8
100
AcDbEntity
  8
DIM
  6
Continuous
 62
     0
100
AcDbLine
 10
3982.584871483928
 20
428.6729196522468
 30
-198.8766513823
 11
3982.584871483928
 21
334.7878187431351
 31
-198.8766513823
  0
MTEXT
  5
A05
330
9F8
100
AcDbEntity
  8
DIM
  6
Continuous
 62
     0
100
AcDbMText
 10
4373.334871483928
 20
2067.87108561696
 30
-198.8766513823
 40
19.05
 41
0.0
 46
0.0
 71
     5
 72
     1
  1
\A1;836 [33"]
 73
     1
 44
1.0
  0
SOLID
  5
A06
330
9F8
100
AcDbEntity
  8
DIM
  6
Continuous
 62
     0
100
AcDbTrace
 10
4782.154871483927
 20
2052.63108561696
 30
-198.8766513823
 11
4782.154871483927
 21
2048.821085616961
 31
-198.8766513823
 12
4793.584871483928
 22
2050.726085616961
 32
-198.8766513823
 13
4793.584871483928
 23
2050.726085616961
 33
-198.8766513823
  0
SOLID
  5
A07
330
9F8
100
AcDbEntity
  8
DIM
  6
Continuous
 62
     0
100
AcDbTrace
 10
3969.014871483928
 20
2052.63108561696
 30
-198.8766513823
 11
3969.014871483928
 21
2048.821085616961
 31
-198.8766513823
 12
3957.584871483928
 22
2050.726085616961
 32
-198.8766513823
 13
3957.584871483928
 23
2050.726085616961
 33
-198.8766513823
  0
LINE
  5
A08
330
9F8
100
AcDbEntity
  8
DIM
  6
Continuous
 62
     0
100
AcDbLine
 10
3969.014871483928
 20
2050.726085616961
 30
-198.8766513823
 11
4782.154871483927
 21
2050.726085616961
 31
-198.8766513823
  0
LINE
  5
A09
330
9F8
100
AcDbEntity
  8
DIM
  6
Continuous
 62
     0
100
AcDbLine
 10
4793.584871483928
 20
1958.134714862408
 30
-198.8766513823
 11
4793.584871483928
 21
2058.34608561696
 31
-198.8766513823
  0
LINE
  5
A0A
330
9F8
100
AcDbEntity
  8
DIM
  6
Continuous
 62
     0
100
AcDbLine
 10
3957.584871483928
 20
1958.134714862408
 30
-198.8766513823
 11
3957.584871483928
 21
2058.34608561696
 31
-198.8766513823
  0
MTEXT
  5
A0B
330
9F8
100
AcDbEntity
  8
DIM
  6
Continuous
 62
     0
100
AcDbMText
 10
4597.543069903912
 20
2004.064134129842
 30
-198.8766513823
 40
19.05
 41
0.0
 46
0.0
 71
     5
 72
     1
  1
\A1;328 [13"]
 73
     1
 44
1.0
  0
SOLID
  5
A0C
330
9F8
100
AcDbEntity
  8
DIM
  6
Continuous
 62
     0
100
AcDbTrace
 10
4757.154871483927
 20
1988.824134129842
 30
-198.8766513823
 11
4757.154871483927
 21
1985.014134129842
 31
-198.8766513823
 12
4768.584871483928
 22
1986.919134129842
 32
-198.8766513823
 13
4768.584871483928
 23
1986.919134129842
 33
-198.8766513823
  0
SOLID
  5
A0D
330
9F8
100
AcDbEntity
  8
DIM
  6
Continuous
 62
     0
100
AcDbTrace
 10
4452.014871483928
 20
1988.824134129842
 30
-198.8766513823
 11
4452.014871483928
 21
1985.014134129842
 31
-198.8766513823
 12
4440.584871483928
 22
1986.919134129842
 32
-198.8766513823
 13
4440.584871483928
 23
1986.919134129842
 33
-198.8766513823
  0
LINE
  5
A0E
330
9F8
100
AcDbEntity
  8
DIM
  6
Continuous
 62
     0
100
AcDbLine
 10
4452.014871483928
 20
1986.919134129842
 30
-198.8766513823
 11
4757.154871483927
 21
1986.919134129842
 31
-198.8766513823
  0
LINE
  5
A0F
330
9F8
100
AcDbEntity
  8
DIM
  6
Continuous
 62
     0
100
AcDbLine
 10
4768.584871483928
 20
1931.137300282879
 30
-198.8766513823
 11
4768.584871483928
 21
1994.539134129842
 31
-198.8766513823
  0
LINE
  5
A10
330
9F8
100
AcDbEntity
  8
DIM
  6
Continuous
 62
     0
100
AcDbLine
 10
4440.584871483928
 20
1920.216946639949
 30
-198.8766513823
 11
4440.584871483928
 21
1994.539134129842
 31
-198.8766513823
  0
MTEXT
  5
A11
330
9F8
100
AcDbEntity
  8
DIM
  6
Continuous
 62
     0
100
AcDbMText
 10
4198.518492580753
 20
2010.985554086981
 30
-198.8766513823
 40
19.05
 41
0.0
 46
0.0
 71
     5
 72
     1
  1
\A1;428 [16{\H0.700000x;\S3/4;}"]
 73
     1
 44
1.0
  0
SOLID
  5
A12
330
9F8
100
AcDbEntity
  8
DIM
  6
Continuous
 62
     0
100
AcDbTrace
 10
4399.154871483927
 20
1989.71305408698
 30
-198.8766513823
 11
4399.154871483927
 21
1985.903054086981
 31
-198.8766513823
 12
4410.584871483928
 22
1987.808054086981
 32
-198.8766513823
 13
4410.584871483928
 23
1987.808054086981
 33
-198.8766513823
  0
SOLID
  5
A13
330
9F8
100
AcDbEntity
  8
DIM
  6
Continuous
 62
     0
100
AcDbTrace
 10
3994.014871483928
 20
1989.71305408698
 30
-198.8766513823
 11
3994.014871483928
 21
1985.903054086981
 31
-198.8766513823
 12
3982.584871483928
 22
1987.808054086981
 32
-198.8766513823
 13
3982.584871483928
 23
1987.808054086981
 33
-198.8766513823
  0
LINE
  5
A14
330
9F8
100
AcDbEntity
  8
DIM
  6
Continuous
 62
     0
100
AcDbLine
 10
3994.014871483928
 20
1987.808054086981
 30
-198.8766513823
 11
4399.154871483927
 21
1987.808054086981
 31
-198.8766513823
  0
LINE
  5
A15
330
9F8
100
AcDbEntity
  8
DIM
  6
Continuous
 62
     0
100
AcDbLine
 10
4410.584871483928
 20
1935.49006394085
 30
-198.8766513823
 11
4410.584871483928
 21
1995.42805408698
 31
-198.8766513823
  0
LINE
  5
A16
330
9F8
100
AcDbEntity
  8
DIM
  6
Continuous
 62
     0
100
AcDbLine
 10
3982.584871483928
 20
1931.348965924596
 30
-198.8766513823
 11
3982.584871483928
 21
1995.42805408698
 31
-198.8766513823
  0
MTEXT
  5
A17
330
9F8
100
AcDbEntity
  8
DIM
  6
Continuous
 62
     0
100
AcDbMText
 10
3843.177692255733
 20
1727.590173060096
 30
-198.8766513823
 40
19.05
 41
0.0
 46
0.0
 71
     5
 72
     1
  1
\A1;506 [20"]
 11
6.123031769111886E-17
 21
1.0
 31
0.0
 73
     1
 44
1.0
  0
SOLID
  5
A18
330
9F8
100
AcDbEntity
  8
DIM
  6
Continuous
 62
     0
100
AcDbTrace
 10
3858.417692255734
 20
1465.683464862408
 30
-198.8766513823
 11
3862.227692255733
 21
1465.683464862408
 31
-198.8766513823
 12
3860.322692255733
 22
1454.253464862408
 32
-198.8766513823
 13
3860.322692255733
 23
1454.253464862408
 33
-198.8766513823
  0
SOLID
  5
A19
330
9F8
100
AcDbEntity
  8
DIM
  6
Continuous
 62
     0
100
AcDbTrace
 10
3858.417692255734
 20
1948.823464862408
 30
-198.8766513823
 11
3862.227692255733
 21
1948.823464862408
 31
-198.8766513823
 12
3860.322692255733
 22
1960.253464862408
 32
-198.8766513823
 13
3860.322692255733
 23
1960.253464862408
 33
-198.8766513823
  0
LINE
  5
A1A
330
9F8
100
AcDbEntity
  8
DIM
  6
Continuous
 62
     0
100
AcDbLine
 10
3860.322692255733
 20
1948.823464862408
 30
-198.8766513823
 11
3860.322692255733
 21
1465.683464862408
 31
-198.8766513823
  0
LINE
  5
A1B
330
9F8
100
AcDbEntity
  8
DIM
  6
Continuous
 62
     0
100
AcDbLine
 10
4008.445854604061
 20
1454.253464862408
 30
-198.8766513823
 11
3852.702692255733
 21
1454.253464862408
 31
-198.8766513823
  0
LINE
  5
A1C
330
9F8
100
AcDbEntity
  8
DIM
  6
Continuous
 62
     0
100
AcDbLine
 10
3986.221079010043
 20
1960.253464862408
 30
-198.8766513823
 11
3852.702692255733
 21
1960.253464862408
 31
-198.8766513823
  0
MTEXT
  5
A1D
330
9F8
100
AcDbEntity
  8
DIM
  6
Continuous
 62
     0
100
AcDbMText
 10
3895.408371483927
 20
1707.253464862409
 30
-198.8766513823
 40
19.05
 41
0.0
 46
0.0
 71
     5
 72
     1
  1
\A1;456 [18"]
 11
6.123031769111886E-17
 21
1.0
 31
0.0
 73
     1
 44
1.0
  0
SOLID
  5
A1E
330
9F8
100
AcDbEntity
  8
DIM
  6
Continuous
 62
     0
100
AcDbTrace
 10
3910.648371483928
 20
1923.823464862408
 30
-198.8766513823
 11
3914.458371483927
 21
1923.823464862408
 31
-198.8766513823
 12
3912.553371483928
 22
1935.253464862408
 32
-198.8766513823
 13
3912.553371483928
 23
1935.253464862408
 33
-198.8766513823
  0
SOLID
  5
A1F
330
9F8
100
AcDbEntity
  8
DIM
  6
Continuous
 62
     0
100
AcDbTrace
 10
3910.648371483928
 20
1490.683464862408
 30
-198.8766513823
 11
3914.458371483927
 21
1490.683464862408
 31
-198.8766513823
 12
3912.553371483928
 22
1479.253464862408
 32
-198.8766513823
 13
3912.553371483928
 23
1479.253464862408
 33
-198.8766513823
  0
LINE
  5
A20
330
9F8
100
AcDbEntity
  8
DIM
  6
Continuous
 62
     0
100
AcDbLine
 10
3912.553371483928
 20
1490.683464862408
 30
-198.8766513823
 11
3912.553371483928
 21
1923.823464862408
 31
-198.8766513823
  0
LINE
  5
A21
330
9F8
100
AcDbEntity
  8
DIM
  6
Continuous
 62
     0
100
AcDbLine
 10
4048.845197285767
 20
1935.253464862408
 30
-198.8766513823
 11
3904.933371483928
 21
1935.253464862408
 31
-198.8766513823
  0
LINE
  5
A22
330
9F8
100
AcDbEntity
  8
DIM
  6
Continuous
 62
     0
100
AcDbLine
 10
4027.961428241033
 20
1479.253464862408
 30
-198.8766513823
 11
3904.933371483928
 21
1479.253464862408
 31
-198.8766513823
  0
TEXT
  5
A23
330
9F8
100
AcDbEntity
  8
DIM
 62
     0
100
AcDbText
 10
3891.417871483927
 20
1990.230798454469
 30
0.0
 40
14.478
  1
25.0
100
AcDbText
  0
TEXT
  5
A24
330
9F8
100
AcDbEntity
  8
DIM
 62
     0
100
AcDbText
 10
3905.512572078615
 20
1397.387680107863
 30
0.0
 40
14.478
  1
25.0
 50
90.0
100
AcDbText
  0
MTEXT
  5
A25
330
9F8
100
AcDbEntity
  8
DIM
  6
Continuous
 62
     0
100
AcDbMText
 10
2019.087769408878
 20
2110.142899445588
 30
0.0
 40
60.003
 41
0.0
 46
0.0
 71
     4
 72
     1
  1
{\fTimes New Roman|b0|i0|c0|p18;MODEL: AS-303}
 73
     1
 44
1.0
  0
LINE
  5
A26
330
9F8
100
AcDbEntity
  8
实体
 62
     0
 48
3.0
100
AcDbLine
 10
4766.584871483927
 20
429.054169652245
 30
-198.8766513823
 11
3984.584871483928
 21
429.0541696522469
 31
-198.8766513823
  0
LINE
  5
A27
330
9F8
100
AcDbEntity
  8
实体
 62
     0
 48
3.0
100
AcDbLine
 10
3984.584871483928
 20
885.054169652246
 30
-198.8766513823
 11
4766.584871483927
 21
885.054169652246
 31
-198.8766513823
  0
LINE
  5
A28
330
9F8
100
AcDbEntity
  8
实体
 62
     0
 48
3.0
100
AcDbLine
 10
3982.584871483928
 20
431.0541696522469
 30
-198.8766513823
 11
3982.584871483928
 21
883.054169652246
 31
-198.8766513823
  0
ARC
  5
A29
330
9F8
100
AcDbEntity
  8
实体
 62
     0
 48
3.0
100
AcDbCircle
 10
3984.584871483928
 20
431.0541696522469
 30
-198.8766513823
 40
2.0
100
AcDbArc
 50
180.0
 51
270.0
  0
ARC
  5
A2A
330
9F8
100
AcDbEntity
  8
实体
 62
     0
 48
3.0
100
AcDbCircle
 10
3984.584871483928
 20
883.054169652246
 30
-198.8766513823
 40
2.0
100
AcDbArc
 50
90.0
 51
180.0
  0
LINE
  5
A2B
330
9F8
100
AcDbEntity
  8
实体
 62
     0
 48
3.0
100
AcDbLine
 10
4768.584871483927
 20
883.054169652245
 30
-198.8766513823
 11
4768.584871483927
 21
431.054169652245
 31
-198.8766513823
  0
ARC
  5
A2C
330
9F8
100
AcDbEntity
  8
实体
 62
     0
 48
3.0
100
AcDbCircle
 10
4766.584871483927
 20
431.054169652245
 30
-198.8766513823
 40
2.0
100
AcDbArc
 50
270.0
 51
0.0
  0
ARC
  5
A2D
330
9F8
100
AcDbEntity
  8
实体
 62
     0
 48
3.0
100
AcDbCircle
 10
4766.584871483927
 20
883.054169652245
 30
-198.8766513823
 40
2.0
100
AcDbArc
 50
0.0
 51
90.0
  0
SOLID
  5
A2E
330
9F8
100
AcDbEntity
  8
DIM
 62
     0
100
AcDbTrace
 10
3910.437826993651
 20
1490.683464862408
 30
0.0
 11
3914.24782699365
 21
1490.683464862408
 31
0.0
 12
3912.34282699365
 22
1479.253464862408
 32
0.0
 13
3912.34282699365
 23
1479.253464862408
 33
0.0
  0
LINE
  5
A2F
330
9F8
100
AcDbEntity
  8
DIM
 62
     0
100
AcDbLine
 10
3912.34282699365
 20
1454.253464862408
 30
0.0
 11
3912.34282699365
 21
1385.800464862408
 31
0.0
  0
LINE
  5
A30
330
9F8
100
AcDbEntity
  8
DIM
 62
     0
100
AcDbLine
 10
3912.34282699365
 20
1490.683464862408
 30
0.0
 11
3912.34282699365
 21
1502.113464862408
 31
0.0
  0
LINE
  5
A31
330
9F8
100
AcDbEntity
  8
DIM
 62
     0
100
AcDbLine
 10
3909.774284471615
 20
1454.253464862408
 30
0.0
 11
3919.96282699365
 21
1454.253464862408
 31
0.0
  0
LINE
  5
A32
330
9F8
100
AcDbEntity
  8
DIM
 62
     0
100
AcDbLine
 10
3914.309621483928
 20
1479.253464862408
 30
0.0
 11
3919.96282699365
 21
1479.253464862408
 31
0.0
  0
SOLID
  5
A33
330
9F8
100
AcDbEntity
  8
DIM
 62
     0
100
AcDbTrace
 10
3994.014871483928
 20
1989.849798454469
 30
0.0
 11
3994.014871483928
 21
1986.039798454469
 31
0.0
 12
3982.584871483928
 22
1987.944798454469
 32
0.0
 13
3982.584871483928
 23
1987.944798454469
 33
0.0
  0
LINE
  5
A34
330
9F8
100
AcDbEntity
  8
DIM
 62
     0
100
AcDbLine
 10
3957.584871483928
 20
1987.944798454469
 30
0.0
 11
3889.131871483928
 21
1987.944798454469
 31
0.0
  0
LINE
  5
A35
330
9F8
100
AcDbEntity
  8
DIM
 62
     0
100
AcDbLine
 10
3994.014871483928
 20
1987.944798454469
 30
0.0
 11
4005.444871483927
 21
1987.944798454469
 31
0.0
  0
LINE
  5
A36
330
9F8
100
AcDbEntity
  8
DIM
 62
     0
100
AcDbLine
 10
3957.584871483928
 20
1965.769760005788
 30
0.0
 11
3957.584871483928
 21
1995.564798454468
 31
0.0
  0
LINE
  5
A37
330
9F8
100
AcDbEntity
  8
DIM
 62
     0
100
AcDbLine
 10
3982.584871483928
 20
1965.769760005788
 30
0.0
 11
3982.584871483928
 21
1995.564798454468
 31
0.0
  0
LINE
  5
A38
330
9F8
100
AcDbEntity
  8
DESHED
 62
     0
 48
6.3
100
AcDbLine
 10
4630.902935516996
 20
1761.333528794648
 30
-198.8766513823
 11
4768.584871483928
 21
1479.253464862408
 31
-198.8766513823
  0
LINE
  5
A39
330
9F8
100
AcDbEntity
  8
实体
 62
     0
 48
3.0
100
AcDbLine
 10
4768.584871483928
 20
1935.253464862408
 30
-198.8766513823
 11
4768.584871483928
 21
1479.253464862408
 31
-198.8766513823
  0
LINE
  5
A3A
330
9F8
100
AcDbEntity
  8
实体
 62
     0
 48
3.0
100
AcDbLine
 10
4793.584871483928
 20
1955.753464862408
 30
-198.8766513823
 11
4793.584871483928
 21
1458.753464862408
 31
-198.8766513823
  0
LINE
  5
A3B
330
9F8
100
AcDbEntity
  8
DESHED
 62
     0
 48
6.3
100
AcDbLine
 10
4228.816890227544
 20
1764.646183096726
 30
-198.8766513823
 11
4410.584871483928
 21
1479.253464862408
 31
-198.8766513823
  0
LINE
  5
A3C
330
9F8
100
AcDbEntity
  8
DESHED
 62
     0
 48
6.3
100
AcDbLine
 10
4164.802584328664
 20
1764.362540099924
 30
-198.8766513823
 11
3982.584871483928
 21
1479.253464862408
 31
-198.8766513823
  0
LINE
  5
A3D
330
9F8
100
AcDbEntity
  8
实体
 62
     0
 48
3.0
100
AcDbLine
 10
3982.584871483928
 20
1479.253464862408
 30
-198.8766513823
 11
3982.584871483928
 21
1935.253464862408
 31
-198.8766513823
  0
LINE
  5
A3E
330
9F8
100
AcDbEntity
  8
实体
 62
     0
 48
3.0
100
AcDbLine
 10
3957.584871483928
 20
1458.753464862408
 30
-198.8766513823
 11
3957.584871483928
 21
1955.753464862408
 31
-198.8766513823
  0
LINE
  5
A3F
330
9F8
100
AcDbEntity
  8
实体
 62
     0
 48
3.0
100
AcDbLine
 10
4440.584871483928
 20
1479.253464862408
 30
-198.8766513823
 11
4440.584871483928
 21
1935.253464862408
 31
-198.8766513823
  0
LINE
  5
A40
330
9F8
100
AcDbEntity
  8
实体
 62
     0
 48
3.0
100
AcDbLine
 10
4410.584871483928
 20
1479.253464862408
 30
-198.8766513823
 11
4410.584871483928
 21
1935.253464862408
 31
-198.8766513823
  0
LINE
  5
A41
330
9F8
100
AcDbEntity
  8
DESHED
 62
     0
 48
6.3
100
AcDbLine
 10
4440.584871483928
 20
1479.253464862408
 30
-198.8766513823
 11
4578.266807450852
 21
1761.333528794648
 31
-198.8766513823
  0
LINE
  5
A42
330
9F8
100
AcDbEntity
  8
实体
 62
     0
 48
3.0
100
AcDbLine
 10
4410.584871483928
 20
1479.253464862408
 30
-198.8766513823
 11
3982.584871483928
 21
1479.253464862408
 31
-198.8766513823
  0
LINE
  5
A43
330
9F8
100
AcDbEntity
  8
实体
 62
     0
 48
3.0
100
AcDbLine
 10
4789.084871483928
 20
1454.253464862408
 30
-198.8766513823
 11
3962.084871483928
 21
1454.253464862408
 31
-198.8766513823
  0
ARC
  5
A44
330
9F8
100
AcDbEntity
  8
实体
 62
     0
 48
3.0
100
AcDbCircle
 10
3962.084871483928
 20
1458.753464862408
 30
-198.8766513823
 40
4.5
100
AcDbArc
 50
180.0
 51
270.0
  0
ARC
  5
A45
330
9F8
100
AcDbEntity
  8
实体
 62
     0
 48
3.0
100
AcDbCircle
 10
4789.084871483928
 20
1458.753464862408
 30
-198.8766513823
 40
4.5
100
AcDbArc
 50
270.0
 51
0.0
  0
LINE
  5
A46
330
9F8
100
AcDbEntity
  8
实体
 62
     0
 48
3.0
100
AcDbLine
 10
4768.584871483928
 20
1479.253464862408
 30
-198.8766513823
 11
4440.584871483928
 21
1479.253464862408
 31
-198.8766513823
  0
LINE
  5
A47
330
9F8
100
AcDbEntity
  8
实体
 62
     0
 48
3.0
100
AcDbLine
 10
3982.584871483928
 20
1935.253464862408
 30
-198.8766513823
 11
4410.584871483928
 21
1935.49006394085
 31
-198.8766513823
  0
CIRCLE
  5
A48
330
9F8
100
AcDbEntity
  8
实体
 62
     0
 48
3.0
100
AcDbCircle
 10
4196.584871483928
 20
1815.253464862408
 30
-198.8766513823
 40
60.0
  0
CIRCLE
  5
A49
330
9F8
100
AcDbEntity
  8
实体
 62
     0
 48
3.0
100
AcDbCircle
 10
4196.584871483928
 20
1815.253464862408
 30
-198.8766513823
 40
46.0
  0
LINE
  5
A4A
330
9F8
100
AcDbEntity
  8
实体
 62
     0
 48
3.0
100
AcDbLine
 10
3962.084871483928
 20
1960.253464862408
 30
-198.8766513823
 11
4789.084871483928
 21
1960.253464862408
 31
-198.8766513823
  0
ARC
  5
A4B
330
9F8
100
AcDbEntity
  8
实体
 62
     0
 48
3.0
100
AcDbCircle
 10
3962.084871483928
 20
1955.753464862408
 30
-198.8766513823
 40
4.5
100
AcDbArc
 50
90.0
 51
180.0
  0
LINE
  5
A4C
330
9F8
100
AcDbEntity
  8
DESHED
 62
     0
 48
6.3
100
AcDbLine
 10
3982.584871483928
 20
1935.253464862408
 30
-198.8766513823
 11
4143.881683377666
 21
1843.930528230829
 31
-198.8766513823
  0
ARC
  5
A4D
330
9F8
100
AcDbEntity
  8
实体
 62
     0
 48
3.0
100
AcDbCircle
 10
4789.084871483928
 20
1955.753464862408
 30
-198.8766513823
 40
4.5
100
AcDbArc
 50
0.0
 51
90.0
  0
LINE
  5
A4E
330
9F8
100
AcDbEntity
  8
DESHED
 62
     0
 48
6.3
100
AcDbLine
 10
4653.006691023432
 20
1850.684064525465
 30
-198.8766513823
 11
4768.584871483928
 21
1935.253464862408
 31
-198.8766513823
  0
LINE
  5
A4F
330
9F8
100
AcDbEntity
  8
DESHED
 62
     0
 48
6.3
100
AcDbLine
 10
4555.365000211911
 20
1849.566789853825
 30
-198.8766513823
 11
4440.584871483928
 21
1935.253464862408
 31
-198.8766513823
  0
LINE
  5
A50
330
9F8
100
AcDbEntity
  8
DESHED
 62
     0
 48
6.3
100
AcDbLine
 10
4248.918543342302
 20
1844.599449082061
 30
-198.8766513823
 11
4410.584871483928
 21
1935.253464862408
 31
-198.8766513823
  0
LINE
  5
A51
330
9F8
100
AcDbEntity
  8
实体
 62
     0
 48
3.0
100
AcDbLine
 10
4440.584871483928
 20
1935.253464862408
 30
-198.8766513823
 11
4768.584871483928
 21
1935.253464862408
 31
-198.8766513823
  0
CIRCLE
  5
A52
330
9F8
100
AcDbEntity
  8
实体
 62
     0
 48
3.0
100
AcDbCircle
 10
4604.584871483928
 20
1815.253464862408
 30
-198.8766513823
 40
60.0
  0
CIRCLE
  5
A53
330
9F8
100
AcDbEntity
  8
实体
 62
     0
 48
3.0
100
AcDbCircle
 10
4604.584871483928
 20
1815.253464862408
 30
-198.8766513823
 40
46.0
  0
MTEXT
  5
A54
330
9F8
100
AcDbEntity
  8
DIM
  6
Continuous
 62
     0
100
AcDbMText
 10
195.8159834985706
 20
647.7327535484649
 30
0.0
 40
60.003
 41
0.0
 46
0.0
 71
     4
 72
     1
  1
{\fTimes New Roman|b0|i0|c0|p18;CUT-OUT LINE}
 11
6.123031769111886E-17
 21
1.0
 31
0.0
 73
     1
 44
1.0
  0
LINE
  5
A55
330
9F8
100
AcDbEntity
  8
DIM
 62
     0
100
AcDbLine
 10
190.7511882340586
 20
328.1009211286894
 30
0.0
 11
190.7511882340586
 21
602.0702460987488
 31
0.0
  0
LINE
  5
A56
330
9F8
100
AcDbEntity
  8
DIM
 62
     0
100
AcDbLine
 10
-0.0000043200998334
 20
328.1009211286894
 30
0.0
 11
190.7511882340586
 21
328.1009211286894
 31
0.0
  0
MTEXT
  5
A57
330
9F8
100
AcDbEntity
  8
DIM
  6
Continuous
 62
     0
100
AcDbMText
 10
1888.753781642539
 20
847.8816933933826
 30
0.0
 40
60.003
 41
0.0
 46
0.0
 71
     4
 72
     1
  1
\pi-102.862,l102.862,t102.862;{\fTimes New Roman|b0|i0|c0|p18;2.^IMARKING AND CUTTING THE OPENING\P\pi0,l0,tz;\H0.8333x;Mark the opening with a pencil as shown on the\Ptemplate. jigsawneatly around the inside of the\Pcut-out line.}
 73
     1
 44
1.0
  0
MTEXT
  5
A58
330
9F8
100
AcDbEntity
  8
DIM
  6
Continuous
 62
     0
100
AcDbMText
 10
2027.217474422594
 20
1342.609146513343
 30
0.0
 40
60.003
 41
0.0
 46
0.0
 71
     4
 72
     1
  1
{\fTimes New Roman|b0|i0|c0|p18;CENTERLINE OF SINK}
 73
     1
 44
1.0
  0
LWPOLYLINE
  5
A59
330
9F8
100
AcDbEntity
  8
DIM
  6
Continuous
 62
     0
100
AcDbPolyline
 90
        3
 70
     0
 43
1.7145
 10
2590.816492561203
 20
136.574113032706
 10
2630.02499818606
 20
136.574113032706
 10
2630.02499818606
 20
136.574113032706
  0
SPLINE
  5
A5A
330
9F8
100
AcDbEntity
  8
DIM
  6
Continuous
 62
     0
100
AcDbSpline
210
0.0
220
0.0
230
1.0
 70
  1064
 71
     3
 72
     9
 73
     5
 74
     3
 42
0.000000001
 43
0.0000000001
 44
0.0000000001
 40
0.0
 40
0.0
 40
0.0
 40
0.0
 40
99.60107856881446
 40
238.5502468764372
 40
238.5502468764372
 40
238.5502468764372
 40
238.5502468764372
 10
2630.02499818606
 20
136.574113032706
 30
0.0
 10
2665.843577707837
 20
154.9355241222383
 30
0.0
 10
2751.631112446028
 20
198.9121477828091
 30
0.0
 10
2766.665672260067
 20
96.3271457684591
 30
0.0
 10
2775.422903113466
 20
36.57411303270601
 30
0.0
 11
2630.02499818606
 21
136.574113032706
 31
0.0
 11
2725.146478218076
 21
166.1084809553477
 31
0.0
 11
2775.422903113466
 21
36.57411303270601
 31
0.0
  0
LINE
  5
A5B
330
9F8
100
AcDbEntity
  8
DIM
 62
     0
100
AcDbLine
 10
1997.846839866468
 20
461.574113032706
 30
0.0
 11
3018.955728292412
 21
461.574113032706
 31
0.0
  0
LINE
  5
A5C
330
9F8
100
AcDbEntity
  8
DIM
 62
     0
100
AcDbLine
 10
3018.955728292412
 20
461.574113032706
 30
0.0
 11
3018.955728292412
 21
36.57411303270601
 31
0.0
  0
LINE
  5
A5D
330
9F8
100
AcDbEntity
  8
DIM
 62
     0
100
AcDbLine
 10
1997.846839866468
 20
36.57411303270601
 30
0.0
 11
1997.846839866468
 21
461.574113032706
 31
0.0
  0
LINE
  5
A5E
330
9F8
100
AcDbEntity
  8
DIM
 62
     0
100
AcDbLine
 10
1997.846839866468
 20
36.57411303270601
 30
0.0
 11
3018.955728292412
 21
36.57411303270601
 31
0.0
  0
LINE
  5
A5F
330
9F8
100
AcDbEntity
  8
中心线
 62
     0
 48
20.0
100
AcDbLine
 10
2097.846839866468
 20
361.574113032706
 30
0.0
 11
2918.955728292412
 21
361.574113032706
 31
0.0
  0
LINE
  5
A60
330
9F8
100
AcDbEntity
  8
中心线
 62
     0
 48
20.0
100
AcDbLine
 10
2918.955728292412
 20
361.574113032706
 30
0.0
 11
2918.955728292412
 21
136.574113032706
 31
0.0
  0
LINE
  5
A61
330
9F8
100
AcDbEntity
  8
中心线
 62
     0
 48
20.0
100
AcDbLine
 10
2097.846839866468
 20
136.574113032706
 30
0.0
 11
2582.913052764075
 21
136.574113032706
 31
0.0
  0
LINE
  5
A62
330
9F8
100
AcDbEntity
  8
中心线
 62
     0
 48
20.0
100
AcDbLine
 10
2097.846839866468
 20
136.574113032706
 30
0.0
 11
2097.846839866469
 21
244.0539374287973
 31
0.0
  0
LINE
  5
A63
330
9F8
100
AcDbEntity
  8
中心线
 62
     0
 48
20.0
100
AcDbLine
 10
2097.846839866469
 20
244.0539374287973
 30
0.0
 11
2097.846839866468
 21
361.574113032706
 31
0.0
  0
LINE
  5
A64
330
9F8
100
AcDbEntity
  8
DRAW
 62
     0
 48
20.0
100
AcDbLine
 10
2582.913052764075
 20
136.574113032706
 30
0.0
 11
2918.955728292412
 21
136.574113032706
 31
0.0
  0
LINE
  5
A65
330
9F8
100
AcDbEntity
  8
DIM
 62
     0
100
AcDbLine
 10
2097.846839866469
 20
1651.126540080898
 30
0.0
 11
2063.295059354492
 21
1728.342111943257
 31
0.0
  0
LINE
  5
A66
330
9F8
100
AcDbEntity
  8
中心线
 62
     0
 48
20.0
100
AcDbLine
 10
2649.686560786968
 20
1543.646715684807
 30
0.0
 11
2918.955728292412
 21
1543.646715684807
 31
0.0
  0
LINE
  5
A67
330
9F8
100
AcDbEntity
  8
中心线
 62
     0
 48
20.0
100
AcDbLine
 10
2097.846839866469
 20
1651.126540080898
 30
0.0
 11
2097.846839866468
 21
1768.646715684807
 31
0.0
  0
LINE
  5
A68
330
9F8
100
AcDbEntity
  8
实体
 62
     0
100
AcDbLine
 10
2097.846839866468
 20
1543.646715684807
 30
0.0
 11
2097.846839866469
 21
1651.126540080898
 31
0.0
  0
LINE
  5
A69
330
9F8
100
AcDbEntity
  8
实体
 62
     0
100
AcDbLine
 10
2097.846839866468
 20
1543.646715684807
 30
0.0
 11
2649.686560786968
 21
1543.646715684807
 31
0.0
  0
LINE
  5
A6A
330
9F8
100
AcDbEntity
  8
中心线
 62
     0
 48
20.0
100
AcDbLine
 10
2918.955728292412
 20
1768.646715684807
 30
0.0
 11
2918.955728292412
 21
1543.646715684807
 31
0.0
  0
LINE
  5
A6B
330
9F8
100
AcDbEntity
  8
中心线
 62
     0
 48
20.0
100
AcDbLine
 10
2097.846839866468
 20
1768.646715684807
 30
0.0
 11
2918.955728292412
 21
1768.646715684807
 31
0.0
  0
LINE
  5
A6C
330
9F8
100
AcDbEntity
  8
DIM
 62
     0
100
AcDbLine
 10
1997.846839866468
 20
1443.646715684807
 30
0.0
 11
3018.955728292412
 21
1443.646715684807
 31
0.0
  0
LINE
  5
A6D
330
9F8
100
AcDbEntity
  8
DIM
 62
     0
100
AcDbLine
 10
1997.846839866468
 20
1443.646715684807
 30
0.0
 11
1997.846839866468
 21
1868.646715684807
 31
0.0
  0
LINE
  5
A6E
330
9F8
100
AcDbEntity
  8
DIM
 62
     0
100
AcDbLine
 10
3018.955728292412
 20
1868.646715684807
 30
0.0
 11
3018.955728292412
 21
1443.646715684807
 31
0.0
  0
LINE
  5
A6F
330
9F8
100
AcDbEntity
  8
DIM
 62
     0
100
AcDbLine
 10
1997.846839866468
 20
1868.646715684807
 30
0.0
 11
3018.955728292412
 21
1868.646715684807
 31
0.0
  0
MTEXT
  5
A70
330
9F8
100
AcDbEntity
  8
DIM
  6
Continuous
 62
     0
100
AcDbMText
 10
4268.545375932034
 20
282.7414088178658
 30
0.0
 40
30.0
 41
0.0
 46
0.0
 71
     4
 72
     1
  1
{\fTimes New Roman|b0|i0|c0|p18;CUTOUT DETAIL}
 73
     1
 44
1.0
  0
MTEXT
  5
A71
330
9F8
100
AcDbEntity
  8
DIM
  6
Continuous
 62
     0
100
AcDbMText
 10
450.0303136817756
 20
1134.865218213911
 30
0.0
 40
61.75
 41
0.0
 46
0.0
 71
     4
 72
     1
  3
{\fTimes New Roman|b0|i0|c0|p18;\H1.2x;CUT-OUT TEMPLATE\P   FOR HANDMADE SINK\P\P\H0.6666x;REQUIRED TO INSTALL SINK\P\PYOU will need the following tools\fSimSun|b0|i0|c134|p2;\P\pi-123.5,l123.5,t123.5;●\fTimes New Roman|b0|i0|c0|p18;  Pencil\P\ptz;\f
  3
SimSun|b0|i0|c134|p2;● \fTimes New Roman|b0|i0|c0|p18;Tape measure\P\fSimSun|b0|i0|c134|p2;● \fTimes New Roman|b0|i0|c0|p18;Drill\P\fSimSun|b0|i0|c134|p2;● \fTimes New Roman|b0|i0|c0|p18;Jigsaw\P\fSimSun|b0|i0|c134|p2;● \fTimes New Roman|b0|i0|c0|p18
  3
;Screwdriver\P\P\pi0,l0;Legal Disclaimer\P\P\H0.8332x;All products should be measured and\P inspected prior to installation.\PAmeriSink assumes no liability for any\Pdamages incurred through its application.\P\P\pi-123.5,l123.5,t123.5;\H1.2x;1.POSITI
  1
ON THE TEMPLATE\P\pi0,l0,tz;\H0.8332x;Position the marking template on the benchtop\Pto align with the plumbing connections. Check \Pabove and below the benchtop to make sure\Pthere are no divisions or pipes to interfere \Pwith the new sink\H1.8x;.}
 73
     1
 44
1.0
  0
ENDBLK
  5
A73
330
9F8
100
AcDbEntity
  8
0
100
AcDbBlockEnd
  0
BLOCK
  5
1165
330
115B
100
AcDbEntity
  8
0
100
AcDbBlockBegin
  2
*D12
 70
     1
 10
0.0
 20
0.0
 30
0.0
  3
*D12
  1

  0
LINE
  5
1778
330
115B
100
AcDbEntity
  8
0
 62
     0
370
    -2
380
     1
100
AcDbLine
 10
4927.869514500991
 20
3954.76022263536
 30
0.0
 11
4927.869514500991
 21
3955.38522263536
 31
0.0
  0
LINE
  5
1779
330
115B
100
AcDbEntity
  8
0
 62
     0
370
    -2
380
     1
100
AcDbLine
 10
5459.869514500991
 20
3954.76022263536
 30
0.0
 11
5459.869514500991
 21
3955.38522263536
 31
0.0
  0
LINE
  5
177A
330
115B
100
AcDbEntity
  8
0
 62
     0
370
    -2
380
     1
100
AcDbLine
 10
4937.869514500991
 20
3954.13522263536
 30
0.0
 11
5449.869514500991
 21
3954.13522263536
 31
0.0
  0
SOLID
  5
177B
330
115B
100
AcDbEntity
  8
0
 62
     0
380
     1
100
AcDbTrace
 10
4937.869514500991
 20
3955.801889302027
 30
0.0
 11
4937.869514500991
 21
3952.468555968694
 31
0.0
 12
4927.869514500991
 22
3954.13522263536
 32
0.0
 13
4927.869514500991
 23
3954.13522263536
 33
0.0
  0
SOLID
  5
177C
330
115B
100
AcDbEntity
  8
0
 62
     0
380
     1
100
AcDbTrace
 10
5449.869514500991
 20
3952.468555968694
 30
0.0
 11
5449.869514500991
 21
3955.801889302027
 31
0.0
 12
5459.869514500991
 22
3954.13522263536
 32
0.0
 13
5459.869514500991
 23
3954.13522263536
 33
0.0
  0
MTEXT
  5
177D
330
115B
100
AcDbEntity
  8
0
 62
     0
380
     1
100
AcDbMText
 10
5193.869514500991
 20
3964.76022263536
 30
0.0
 40
20.0
 41
0.0
 46
0.0
 71
     5
 72
     1
  1
532
 73
     1
 44
1.0
  0
POINT
  5
177E
330
115B
100
AcDbEntity
  8
DEFPOINTS
 62
     0
380
     1
100
AcDbPoint
 10
4927.869514500991
 20
3954.13522263536
 30
0.0
  0
POINT
  5
177F
330
115B
100
AcDbEntity
  8
DEFPOINTS
 62
     0
380
     1
100
AcDbPoint
 10
5459.869514500991
 20
3954.13522263536
 30
0.0
  0
POINT
  5
1780
330
115B
100
AcDbEntity
  8
DEFPOINTS
 62
     0
380
     1
100
AcDbPoint
 10
5459.869514500991
 20
3954.13522263536
 30
0.0
  0
ENDBLK
  5
1166
330
115B
100
AcDbEntity
  8
0
100
AcDbBlockEnd
  0
BLOCK
  5
1171
330
1167
100
AcDbEntity
  8
0
100
AcDbBlockBegin
  2
*D13
 70
     1
 10
0.0
 20
0.0
 30
0.0
  3
*D13
  1

  0
LINE
  5
1781
330
1167
100
AcDbEntity
  8
0
 62
     0
370
    -2
380
     1
100
AcDbLine
 10
4857.312250179109
 20
4428.283825199078
 30
0.0
 11
4856.687250179109
 21
4428.283825199078
 31
0.0
  0
LINE
  5
1782
330
1167
100
AcDbEntity
  8
0
 62
     0
370
    -2
380
     1
100
AcDbLine
 10
4857.312250179109
 20
4022.283825199078
 30
0.0
 11
4856.687250179109
 21
4022.283825199078
 31
0.0
  0
LINE
  5
1783
330
1167
100
AcDbEntity
  8
0
 62
     0
370
    -2
380
     1
100
AcDbLine
 10
4857.937250179109
 20
4418.283825199078
 30
0.0
 11
4857.937250179109
 21
4032.283825199078
 31
0.0
  0
SOLID
  5
1784
330
1167
100
AcDbEntity
  8
0
 62
     0
380
     1
100
AcDbTrace
 10
4859.603916845776
 20
4418.283825199078
 30
0.0
 11
4856.270583512442
 21
4418.283825199078
 31
0.0
 12
4857.937250179109
 22
4428.283825199078
 32
0.0
 13
4857.937250179109
 23
4428.283825199078
 33
0.0
  0
SOLID
  5
1785
330
1167
100
AcDbEntity
  8
0
 62
     0
380
     1
100
AcDbTrace
 10
4856.270583512442
 20
4032.283825199078
 30
0.0
 11
4859.603916845776
 21
4032.283825199078
 31
0.0
 12
4857.937250179109
 22
4022.283825199078
 32
0.0
 13
4857.937250179109
 23
4022.283825199078
 33
0.0
  0
MTEXT
  5
1786
330
1167
100
AcDbEntity
  8
0
 62
     0
380
     1
100
AcDbMText
 10
4847.312250179109
 20
4225.283825199078
 30
0.0
 40
20.0
 41
0.0
 46
0.0
 71
     5
 72
     1
  1
406
 11
0.0
 21
1.0
 31
0.0
 73
     1
 44
1.0
  0
POINT
  5
1787
330
1167
100
AcDbEntity
  8
DEFPOINTS
 62
     0
380
     1
100
AcDbPoint
 10
4857.937250179109
 20
4428.283825199078
 30
0.0
  0
POINT
  5
1788
330
1167
100
AcDbEntity
  8
DEFPOINTS
 62
     0
380
     1
100
AcDbPoint
 10
4857.937250179109
 20
4022.283825199078
 30
0.0
  0
POINT
  5
1789
330
1167
100
AcDbEntity
  8
DEFPOINTS
 62
     0
380
     1
100
AcDbPoint
 10
4857.937250179109
 20
4022.283825199078
 30
0.0
  0
ENDBLK
  5
1172
330
1167
100
AcDbEntity
  8
0
100
AcDbBlockEnd
  0
BLOCK
  5
141E
330
1417
100
AcDbEntity
  8
0
100
AcDbBlockBegin
  2
*D15
 70
     1
 10
0.0
 20
0.0
 30
0.0
  3
*D15
  1

  0
LINE
  5
1420
330
1417
100
AcDbEntity
  8
0
 62
     0
370
    -2
100
AcDbLine
 10
5495.074005360675
 20
4457.277940489706
 30
0.0
 11
5458.031134157577
 21
4424.817331518295
 31
0.0
  0
MTEXT
  5
1421
330
1417
100
AcDbEntity
  8
0
 62
     0
100
AcDbMText
 10
5472.736004257145
 20
4451.664233452576
 30
0.0
 40
15.0
 41
0.0
 46
0.0
 71
     5
 72
     1
  1
\A1;R15
 11
0.7520925518048424
 21
0.6590575039552167
 31
0.0
 73
     1
 44
1.0
  0
LINE
  5
1422
330
1417
100
AcDbEntity
  8
0
 62
     0
370
    -2
100
AcDbLine
 10
5444.869514500996
 20
4413.283825199081
 30
0.0
 11
5456.150902778065
 21
4423.169687758407
 31
0.0
  0
SOLID
  5
1423
330
1417
100
AcDbEntity
  8
0
 62
     0
100
AcDbTrace
 10
5457.756526864262
 20
4425.130703414879
 30
0.0
 11
5458.305741450891
 21
4424.503959621709
 31
0.0
 12
5456.150902778065
 22
4423.169687758407
 32
0.0
 13
5456.150902778065
 23
4423.169687758407
 33
0.0
  0
POINT
  5
1424
330
1417
100
AcDbEntity
  8
DEFPOINTS
 62
     0
100
AcDbPoint
 10
5456.150902778065
 20
4423.169687758407
 30
0.0
  0
POINT
  5
1425
330
1417
100
AcDbEntity
  8
DEFPOINTS
 62
     0
100
AcDbPoint
 10
5444.869514500996
 20
4413.283825199081
 30
0.0
  0
ENDBLK
  5
141F
330
1417
100
AcDbEntity
  8
0
100
AcDbBlockEnd
  0
BLOCK
  5
17D7
330
17D6
100
AcDbEntity
  8
0
100
AcDbBlockBegin
  2
12345ssdlh@&&@12345ssdlh+createbycq
 70
     0
 10
0.0
 20
0.0
 30
0.0
  3
12345ssdlh@&&@12345ssdlh+createbycq
  1

  0
ENDBLK
  5
17D8
330
17D6
100
AcDbEntity
  8
0
100
AcDbBlockEnd
  0
ENDSEC
  0
SECTION
  2
ENTITIES
  0
MTEXT
  5
1067
330
18
100
AcDbEntity
  8
0
 62
     0
100
AcDbMText
 10
5287.041568846425
 20
4345.300531862255
 30
0.0
 40
4.0
 41
0.0
 46
0.0
 71
     9
 72
     1
  1
{\fBatang|b0|i0|c0|p18;Countertop\P\C7;Encimera}
 73
     1
 44
1.0
  0
LINE
  5
106C
330
18
100
AcDbEntity
  8
0
 62
     0
100
AcDbLine
 10
4927.869514500992
 20
4037.283825199078
 30
0.0
 11
4927.869514500992
 21
4413.283825199078
 31
0.0
  0
LINE
  5
106D
330
18
100
AcDbEntity
  8
0
 62
     0
100
AcDbLine
 10
5444.869514500991
 20
4022.283825199078
 30
0.0
 11
4942.869514500992
 21
4022.283825199078
 31
0.0
  0
LINE
  5
106E
330
18
100
AcDbEntity
  8
0
 62
     0
100
AcDbLine
 10
5459.869514500992
 20
4413.283825199079
 30
0.0
 11
5459.869514500992
 21
4037.283825199078
 31
0.0
  0
LINE
  5
106F
330
18
100
AcDbEntity
  8
0
 62
     0
100
AcDbLine
 10
4942.869514500992
 20
4428.283825199078
 30
0.0
 11
5444.869514500992
 21
4428.283825199078
 31
0.0
  0
MTEXT
  5
1071
330
18
100
AcDbEntity
  8
0
 62
     0
100
AcDbMText
 10
5002.872559149902
 20
4130.029699917288
 30
0.0
 40
6.7392
 41
386.6803200000001
 46
0.0
 71
     1
 72
     5
  1
{\fBatang|b0|i0|c0|p18;Please check actual template against physical sink unit for\Pmost accurate cut!}
 73
     1
 44
1.0
  0
MTEXT
  5
1072
330
18
100
AcDbEntity
  8
0
 62
     0
100
AcDbMText
 10
5002.661240594342
 20
4154.270892482285
 30
0.0
 40
6.7392
 41
343.9570775510205
 46
0.0
 71
     1
 72
     5
  1
{\fBatang|b0|i0|c0|p18;Use line for flush cut:\fBatang|b1|i0|c0|p18;\P\fBatang|b0|i0|c0|p18;Sink wall is flush to the edge of countertop opening.}
 73
     1
 44
1.0
  0
MTEXT
  5
1073
330
18
100
AcDbEntity
  8
0
 62
     0
100
AcDbMText
 10
5001.126461668873
 20
4106.849573480013
 30
0.0
 40
6.7392
 41
343.9570775510205
 46
0.0
 71
     1
 72
     5
  1
{\fBatang|b0|i0|c0|p18;\PUse la línea para cortar al ras:\PLa pared del fregadero está nivelado al borde de la apertura de la encimera.}
 73
     1
 44
1.0
  0
MTEXT
  5
1074
330
18
100
AcDbEntity
  8
0
 62
     0
100
AcDbMText
 10
5001.337780224524
 20
4082.715237841866
 30
0.0
 40
6.7392
 41
386.6803200000001
 46
0.0
 71
     1
 72
     5
  1
{\fBatang|b0|i0|c0|p18;\PPor favor compruebe el modelo presente para un corte más preciso en \Pel fregadero!}
 73
     1
 44
1.0
  0
SPLINE
  5
1075
330
18
100
AcDbEntity
  8
0
 62
     0
100
AcDbSpline
210
0.0
220
0.0
230
1.0
 70
     8
 71
     3
 72
    10
 73
     6
 74
     0
 42
0.000000001
 43
0.0000000001
 40
168.1890314628042
 40
168.1890314628042
 40
168.1890314628042
 40
168.1890314628042
 40
240.3970488653276
 40
404.4385438063731
 40
531.2097876496541
 40
531.2097876496541
 40
531.2097876496541
 40
531.2097876496541
 10
5278.324725870856
 20
4337.797344870854
 30
0.0
 10
5279.319829642627
 20
4336.784629976121
 30
0.0
 10
5281.765263918376
 20
4333.075326399236
 30
0.0
 10
5279.699965072035
 20
4324.53065072206
 30
0.0
 10
5282.336417993622
 20
4319.237165237398
 30
0.0
 10
5283.896344448849
 20
4317.078111987384
 30
0.0
  0
LINE
  5
1076
330
18
100
AcDbEntity
  8
0
 62
     0
100
AcDbLine
 10
5328.060216427556
 20
4325.637372153921
 30
0.0
 11
5328.060216427556
 21
4317.078111987384
 31
0.0
  0
LINE
  5
1077
330
18
100
AcDbEntity
  8
0
 62
     0
100
AcDbLine
 10
5278.324725870857
 20
4337.797344870854
 30
0.0
 11
5368.368280145753
 21
4337.797344870854
 31
0.0
  0
ARC
  5
1078
330
18
100
AcDbEntity
  8
0
 62
     0
100
AcDbCircle
 10
5368.368280145753
 20
4334.686944870852
 30
0.0
 40
3.1104
100
AcDbArc
 50
0.0
 51
90.0
  0
LINE
  5
1079
330
18
100
AcDbEntity
  8
0
 62
     0
100
AcDbLine
 10
5371.478680145743
 20
4334.686944870852
 30
0.0
 11
5371.478680145743
 21
4317.078111987384
 31
0.0
  0
LINE
  5
107A
330
18
100
AcDbEntity
  8
0
 62
     0
100
AcDbLine
 10
5371.478680145743
 20
4317.078111987384
 30
0.0
 11
5334.903096427567
 21
4317.078111987384
 31
0.0
  0
LINE
  5
107B
330
18
100
AcDbEntity
  8
0
 62
     0
100
AcDbLine
 10
5357.33595117044
 20
4317.078111987384
 30
0.0
 11
5372.450518168564
 21
4317.078111987384
 31
0.0
  0
LINE
  5
107C
330
18
100
AcDbEntity
  8
0
 62
     0
100
AcDbLine
 10
5376.995531811214
 20
4315.998632053655
 30
0.0
 11
5360.493257457212
 21
4315.744820192645
 31
0.0
  0
LINE
  5
107D
330
18
100
AcDbEntity
  8
0
 62
     0
100
AcDbLine
 10
5380.783488778103
 20
4312.386401545634
 30
0.0
 11
5381.754631887506
 21
4281.73352707992
 31
0.0
  0
ARC
  5
107E
330
18
100
AcDbEntity
  8
0
 62
     0
100
AcDbCircle
 10
5377.052932121227
 20
4312.266593447902
 30
0.0
 40
3.73248
100
AcDbArc
 50
1.839441251917187
 51
90.88116350403233
  0
ARC
  5
107F
330
18
100
AcDbEntity
  8
0
 62
     0
100
AcDbCircle
 10
5377.052932121227
 20
4312.266593447902
 30
0.0
 40
2.48832
100
AcDbArc
 50
1.839441251917187
 51
90.88116350403233
  0
LINE
  5
1080
330
18
100
AcDbEntity
  8
0
 62
     0
100
AcDbLine
 10
5379.539969892482
 20
4312.346465513055
 30
0.0
 11
5380.537637636479
 21
4281.281319548113
 31
0.0
  0
LINE
  5
1081
330
18
100
AcDbEntity
  8
0
 62
     0
100
AcDbLine
 10
5381.710320717169
 20
4283.526924384932
 30
0.0
 11
5380.537637636479
 21
4281.281319548113
 31
0.0
  0
LINE
  5
1082
330
18
100
AcDbEntity
  8
0
 62
     0
100
AcDbLine
 10
5367.876341764073
 20
4314.614067959211
 30
0.0
 11
5366.187556304813
 21
4310.88369975469
 31
0.0
  0
LINE
  5
1083
330
18
100
AcDbEntity
  8
0
 62
     0
100
AcDbLine
 10
5366.187556304813
 20
4310.88369975469
 30
0.0
 11
5333.347896427557
 21
4311.889872826817
 31
0.0
  0
LINE
  5
1084
330
18
100
AcDbEntity
  8
0
 62
     0
100
AcDbLine
 10
5299.218614233241
 20
4312.935558587363
 30
0.0
 11
5296.949418939384
 21
4317.078111987384
 31
0.0
  0
LINE
  5
1085
330
18
100
AcDbEntity
  8
0
 62
     0
100
AcDbLine
 10
5367.572209009383
 20
4308.662973717218
 30
0.0
 11
5333.347896427557
 21
4309.711571110144
 31
0.0
  0
LINE
  5
1086
330
18
100
AcDbEntity
  8
0
 62
     0
100
AcDbLine
 10
5369.859831562587
 20
4313.716116725803
 30
0.0
 11
5367.572209009383
 21
4308.662973717218
 31
0.0
  0
LINE
  5
1087
330
18
100
AcDbEntity
  8
0
 62
     0
100
AcDbLine
 10
5367.876341764073
 20
4314.614067959211
 30
0.0
 11
5369.859831562587
 21
4313.716116725803
 31
0.0
  0
LINE
  5
1088
330
18
100
AcDbEntity
  8
0
 62
     0
100
AcDbLine
 10
5297.907291320474
 20
4310.797434442828
 30
0.0
 11
5295.039861823212
 21
4316.032100601907
 31
0.0
  0
LINE
  5
1089
330
18
100
AcDbEntity
  8
0
 62
     0
100
AcDbLine
 10
5295.039861823212
 20
4316.032100601907
 30
0.0
 11
5296.949418939384
 21
4317.078111987384
 31
0.0
  0
LINE
  5
108A
330
18
100
AcDbEntity
  8
0
 62
     0
100
AcDbLine
 10
5338.324536427552
 20
4309.559092029168
 30
0.0
 11
5338.324536427552
 21
4308.937012029169
 31
0.0
  0
LINE
  5
108B
330
18
100
AcDbEntity
  8
0
 62
     0
100
AcDbLine
 10
5324.638776427557
 20
4309.559092029168
 30
0.0
 11
5324.638776427557
 21
4308.937012029169
 31
0.0
  0
ARC
  5
108C
330
18
100
AcDbEntity
  8
0
 62
     0
100
AcDbCircle
 10
5331.481656427554
 20
4310.68424348791
 30
0.0
 40
4.121192148009901
100
AcDbArc
 50
205.0850188779683
 51
260.0888321725661
  0
LINE
  5
108D
330
18
100
AcDbEntity
  8
0
 62
     0
100
AcDbLine
 10
5338.324536427552
 20
4309.559092029168
 30
0.0
 11
5333.347896427557
 21
4309.559092029168
 31
0.0
  0
LINE
  5
108E
330
18
100
AcDbEntity
  8
0
 62
     0
100
AcDbLine
 10
5338.324536427552
 20
4308.937012029169
 30
0.0
 11
5324.638776427557
 21
4308.937012029169
 31
0.0
  0
LINE
  5
108F
330
18
100
AcDbEntity
  8
0
 62
     0
100
AcDbLine
 10
5331.481656427554
 20
4307.310715605084
 30
0.0
 11
5330.772312260758
 21
4306.624556852978
 31
0.0
  0
LINE
  5
1090
330
18
100
AcDbEntity
  8
0
 62
     0
100
AcDbLine
 10
5331.481656427554
 20
4307.310715605084
 30
0.0
 11
5332.191000594365
 21
4306.624556852978
 31
0.0
  0
ARC
  5
1091
330
18
100
AcDbEntity
  8
0
 62
     0
100
AcDbCircle
 10
5331.481656427554
 20
4310.68424348791
 30
0.0
 40
4.121192148009901
100
AcDbArc
 50
279.9111678274339
 51
334.9149811220317
  0
LINE
  5
1092
330
18
100
AcDbEntity
  8
0
 62
     0
100
AcDbLine
 10
5329.304376427558
 20
4309.559092029168
 30
0.0
 11
5329.304376427558
 21
4308.937012029169
 31
0.0
  0
LINE
  5
1093
330
18
100
AcDbEntity
  8
0
 62
     0
100
AcDbLine
 10
5333.658936427565
 20
4309.559092029168
 30
0.0
 11
5333.658936427565
 21
4308.937012029169
 31
0.0
  0
LINE
  5
1094
330
18
100
AcDbEntity
  8
0
 62
     0
100
AcDbLine
 10
5329.615416427551
 20
4309.825930420876
 30
0.0
 11
5298.083844187496
 21
4310.792025046348
 31
0.0
  0
LINE
  5
1095
330
18
100
AcDbEntity
  8
0
 62
     0
100
AcDbLine
 10
5329.615416427551
 20
4312.00423213755
 30
0.0
 11
5299.218614233241
 21
4312.935558587363
 31
0.0
  0
LINE
  5
1096
330
18
100
AcDbEntity
  8
0
 62
     0
100
AcDbLine
 10
5328.060216427556
 20
4317.078111987384
 30
0.0
 11
5283.896344448834
 21
4317.078111987384
 31
0.0
  0
LINE
  5
1097
330
18
100
AcDbEntity
  8
0
 62
     0
100
AcDbLine
 10
5329.615416427551
 20
4309.559092029168
 30
0.0
 11
5324.638776427557
 21
4309.559092029168
 31
0.0
  0
LINE
  5
1098
330
18
100
AcDbEntity
  8
0
 62
     0
100
AcDbLine
 10
5333.347896427557
 20
4324.681590720745
 30
0.0
 11
5332.902241955087
 21
4324.33068528654
 31
0.0
  0
LINE
  5
1099
330
18
100
AcDbEntity
  8
0
 62
     0
100
AcDbLine
 10
5331.481656427554
 20
4324.538248956057
 30
0.0
 11
5333.347896427557
 21
4323.97978045583
 31
0.0
  0
LINE
  5
109A
330
18
100
AcDbEntity
  8
0
 62
     0
100
AcDbLine
 10
5333.347896427557
 20
4323.97978045583
 30
0.0
 11
5332.882729569724
 21
4323.648369835025
 31
0.0
  0
LINE
  5
109B
330
18
100
AcDbEntity
  8
0
 62
     0
100
AcDbLine
 10
5332.882729569724
 20
4323.648369835025
 30
0.0
 11
5333.347896427557
 21
4323.355948841018
 31
0.0
  0
LINE
  5
109C
330
18
100
AcDbEntity
  8
0
 62
     0
100
AcDbLine
 10
5333.347896427557
 20
4323.355948841018
 30
0.0
 11
5332.843703662495
 21
4322.927064153212
 31
0.0
  0
LINE
  5
109D
330
18
100
AcDbEntity
  8
0
 62
     0
100
AcDbLine
 10
5332.843703662495
 20
4322.927064153212
 30
0.0
 11
5333.347896427557
 21
4322.673632786006
 31
0.0
  0
LINE
  5
109E
330
18
100
AcDbEntity
  8
0
 62
     0
100
AcDbLine
 10
5333.347896427557
 20
4322.673632786006
 30
0.0
 11
5332.824191277133
 21
4322.342222165201
 31
0.0
  0
LINE
  5
109F
330
18
100
AcDbEntity
  8
0
 62
     0
100
AcDbLine
 10
5332.824191277133
 20
4322.342222165201
 30
0.0
 11
5333.347896427557
 21
4322.010811544394
 31
0.0
  0
LINE
  5
10A0
330
18
100
AcDbEntity
  8
0
 62
     0
100
AcDbLine
 10
5333.347896427557
 20
4322.010811544394
 30
0.0
 11
5332.80467889177
 21
4321.601422273486
 31
0.0
  0
LINE
  5
10A1
330
18
100
AcDbEntity
  8
0
 62
     0
100
AcDbLine
 10
5332.80467889177
 20
4321.601422273486
 30
0.0
 11
5333.347896427557
 21
4321.250516839279
 31
0.0
  0
LINE
  5
10A2
330
18
100
AcDbEntity
  8
0
 62
     0
100
AcDbLine
 10
5333.347896427557
 20
4321.250516839279
 30
0.0
 11
5332.824191277133
 21
4320.802137941572
 31
0.0
  0
LINE
  5
10A3
330
18
100
AcDbEntity
  8
0
 62
     0
100
AcDbLine
 10
5332.824191277133
 20
4320.802137941572
 30
0.0
 11
5333.347896427557
 21
4320.490222134166
 31
0.0
  0
LINE
  5
10A4
330
18
100
AcDbEntity
  8
0
 62
     0
100
AcDbLine
 10
5333.347896427557
 20
4320.490222134166
 30
0.0
 11
5332.843703662495
 21
4319.963864586353
 31
0.0
  0
LINE
  5
10A5
330
18
100
AcDbEntity
  8
0
 62
     0
100
AcDbLine
 10
5332.843703662495
 20
4319.963864586353
 30
0.0
 11
5333.347896427557
 21
4319.573969525346
 31
0.0
  0
LINE
  5
10A6
330
18
100
AcDbEntity
  8
0
 62
     0
100
AcDbLine
 10
5333.347896427557
 20
4319.573969525346
 30
0.0
 11
5332.834517419225
 21
4318.910323904726
 31
0.0
  0
LINE
  5
10A7
330
18
100
AcDbEntity
  8
0
 62
     0
100
AcDbLine
 10
5332.834517419225
 20
4318.910323904726
 30
0.0
 11
5333.347896427557
 21
4318.461519540545
 31
0.0
  0
LINE
  5
10A8
330
18
100
AcDbEntity
  8
0
 62
     0
100
AcDbLine
 10
5333.347896427557
 20
4318.461519540545
 30
0.0
 11
5332.754856901494
 21
4317.783152599201
 31
0.0
  0
LINE
  5
10A9
330
18
100
AcDbEntity
  8
0
 62
     0
100
AcDbLine
 10
5332.754856901494
 20
4317.783152599201
 30
0.0
 11
5333.347896427557
 21
4317.414308955124
 31
0.0
  0
LINE
  5
10AA
330
18
100
AcDbEntity
  8
0
 62
     0
100
AcDbLine
 10
5333.347896427557
 20
4317.414308955124
 30
0.0
 11
5332.754856901494
 21
4316.799386665324
 31
0.0
  0
LINE
  5
10AB
330
18
100
AcDbEntity
  8
0
 62
     0
100
AcDbLine
 10
5332.754856901494
 20
4316.799386665324
 30
0.0
 11
5333.347896427557
 21
4316.267363597165
 31
0.0
  0
LINE
  5
10AC
330
18
100
AcDbEntity
  8
0
 62
     0
100
AcDbLine
 10
5330.208455953615
 20
4317.783152599201
 30
0.0
 11
5329.615416427551
 21
4317.414308955124
 31
0.0
  0
LINE
  5
10AD
330
18
100
AcDbEntity
  8
0
 62
     0
100
AcDbLine
 10
5329.615416427551
 20
4318.461519540545
 30
0.0
 11
5330.208455953615
 21
4317.783152599201
 31
0.0
  0
LINE
  5
10AE
330
18
100
AcDbEntity
  8
0
 62
     0
100
AcDbLine
 10
5330.128795435898
 20
4318.910323904726
 30
0.0
 11
5329.615416427551
 21
4318.461519540545
 31
0.0
  0
LINE
  5
10AF
330
18
100
AcDbEntity
  8
0
 62
     0
100
AcDbLine
 10
5329.615416427551
 20
4319.573969525346
 30
0.0
 11
5330.128795435898
 21
4318.910323904726
 31
0.0
  0
LINE
  5
10B0
330
18
100
AcDbEntity
  8
0
 62
     0
100
AcDbLine
 10
5330.119609192614
 20
4319.963864586353
 30
0.0
 11
5329.615416427551
 21
4319.573969525346
 31
0.0
  0
LINE
  5
10B1
330
18
100
AcDbEntity
  8
0
 62
     0
100
AcDbLine
 10
5329.615416427551
 20
4320.490222134166
 30
0.0
 11
5330.119609192614
 21
4319.963864586353
 31
0.0
  0
LINE
  5
10B2
330
18
100
AcDbEntity
  8
0
 62
     0
100
AcDbLine
 10
5330.139121577977
 20
4320.802137941572
 30
0.0
 11
5329.615416427551
 21
4320.490222134166
 31
0.0
  0
LINE
  5
10B3
330
18
100
AcDbEntity
  8
0
 62
     0
100
AcDbLine
 10
5329.615416427551
 20
4321.250516839279
 30
0.0
 11
5330.139121577977
 21
4320.802137941572
 31
0.0
  0
LINE
  5
10B4
330
18
100
AcDbEntity
  8
0
 62
     0
100
AcDbLine
 10
5330.15863396334
 20
4321.601422273486
 30
0.0
 11
5329.615416427551
 21
4321.250516839279
 31
0.0
  0
LINE
  5
10B5
330
18
100
AcDbEntity
  8
0
 62
     0
100
AcDbLine
 10
5329.615416427551
 20
4322.010811544394
 30
0.0
 11
5330.15863396334
 21
4321.601422273486
 31
0.0
  0
LINE
  5
10B6
330
18
100
AcDbEntity
  8
0
 62
     0
100
AcDbLine
 10
5330.139121577977
 20
4322.342222165201
 30
0.0
 11
5329.615416427551
 21
4322.010811544394
 31
0.0
  0
LINE
  5
10B7
330
18
100
AcDbEntity
  8
0
 62
     0
100
AcDbLine
 10
5329.615416427551
 20
4322.673632786006
 30
0.0
 11
5330.139121577977
 21
4322.342222165201
 31
0.0
  0
LINE
  5
10B8
330
18
100
AcDbEntity
  8
0
 62
     0
100
AcDbLine
 10
5330.119609192614
 20
4322.927064153212
 30
0.0
 11
5329.615416427551
 21
4322.673632786006
 31
0.0
  0
LINE
  5
10B9
330
18
100
AcDbEntity
  8
0
 62
     0
100
AcDbLine
 10
5329.615416427551
 20
4323.355948841018
 30
0.0
 11
5330.119609192614
 21
4322.927064153212
 31
0.0
  0
LINE
  5
10BA
330
18
100
AcDbEntity
  8
0
 62
     0
100
AcDbLine
 10
5330.080583285385
 20
4323.648369835025
 30
0.0
 11
5329.615416427551
 21
4323.355948841018
 31
0.0
  0
LINE
  5
10BB
330
18
100
AcDbEntity
  8
0
 62
     0
100
AcDbLine
 10
5329.615416427551
 20
4323.97978045583
 30
0.0
 11
5330.080583285385
 21
4323.648369835025
 31
0.0
  0
LINE
  5
10BC
330
18
100
AcDbEntity
  8
0
 62
     0
100
AcDbLine
 10
5331.481656427554
 20
4324.538248956057
 30
0.0
 11
5329.615416427551
 21
4323.97978045583
 31
0.0
  0
LINE
  5
10BD
330
18
100
AcDbEntity
  8
0
 62
     0
100
AcDbLine
 10
5329.615416427551
 20
4324.681590720745
 30
0.0
 11
5330.061070900022
 21
4324.33068528654
 31
0.0
  0
SPLINE
  5
10BE
330
18
100
AcDbEntity
  8
0
 62
     0
100
AcDbSpline
210
0.0
220
0.0
230
1.0
 70
     8
 71
     3
 72
    10
 73
     6
 74
     0
 42
0.000000001
 43
0.0000000001
 40
168.1890314628042
 40
168.1890314628042
 40
168.1890314628042
 40
168.1890314628042
 40
240.3970488653276
 40
404.4385438063731
 40
531.2097876496541
 40
531.2097876496541
 40
531.2097876496541
 40
531.2097876496541
 10
5278.324725870856
 20
4337.797344870854
 30
0.0
 10
5279.319829642627
 20
4336.784629976121
 30
0.0
 10
5281.765263918376
 20
4333.075326399236
 30
0.0
 10
5279.699965072035
 20
4324.53065072206
 30
0.0
 10
5282.336417993622
 20
4319.237165237398
 30
0.0
 10
5283.896344448849
 20
4317.078111987384
 30
0.0
  0
LINE
  5
10BF
330
18
100
AcDbEntity
  8
0
 62
     0
100
AcDbLine
 10
5334.903096427567
 20
4325.637372153921
 30
0.0
 11
5334.903096427567
 21
4317.078111987384
 31
0.0
  0
LINE
  5
10C0
330
18
100
AcDbEntity
  8
0
 62
     0
100
AcDbLine
 10
5334.903096427567
 20
4317.078111987384
 30
0.0
 11
5371.478680145743
 21
4317.078111987384
 31
0.0
  0
LINE
  5
10C1
330
18
100
AcDbEntity
  8
0
 62
     0
100
AcDbLine
 10
5371.478680145743
 20
4317.078111987384
 30
0.0
 11
5371.478680145743
 21
4334.686944870852
 31
0.0
  0
ARC
  5
10C2
330
18
100
AcDbEntity
  8
0
 62
     0
100
AcDbCircle
 10
5368.368280145753
 20
4334.686944870852
 30
0.0
 40
3.1104
100
AcDbArc
 50
0.0
 51
90.0
  0
LINE
  5
10C3
330
18
100
AcDbEntity
  8
0
 62
     0
100
AcDbLine
 10
5368.368280145753
 20
4337.797344870854
 30
0.0
 11
5278.324725870857
 21
4337.797344870854
 31
0.0
  0
LINE
  5
10C4
330
18
100
AcDbEntity
  8
0
 62
     0
100
AcDbLine
 10
5283.896344448834
 20
4317.078111987384
 30
0.0
 11
5328.060216427556
 21
4317.078111987384
 31
0.0
  0
LINE
  5
10C5
330
18
100
AcDbEntity
  8
0
 62
     0
100
AcDbLine
 10
5328.060216427556
 20
4317.078111987384
 30
0.0
 11
5328.060216427556
 21
4325.637372153921
 31
0.0
  0
LINE
  5
10C6
330
18
100
AcDbEntity
  8
0
 62
     0
100
AcDbLine
 10
5376.995531811214
 20
4315.998632053655
 30
0.0
 11
5360.493257457212
 21
4315.744820192645
 31
0.0
  0
LINE
  5
10C7
330
18
100
AcDbEntity
  8
0
 62
     0
100
AcDbLine
 10
5360.512390893883
 20
4314.500807324061
 30
0.0
 11
5377.014665247885
 21
4314.754619185072
 31
0.0
  0
ARC
  5
10C8
330
18
100
AcDbEntity
  8
0
 62
     0
100
AcDbCircle
 10
5377.052932121227
 20
4312.266593447902
 30
0.0
 40
2.488319999999971
100
AcDbArc
 50
1.839441251917187
 51
90.88116350403233
  0
LINE
  5
10C9
330
18
100
AcDbEntity
  8
0
 62
     0
100
AcDbLine
 10
5379.539969892482
 20
4312.346465513055
 30
0.0
 11
5380.537637636479
 21
4281.281319548113
 31
0.0
  0
LINE
  5
10CA
330
18
100
AcDbEntity
  8
0
 62
     0
100
AcDbLine
 10
5380.537637636479
 20
4281.281319548113
 30
0.0
 11
5381.754631887506
 21
4281.73352707992
 31
0.0
  0
LINE
  5
10CB
330
18
100
AcDbEntity
  8
0
 62
     0
100
AcDbLine
 10
5381.754631887506
 20
4281.73352707992
 30
0.0
 11
5380.783488778103
 21
4312.386401545634
 31
0.0
  0
ARC
  5
10CC
330
18
100
AcDbEntity
  8
0
 62
     0
100
AcDbCircle
 10
5377.052932121227
 20
4312.266593447902
 30
0.0
 40
3.73247999999999
100
AcDbArc
 50
1.839441251917187
 51
90.88116350403233
  0
LINE
  5
10CD
330
18
100
AcDbEntity
  8
0
 62
     0
100
AcDbLine
 10
5369.859831562587
 20
4313.716116725803
 30
0.0
 11
5367.876341764073
 21
4314.614067959211
 31
0.0
  0
LINE
  5
10CE
330
18
100
AcDbEntity
  8
0
 62
     0
100
AcDbLine
 10
5367.876341764073
 20
4314.614067959211
 30
0.0
 11
5366.187556304813
 21
4310.88369975469
 31
0.0
  0
LINE
  5
10CF
330
18
100
AcDbEntity
  8
0
 62
     0
100
AcDbLine
 10
5366.187556304813
 20
4310.88369975469
 30
0.0
 11
5333.969976427558
 21
4311.870812941695
 31
0.0
  0
LINE
  5
10D0
330
18
100
AcDbEntity
  8
0
 62
     0
100
AcDbLine
 10
5333.969976427558
 20
4309.692511225022
 30
0.0
 11
5367.572209009383
 21
4308.662973717218
 31
0.0
  0
LINE
  5
10D1
330
18
100
AcDbEntity
  8
0
 62
     0
100
AcDbLine
 10
5367.572209009383
 20
4308.662973717218
 30
0.0
 11
5369.859831562587
 21
4313.716116725803
 31
0.0
  0
LINE
  5
10D2
330
18
100
AcDbEntity
  8
0
 62
     0
100
AcDbLine
 10
5322.772536427554
 20
4312.21389087389
 30
0.0
 11
5322.772536427554
 21
4310.035589157219
 31
0.0
  0
LINE
  5
10D3
330
18
100
AcDbEntity
  8
0
 62
     0
100
AcDbLine
 10
5340.190776427555
 20
4311.680214090474
 30
0.0
 11
5340.190776427555
 21
4309.501912373801
 31
0.0
  0
LINE
  5
10D4
330
18
100
AcDbEntity
  8
0
 62
     0
100
AcDbLine
 10
5377.014665247885
 20
4314.754619185072
 30
0.0
 11
5360.512390893883
 21
4314.500807324061
 31
0.0
  0
LINE
  5
10D5
330
18
100
AcDbEntity
  8
0
 62
     0
100
AcDbLine
 10
5372.450518168564
 20
4317.078111987384
 30
0.0
 11
5372.718366541437
 21
4315.932847468227
 31
0.0
  0
LINE
  5
10D6
330
18
100
AcDbEntity
  8
0
 62
     0
100
AcDbLine
 10
5361.251440161368
 20
4317.078111987384
 30
0.0
 11
5361.84150299345
 21
4315.765556771209
 31
0.0
  0
LINE
  5
10D7
330
18
100
AcDbEntity
  8
0
 62
     0
100
AcDbLine
 10
5360.493257457212
 20
4315.744820192645
 30
0.0
 11
5360.512390893883
 21
4314.500807324061
 31
0.0
  0
LINE
  5
10D8
330
18
100
AcDbEntity
  8
0
 62
     0
100
AcDbLine
 10
5328.682296427557
 20
4325.015292153922
 30
0.0
 11
5330.195942195383
 21
4325.015292153922
 31
0.0
  0
LINE
  5
10D9
330
18
100
AcDbEntity
  8
0
 62
     0
100
AcDbLine
 10
5328.682296427557
 20
4322.260408112807
 30
0.0
 11
5330.009836522139
 21
4322.260408112807
 31
0.0
  0
LINE
  5
10DA
330
18
100
AcDbEntity
  8
0
 62
     0
100
AcDbLine
 10
5333.347896427557
 20
4312.867596468565
 30
0.0
 11
5333.347896427557
 21
4308.937012029169
 31
0.0
  0
LINE
  5
10DB
330
18
100
AcDbEntity
  8
0
 62
     0
100
AcDbLine
 10
5329.615416427551
 20
4312.867596468565
 30
0.0
 11
5329.615416427551
 21
4308.937012029169
 31
0.0
  0
LINE
  5
10DC
330
18
100
AcDbEntity
  8
0
 62
     0
100
AcDbLine
 10
5335.525176427554
 20
4317.078111987384
 30
0.0
 11
5335.525176427554
 21
4316.456031987383
 31
0.0
  0
LINE
  5
10DD
330
18
100
AcDbEntity
  8
0
 62
     0
100
AcDbLine
 10
5327.438136427555
 20
4316.456031987383
 30
0.0
 11
5327.438136427555
 21
4317.078111987384
 31
0.0
  0
LINE
  5
10DE
330
18
100
AcDbEntity
  8
0
 62
     0
100
AcDbLine
 10
5327.438136427555
 20
4316.456031987383
 30
0.0
 11
5328.657685292106
 21
4316.456031987383
 31
0.0
  0
LINE
  5
10DF
330
18
100
AcDbEntity
  8
0
 62
     0
100
AcDbLine
 10
5334.305627563016
 20
4316.456031987383
 30
0.0
 11
5335.525176427554
 21
4316.456031987383
 31
0.0
  0
LINE
  5
10E0
330
18
100
AcDbEntity
  8
0
 62
     0
100
AcDbLine
 10
5328.99333642755
 20
4312.023292022671
 30
0.0
 11
5328.99333642755
 21
4309.844990306
 31
0.0
  0
LINE
  5
10E1
330
18
100
AcDbEntity
  8
0
 62
     0
100
AcDbLine
 10
5333.969976427558
 20
4311.870812941695
 30
0.0
 11
5333.969976427558
 21
4309.692511225022
 31
0.0
  0
LINE
  5
10E2
330
18
100
AcDbEntity
  8
0
 62
     0
100
AcDbLine
 10
5328.682296427557
 20
4316.456031987383
 30
0.0
 11
5328.682296427557
 21
4325.015292153922
 31
0.0
  0
LINE
  5
10E3
330
18
100
AcDbEntity
  8
0
 62
     0
100
AcDbLine
 10
5334.281016427552
 20
4325.015292153922
 30
0.0
 11
5334.281016427552
 21
4316.456031987383
 31
0.0
  0
LINE
  5
10E4
330
18
100
AcDbEntity
  8
0
 62
     0
100
AcDbLine
 10
5328.060216427556
 20
4325.637372153921
 30
0.0
 11
5330.382566195376
 21
4325.637372153921
 31
0.0
  0
LINE
  5
10E5
330
18
100
AcDbEntity
  8
0
 62
     0
100
AcDbLine
 10
5332.754546278205
 20
4325.015292153922
 30
0.0
 11
5334.281016427552
 21
4325.015292153922
 31
0.0
  0
LINE
  5
10E6
330
18
100
AcDbEntity
  8
0
 62
     0
100
AcDbLine
 10
5332.953476332969
 20
4322.260408112807
 30
0.0
 11
5334.281016427552
 21
4322.260408112807
 31
0.0
  0
LINE
  5
10E7
330
18
100
AcDbEntity
  8
0
 62
     0
100
AcDbLine
 10
5330.382566195376
 20
4325.637372153921
 30
0.0
 11
5334.903096427567
 21
4325.637372153921
 31
0.0
  0
LINE
  5
10E8
330
18
100
AcDbEntity
  8
0
 62
     0
100
AcDbLine
 10
5334.903096427567
 20
4317.109235950492
 30
0.0
 11
5335.525176427554
 21
4317.078111987384
 31
0.0
  0
LINE
  5
10E9
330
18
100
AcDbEntity
  8
0
 62
     0
100
AcDbLine
 10
5334.903096427567
 20
4317.078111987384
 30
0.0
 11
5335.525176427554
 21
4317.078111987384
 31
0.0
  0
LINE
  5
10EA
330
18
100
AcDbEntity
  8
0
 62
     0
100
AcDbLine
 10
5327.438136427555
 20
4317.078111987384
 30
0.0
 11
5328.060216427556
 21
4317.078111987384
 31
0.0
  0
LINE
  5
10EB
330
18
100
AcDbEntity
  8
0
 62
     0
100
AcDbLine
 10
5330.069654375253
 20
4325.015292153922
 30
0.0
 11
5329.615416427551
 21
4324.681590720745
 31
0.0
  0
LINE
  5
10EC
330
18
100
AcDbEntity
  8
0
 62
     0
100
AcDbLine
 10
5332.893658479869
 20
4325.015292153922
 30
0.0
 11
5333.347896427557
 21
4324.681590720745
 31
0.0
  0
LINE
  5
10ED
330
18
100
AcDbEntity
  8
0
 62
     0
100
AcDbLine
 10
5328.682296427557
 20
4316.456031987383
 30
0.0
 11
5334.305627563016
 21
4316.456031987383
 31
0.0
  0
LINE
  5
10EE
330
18
100
AcDbEntity
  8
0
 62
     0
100
AcDbLine
 10
5332.754546278205
 20
4325.026088573693
 30
0.0
 11
5332.754546278205
 21
4325.637372153921
 31
0.0
  0
LINE
  5
10EF
330
18
100
AcDbEntity
  8
0
 62
     0
100
AcDbLine
 10
5330.195942195383
 20
4325.016667268143
 30
0.0
 11
5330.195942195383
 21
4325.637372153921
 31
0.0
  0
LINE
  5
10F0
330
18
100
AcDbEntity
  8
0
 62
     0
100
AcDbLine
 10
5332.902241955087
 20
4324.33068528654
 30
0.0
 11
5333.315339045407
 21
4323.989523185804
 31
0.0
  0
LINE
  5
10F1
330
18
100
AcDbEntity
  8
0
 62
     0
100
AcDbLine
 10
5330.061070900022
 20
4324.33068528654
 30
0.0
 11
5329.615416427551
 21
4323.97978045583
 31
0.0
  0
LINE
  5
10F2
330
18
100
AcDbEntity
  8
0
 62
     0
100
AcDbLine
 10
5333.347896427557
 20
4316.267363597165
 30
0.0
 11
5332.754856901494
 21
4315.696567415821
 31
0.0
  0
LINE
  5
10F3
330
18
100
AcDbEntity
  8
0
 62
     0
100
AcDbLine
 10
5332.754856901494
 20
4315.696567415821
 30
0.0
 11
5333.347896427557
 21
4315.025286680843
 31
0.0
  0
LINE
  5
10F4
330
18
100
AcDbEntity
  8
0
 62
     0
100
AcDbLine
 10
5333.347896427557
 20
4315.025286680843
 30
0.0
 11
5332.754856901494
 21
4314.401954232598
 31
0.0
  0
LINE
  5
10F5
330
18
100
AcDbEntity
  8
0
 62
     0
100
AcDbLine
 10
5332.754856901494
 20
4314.401954232598
 30
0.0
 11
5333.347896427557
 21
4313.850544214451
 31
0.0
  0
LINE
  5
10F6
330
18
100
AcDbEntity
  8
0
 62
     0
100
AcDbLine
 10
5333.347896427557
 20
4313.850544214451
 30
0.0
 11
5332.754856901494
 21
4313.299134983093
 31
0.0
  0
LINE
  5
10F7
330
18
100
AcDbEntity
  8
0
 62
     0
100
AcDbLine
 10
5332.754856901494
 20
4313.299134983093
 30
0.0
 11
5333.347896427557
 21
4312.867596468565
 31
0.0
  0
LINE
  5
10F8
330
18
100
AcDbEntity
  8
0
 62
     0
100
AcDbLine
 10
5330.208455953615
 20
4313.299134983093
 30
0.0
 11
5329.615416427551
 21
4312.867596468565
 31
0.0
  0
LINE
  5
10F9
330
18
100
AcDbEntity
  8
0
 62
     0
100
AcDbLine
 10
5329.615416427551
 20
4313.850544214451
 30
0.0
 11
5330.208455953615
 21
4313.299134983093
 31
0.0
  0
LINE
  5
10FA
330
18
100
AcDbEntity
  8
0
 62
     0
100
AcDbLine
 10
5330.208455953615
 20
4314.401954232598
 30
0.0
 11
5329.615416427551
 21
4313.850544214451
 31
0.0
  0
LINE
  5
10FB
330
18
100
AcDbEntity
  8
0
 62
     0
100
AcDbLine
 10
5329.615416427551
 20
4315.025286680843
 30
0.0
 11
5330.208455953615
 21
4314.401954232598
 31
0.0
  0
LINE
  5
10FC
330
18
100
AcDbEntity
  8
0
 62
     0
100
AcDbLine
 10
5330.208455953615
 20
4315.696567415821
 30
0.0
 11
5329.615416427551
 21
4315.025286680843
 31
0.0
  0
LINE
  5
10FD
330
18
100
AcDbEntity
  8
0
 62
     0
100
AcDbLine
 10
5329.615416427551
 20
4316.267363597165
 30
0.0
 11
5330.208455953615
 21
4315.696567415821
 31
0.0
  0
LINE
  5
10FE
330
18
100
AcDbEntity
  8
0
 62
     0
100
AcDbLine
 10
5330.208455953615
 20
4316.799386665324
 30
0.0
 11
5329.615416427551
 21
4316.267363597165
 31
0.0
  0
LINE
  5
10FF
330
18
100
AcDbEntity
  8
0
 62
     0
100
AcDbLine
 10
5329.615416427551
 20
4317.414308955124
 30
0.0
 11
5330.208455953615
 21
4316.799386665324
 31
0.0
  0
LINE
  5
1100
330
18
100
AcDbEntity
  8
0
 62
     0
100
AcDbLine
 10
5328.060216427556
 20
4325.637372153921
 30
0.0
 11
5334.903096427567
 21
4325.637372153921
 31
0.0
  0
LINE
  5
1101
330
18
100
AcDbEntity
  8
0
 62
     0
100
AcDbLine
 10
5334.903096427567
 20
4317.078111987384
 30
0.0
 11
5334.903096427567
 21
4325.637372153921
 31
0.0
  0
LEADER
  5
1102
330
18
100
AcDbEntity
  8
0
 62
     0
100
AcDbLeader
  3
B
 76
     3
 10
5328.977796863265
 20
4307.410879468566
 30
1281.650924471765
 10
5309.432610623439
 20
4293.186347923883
 30
1281.650924471765
 10
5303.261449826232
 20
4293.186347923883
 30
1281.650924471765
210
0.0
220
0.0
230
-1.0
1001
ACAD
1000
DSTYLE
1002
{
1070
    41
1040
0.5
1070
   147
1040
0.3
1070
    77
1070
     0
1002
}
  0
LEADER
  5
1103
330
18
100
AcDbEntity
  8
0
 62
     0
100
AcDbLeader
  3
B
 76
     3
 10
5310.849768198331
 20
4310.400890393051
 30
1281.650924471765
 10
5296.946413241376
 20
4300.282352317464
 30
1281.650924471765
 10
5290.77525244417
 20
4300.282352317464
 30
1281.650924471765
210
0.0
220
0.0
230
-1.0
1001
ACAD
1000
DSTYLE
1002
{
1070
    41
1040
0.5
1070
   147
1040
0.3
1070
    77
1070
     0
1002
}
  0
LEADER
  5
1104
330
18
100
AcDbEntity
  8
0
 62
     0
100
AcDbLeader
  3
B
 76
     3
 10
5311.459627714691
 20
4337.671548546828
 30
1281.650924471765
 10
5297.556272757736
 20
4347.790086622411
 30
1281.650924471765
 10
5291.38511196053
 20
4347.790086622411
 30
1281.650924471765
1001
ACAD
1000
DSTYLE
1002
{
1070
    41
1040
0.5
1070
   147
1040
0.3
1070
    77
1070
     0
1002
}
  0
LEADER
  5
1105
330
18
100
AcDbEntity
  8
0
 62
     0
100
AcDbLeader
  3
B
 76
     3
 10
5380.78188012196
 20
4313.622099678724
 30
2563.30184894353
 10
5394.685235078915
 20
4323.740637754309
 30
2563.30184894353
 10
5400.856395876136
 20
4323.740637754309
 30
2563.30184894353
211
-1.0
221
0.0
231
0.0
210
0.0
220
0.0
230
-1.0
1001
ACAD
1000
DSTYLE
1002
{
1070
    41
1040
0.5
1070
   147
1040
0.3
1070
    77
1070
     0
1002
}
  0
MTEXT
  5
1106
330
18
100
AcDbEntity
  8
0
 62
     0
100
AcDbMText
 10
5403.093231811605
 20
4330.50973795108
 30
0.0
 40
3.84
 41
37.44914285714286
 46
0.0
 71
     1
 72
     1
  1
{\fBatang|b0|i0|c0|p18;Sink\PFregadero}
 73
     1
 44
1.0
  0
MTEXT
  5
1107
330
18
100
AcDbEntity
  8
0
 62
     0
100
AcDbMText
 10
5301.00460861028
 20
4286.718717934219
 30
0.0
 40
3.84
 41
26.19233137190082
 46
0.0
 71
     9
 72
     1
  1
{\fBatang|b0|i0|c0|p18;Screws Tornillo}
 73
     1
 44
1.0
  0
MTEXT
  5
1108
330
18
100
AcDbEntity
  8
0
 62
     0
100
AcDbMText
 10
5286.949045218102
 20
4299.438176912293
 30
0.0
 40
3.84
 41
30.14802327272727
 46
0.0
 71
     9
 72
     1
  1
{\fBatang|b0|i0|c0|p18;Fastener\PCierre}
 73
     1
 44
1.0
  0
DIMENSION
  5
1109
330
18
100
AcDbEntity
  8
0
 62
     0
100
AcDbDimension
  2
*D12
 10
5459.869514500991
 20
3954.13522263536
 30
0.0
 11
5193.869514500991
 21
3964.76022263536
 31
0.0
 70
    32
 71
     5
 42
532.0
 73
     0
 74
     0
 75
     0
  3
ISO-25
100
AcDbAlignedDimension
 13
4927.869514500991
 23
3954.13522263536
 33
0.0
 14
5459.869514500991
 24
3954.13522263536
 34
0.0
100
AcDbRotatedDimension
1001
ACAD
1000
DSTYLE
1002
{
1070
    41
1040
10.0
1070
   140
1040
20.0
1002
}
  0
DIMENSION
  5
110A
330
18
100
AcDbEntity
  8
0
 62
     0
100
AcDbDimension
  2
*D13
 10
4857.937250179109
 20
4022.283825199078
 30
0.0
 11
4847.312250179109
 21
4225.283825199078
 31
0.0
 70
    32
 71
     5
 42
406.0
 73
     0
 74
     0
 75
     0
  3
ISO-25
100
AcDbAlignedDimension
 13
4857.937250179109
 23
4428.283825199078
 33
0.0
 14
4857.937250179109
 24
4022.283825199078
 34
0.0
 50
90.0
100
AcDbRotatedDimension
1001
ACAD
1000
DSTYLE
1002
{
1070
    41
1040
10.0
1070
   140
1040
20.0
1002
}
  0
ARC
  5
140E
330
18
100
AcDbEntity
  8
0
 62
     0
100
AcDbCircle
 10
4942.869514500992
 20
4037.283825199078
 30
0.0
 40
15.0
100
AcDbArc
 50
180.0
 51
270.0
  0
ARC
  5
140F
330
18
100
AcDbEntity
  8
0
 62
     0
100
AcDbCircle
 10
5444.869514500991
 20
4037.283825199078
 30
0.0
 40
15.0
100
AcDbArc
 50
270.0
 51
0.0
  0
ARC
  5
1410
330
18
100
AcDbEntity
  8
0
 62
     0
100
AcDbCircle
 10
5444.869514500992
 20
4413.283825199079
 30
0.0
 40
15.0
100
AcDbArc
 50
0.0
 51
90.0
  0
ARC
  5
1411
330
18
100
AcDbEntity
  8
0
 62
     0
100
AcDbCircle
 10
4942.869514500992
 20
4413.283825199078
 30
0.0
 40
15.0
100
AcDbArc
 50
90.0000000000001
 51
180.0000000000001
  0
ENDSEC
  0
SECTION
  2
OBJECTS
  0
DICTIONARY
  5
C
330
0
100
AcDbDictionary
281
     1
  3
ACAD_COLOR
350
178
  3
ACAD_DETAILVIEWSTYLE
350
180F
  3
ACAD_GROUP
350
D
  3
ACAD_IMAGE_DICT
350
17D5
  3
ACAD_LAYOUT
350
179
  3
ACAD_MATERIAL
350
177
  3
ACAD_MLEADERSTYLE
350
144B
  3
ACAD_MLINESTYLE
350
1B
  3
ACAD_PLOTSETTINGS
350
17A
  3
ACAD_PLOTSTYLENAME
350
175
  3
ACAD_SCALELIST
350
144D
  3
ACAD_SECTIONVIEWSTYLE
350
1810
  3
ACAD_TABLESTYLE
350
1449
  3
ACAD_VISUALSTYLE
350
1430
  3
ACDB_RECOMPOSE_DATA
350
180E
  3
AcDbVariableDictionary
350
19E
  3
ASE_INDEX_DICTIONARY
350
2BA
  3
ZWM_SYS_DICT
350
178C
  0
SUN
  5
17D4
330
142C
100
AcDbSun
 90
        1
290
     0
 63
     7
421
 16777215
 40
1.0
291
     1
 91
  2455826
 92
 54000000
292
     0
 70
     2
 71
   256
280
     1
  0
DICTIONARY
  5
9F6
330
2
100
AcDbDictionary
280
     1
281
     1
  3
ACAD_LAYERSTATES
360
9F7
  0
DICTIONARY
  5
178
102
{ACAD_REACTORS
330
C
102
}
330
C
100
AcDbDictionary
281
     1
  0
DICTIONARY
  5
180F
102
{ACAD_REACTORS
330
C
102
}
330
C
100
AcDbDictionary
281
     1
  0
DICTIONARY
  5
D
102
{ACAD_REACTORS
330
C
102
}
330
C
100
AcDbDictionary
281
     1
  0
DICTIONARY
  5
17D5
102
{ACAD_REACTORS
330
C
102
}
330
C
100
AcDbDictionary
281
     1
  0
DICTIONARY
  5
179
102
{ACAD_REACTORS
330
C
102
}
330
C
100
AcDbDictionary
281
     1
  3
Model
350
17B
  3
布局1
350
17C
  0
DICTIONARY
  5
177
102
{ACAD_REACTORS
330
C
102
}
330
C
100
AcDbDictionary
281
     1
  3
ByBlock
350
142E
  3
ByLayer
350
142D
  3
Global
350
142F
  0
DICTIONARY
  5
144B
102
{ACAD_REACTORS
330
C
102
}
330
C
100
AcDbDictionary
281
     1
  3
Standard
350
144C
  0
DICTIONARY
  5
1B
102
{ACAD_REACTORS
330
C
102
}
330
C
100
AcDbDictionary
281
     1
  3
STANDARD
350
1C
  0
DICTIONARY
  5
17A
102
{ACAD_REACTORS
330
C
102
}
330
C
100
AcDbDictionary
281
     1
  0
ACDBDICTIONARYWDFLT
  5
175
102
{ACAD_REACTORS
330
C
102
}
330
C
100
AcDbDictionary
281
     1
  3
Normal
350
176
100
AcDbDictionaryWithDefault
340
176
  0
DICTIONARY
  5
144D
102
{ACAD_REACTORS
330
C
102
}
330
C
100
AcDbDictionary
281
     1
  3
A0
350
144E
  3
A1
350
144F
  3
A2
350
1450
  3
A3
350
1451
  3
A4
350
1452
  3
A5
350
1453
  3
A6
350
1454
  3
A7
350
1455
  3
A8
350
1456
  3
A9
350
1457
  3
B0
350
1458
  3
B1
350
1459
  3
B2
350
145A
  3
B3
350
145B
  3
B4
350
145C
  3
B5
350
145D
  3
B6
350
145E
  0
DICTIONARY
  5
1810
102
{ACAD_REACTORS
330
C
102
}
330
C
100
AcDbDictionary
281
     1
  0
DICTIONARY
  5
1449
102
{ACAD_REACTORS
330
C
102
}
330
C
100
AcDbDictionary
281
     1
  3
Standard
350
144A
  0
DICTIONARY
  5
1430
102
{ACAD_REACTORS
330
C
102
}
330
C
100
AcDbDictionary
281
     1
  3
2dWireframe
350
1435
  3
Basic
350
1438
  3
Brighten
350
143C
  3
ColorChange
350
1440
  3
Conceptual
350
143A
  3
Dim
350
143B
  3
EdgeColorOff
350
1443
  3
Facepattern
350
143F
  3
Flat
350
1431
  3
FlatWithEdges
350
1432
  3
Gouraud
350
1433
  3
GouraudWithEdges
350
1434
  3
Hidden
350
1437
  3
JitterOff
350
1441
  3
Linepattern
350
143E
  3
OverhangOff
350
1442
  3
Realistic
350
1439
  3
Shaded
350
1448
  3
Shaded with edges
350
1447
  3
Shades of Gray
350
1444
  3
Sketchy
350
1445
  3
Thicken
350
143D
  3
Wireframe
350
1436
  3
X-Ray
350
1446
  0
XRECORD
  5
180E
102
{ACAD_REACTORS
330
C
102
}
330
C
100
AcDbXrecord
280
     1
 90
        1
330
144A
  0
DICTIONARY
  5
19E
102
{ACAD_REACTORS
330
C
102
}
330
C
100
AcDbDictionary
281
     1
  3
CMLEADERSTYLE
350
17CE
  3
CTABLESTYLE
350
17CD
  3
DIMASSOC
350
19F
  3
PROJECTNAME
350
1A0
  3
XCLIPFRAME
350
17CF
  0
DICTIONARY
  5
2BA
102
{ACAD_REACTORS
330
C
102
}
330
C
100
AcDbDictionary
281
     1
  3
ASEBlockHierarchyIndexRecord
350
2BC
1001
DCO15
1040
1560505907.343
  0
DICTIONARY
  5
178C
102
{ACAD_REACTORS
330
C
102
}
330
C
100
AcDbDictionary
281
     1
  3
ZWM_CFG_DICT
350
178F
  3
ZWM_STD_DICT
350
178D
  0
DICTIONARY
  5
9F7
102
{ACAD_REACTORS
330
9F6
102
}
330
9F6
100
AcDbDictionary
281
     1
  0
LAYOUT
  5
17B
102
{ACAD_REACTORS
330
179
102
}
330
179
100
AcDbPlotSettings
  1

  2
采购IP2700
  4
User256
  6

 40
4.180416584014893
 41
5.831417560577393
 42
10.10707092285156
 43
3.757080078125
 44
215.8999938964844
 45
279.3999938964844
 46
0.0
 47
0.0
 48
3511.307322194814
 49
3809.617132792778
140
4564.122743981261
141
4527.495242683399
142
1.0
143
3.902040633511668
 70
 11952
 72
     1
 73
     1
 74
     4
  7

 75
     0
 76
     0
 77
     2
 78
   300
147
0.2562761626344324
148
-3511.307322194814
149
-3809.617132792778
100
AcDbLayout
  1
Model
 70
     1
 71
     0
 10
0.0
 20
0.0
 11
12.0
 21
9.0
 12
0.0
 22
0.0
 32
0.0
 14
0.0
 24
0.0
 34
0.0
 15
0.0
 25
0.0
 35
0.0
146
0.0
 13
0.0
 23
0.0
 33
0.0
 16
1.0
 26
0.0
 36
0.0
 17
0.0
 27
1.0
 37
0.0
 76
     0
330
18
331
142C
  0
LAYOUT
  5
17C
102
{ACAD_REACTORS
330
179
102
}
330
179
100
AcDbPlotSettings
  1

  2
C:\Documents and Settings\yingao\Application Data\Autodesk\AutoCAD 2004\R16.0\chs\plotters\PublishToWeb PNG.pc3
  4

  6

 40
0.0
 41
0.0
 42
0.0
 43
0.0
 44
0.0
 45
0.0
 46
0.0
 47
0.0
 48
0.0
 49
0.0
140
0.0
141
0.0
142
1.0
143
1.0
 70
   688
 72
     0
 73
     0
 74
     5
  7

 75
    16
 76
     0
 77
     2
 78
   300
147
1.0
148
0.0
149
0.0
100
AcDbLayout
  1
布局1
 70
     1
 71
     1
 10
0.0
 20
0.0
 11
420.0
 21
297.0
 12
0.0
 22
0.0
 32
0.0
 14
1.000000000000000E+20
 24
1.000000000000000E+20
 34
1.000000000000000E+20
 15
-1.000000000000000E+20
 25
-1.000000000000000E+20
 35
-1.000000000000000E+20
146
0.0
 13
0.0
 23
0.0
 33
0.0
 16
1.0
 26
0.0
 36
0.0
 17
0.0
 27
1.0
 37
0.0
 76
     0
330
15
  0
MATERIAL
  5
142E
102
{ACAD_REACTORS
330
177
102
}
330
177
100
AcDbMaterial
  1
ByBlock
 72
     0
 73
     2
 77
     0
 78
     2
171
     0
172
     2
175
     0
176
     2
179
     0
270
     2
274
     2
 94
      127
  0
MATERIAL
  5
142D
102
{ACAD_REACTORS
330
177
102
}
330
177
100
AcDbMaterial
  1
ByLayer
 72
     0
 73
     2
 77
     0
 78
     2
171
     0
172
     2
175
     0
176
     2
179
     0
270
     2
274
     2
 94
      127
  0
MATERIAL
  5
142F
102
{ACAD_REACTORS
330
177
102
}
330
177
100
AcDbMaterial
  1
Global
 72
     0
 73
     2
 77
     0
 78
     2
171
     0
172
     2
175
     0
176
     2
179
     0
270
     2
274
     2
 94
      127
  0
MLEADERSTYLE
  5
144C
102
{ACAD_REACTORS
330
144B
102
}
102
{ACAD_XDICTIONARY
360
17DA
102
}
330
144B
100
AcDbMLeaderStyle
170
     2
171
     1
172
     0
 90
        2
 40
0.0
 41
0.0
173
     1
 91
-1056964608
340
12
 92
       -2
290
     1
 42
0.4
291
     1
 43
2.0
  3
Standard
341
0
 44
0.18
300

342
F
174
     1
178
     1
175
     1
176
     0
 93
-1056964608
 45
0.2
292
     0
297
     0
 46
5.0
343
0
 94
-1056964608
 47
1.0
 49
1.0
140
1.0
293
     1
141
0.0
294
     1
177
     0
142
1.0
295
     0
296
     0
143
0.125
1001
ACAD_MLEADERVER
1070
     2
  0
MLINESTYLE
  5
1C
102
{ACAD_REACTORS
330
1B
102
}
330
1B
100
AcDbMlineStyle
  2
STANDARD
 70
     0
  3

 62
   256
 51
90.0
 52
90.0
 71
     2
 49
0.5
 62
   256
  6
BYLAYER
 49
-0.5
 62
   256
  6
BYLAYER
  0
ACDBPLACEHOLDER
  5
176
102
{ACAD_REACTORS
330
175
102
}
330
175
  0
SCALE
  5
144E
102
{ACAD_REACTORS
330
144D
102
}
330
144D
100
AcDbScale
 70
     0
300
1:1
140
1.0
141
1.0
290
     1
  0
SCALE
  5
144F
102
{ACAD_REACTORS
330
144D
102
}
330
144D
100
AcDbScale
 70
     0
300
1:2
140
1.0
141
2.0
290
     0
  0
SCALE
  5
1450
102
{ACAD_REACTORS
330
144D
102
}
330
144D
100
AcDbScale
 70
     0
300
1:4
140
1.0
141
4.0
290
     0
  0
SCALE
  5
1451
102
{ACAD_REACTORS
330
144D
102
}
330
144D
100
AcDbScale
 70
     0
300
1:5
140
1.0
141
5.0
290
     0
  0
SCALE
  5
1452
102
{ACAD_REACTORS
330
144D
102
}
330
144D
100
AcDbScale
 70
     0
300
1:8
140
1.0
141
8.0
290
     0
  0
SCALE
  5
1453
102
{ACAD_REACTORS
330
144D
102
}
330
144D
100
AcDbScale
 70
     0
300
1:10
140
1.0
141
10.0
290
     0
  0
SCALE
  5
1454
102
{ACAD_REACTORS
330
144D
102
}
330
144D
100
AcDbScale
 70
     0
300
1:16
140
1.0
141
16.0
290
     0
  0
SCALE
  5
1455
102
{ACAD_REACTORS
330
144D
102
}
330
144D
100
AcDbScale
 70
     0
300
1:20
140
1.0
141
20.0
290
     0
  0
SCALE
  5
1456
102
{ACAD_REACTORS
330
144D
102
}
330
144D
100
AcDbScale
 70
     0
300
1:30
140
1.0
141
30.0
290
     0
  0
SCALE
  5
1457
102
{ACAD_REACTORS
330
144D
102
}
330
144D
100
AcDbScale
 70
     0
300
1:40
140
1.0
141
40.0
290
     0
  0
SCALE
  5
1458
102
{ACAD_REACTORS
330
144D
102
}
330
144D
100
AcDbScale
 70
     0
300
1:50
140
1.0
141
50.0
290
     0
  0
SCALE
  5
1459
102
{ACAD_REACTORS
330
144D
102
}
330
144D
100
AcDbScale
 70
     0
300
1:100
140
1.0
141
100.0
290
     0
  0
SCALE
  5
145A
102
{ACAD_REACTORS
330
144D
102
}
330
144D
100
AcDbScale
 70
     0
300
2:1
140
2.0
141
1.0
290
     0
  0
SCALE
  5
145B
102
{ACAD_REACTORS
330
144D
102
}
330
144D
100
AcDbScale
 70
     0
300
4:1
140
4.0
141
1.0
290
     0
  0
SCALE
  5
145C
102
{ACAD_REACTORS
330
144D
102
}
330
144D
100
AcDbScale
 70
     0
300
8:1
140
8.0
141
1.0
290
     0
  0
SCALE
  5
145D
102
{ACAD_REACTORS
330
144D
102
}
330
144D
100
AcDbScale
 70
     0
300
10:1
140
10.0
141
1.0
290
     0
  0
SCALE
  5
145E
102
{ACAD_REACTORS
330
144D
102
}
330
144D
100
AcDbScale
 70
     0
300
100:1
140
100.0
141
1.0
290
     0
  0
TABLESTYLE
  5
144A
102
{ACAD_REACTORS
330
1449
102
}
102
{ACAD_XDICTIONARY
360
17DC
102
}
330
1449
100
AcDbTableStyle
  3
Standard
 70
     0
 71
     0
 40
0.06
 41
0.06
280
     0
281
     0
  7
STANDARD
140
4.5
170
     2
 62
     7
 63
   257
283
     0
 90
        4
 91
        0
  1

274
    -2
284
     1
 64
     0
275
    -2
285
     1
 65
     0
276
    -2
286
     1
 66
     0
277
    -2
287
     1
 67
     0
278
    -2
288
     1
 68
     0
279
    -2
289
     1
 69
     0
  7
STANDARD
140
6.0
170
     5
 62
     7
 63
   257
283
     0
 90
        4
 91
        0
  1

274
    -2
284
     1
 64
     0
275
    -2
285
     1
 65
     0
276
    -2
286
     1
 66
     0
277
    -2
287
     1
 67
     0
278
    -2
288
     1
 68
     0
279
    -2
289
     1
 69
     0
  7
STANDARD
140
4.5
170
     5
 62
     7
 63
   257
283
     0
 90
        4
 91
        0
  1

274
    -2
284
     1
 64
     0
275
    -2
285
     1
 65
     0
276
    -2
286
     1
 66
     0
277
    -2
287
     1
 67
     0
278
    -2
288
     1
 68
     0
279
    -2
289
     1
 69
     0
  0
VISUALSTYLE
  5
1435
102
{ACAD_REACTORS
330
1430
102
}
102
{ACAD_XDICTIONARY
360
17DE
102
}
330
1430
100
AcDbVisualStyle
  2
2dWireframe
 70
     4
 71
     0
 72
     2
 73
     0
 90
        0
 40
0.6
 41
30.0
 62
     5
 63
     7
421
 16777215
 74
     1
 91
        4
 64
     7
 65
   257
 75
     1
175
     1
 42
1.0
 92
        0
 66
   257
 43
1.0
 76
     1
 77
     6
 78
     2
 67
     7
 79
     5
170
     0
171
     0
290
     0
174
     0
 93
        1
 44
0.0
173
     0
291
     0
 45
0.0
  0
VISUALSTYLE
  5
1438
102
{ACAD_REACTORS
330
1430
102
}
102
{ACAD_XDICTIONARY
360
17E0
102
}
330
1430
100
AcDbVisualStyle
  2
Basic
 70
     7
 71
     1
 72
     0
 73
     1
 90
        0
 40
0.6
 41
30.0
 62
     5
 63
     7
421
 16777215
 74
     0
 91
        4
 64
     7
 65
   257
 75
     1
175
     1
 42
1.0
 92
        8
 66
     7
 43
1.0
 76
     1
 77
     6
 78
     2
 67
     7
 79
     5
170
     0
171
     0
290
     0
174
     0
 93
        1
 44
0.0
173
     0
291
     1
 45
0.0
  0
VISUALSTYLE
  5
143C
102
{ACAD_REACTORS
330
1430
102
}
102
{ACAD_XDICTIONARY
360
17E2
102
}
330
1430
100
AcDbVisualStyle
  2
Brighten
 70
    12
 71
     2
 72
     2
 73
     0
 90
        0
 40
0.6
 41
30.0
 62
     5
 63
     7
421
 16777215
 74
     1
 91
        4
 64
     7
 65
   257
 75
     1
175
     1
 42
1.0
 92
        8
 66
     7
 43
1.0
 76
     1
 77
     6
 78
     2
 67
     7
 79
     5
170
     0
171
     0
290
     0
174
     0
 93
        1
 44
50.0
173
     0
291
     1
 45
0.0
  0
VISUALSTYLE
  5
1440
102
{ACAD_REACTORS
330
1430
102
}
102
{ACAD_XDICTIONARY
360
17E4
102
}
330
1430
100
AcDbVisualStyle
  2
ColorChange
 70
    16
 71
     2
 72
     2
 73
     3
 90
        0
 40
0.6
 41
30.0
 62
     5
 63
     8
421
  8421504
 74
     1
 91
        4
 64
     7
 65
   257
 75
     1
175
     1
 42
1.0
 92
        8
 66
     8
424
  8421504
 43
1.0
 76
     1
 77
     6
 78
     2
 67
     7
 79
     5
170
     0
171
     0
290
     0
174
     0
 93
        1
 44
0.0
173
     0
291
     1
 45
0.0
  0
VISUALSTYLE
  5
143A
102
{ACAD_REACTORS
330
1430
102
}
102
{ACAD_XDICTIONARY
360
17E6
102
}
330
1430
100
AcDbVisualStyle
  2
Conceptual
 70
     9
 71
     3
 72
     2
 73
     0
 90
        0
 40
0.6
 41
30.0
 62
     5
 63
     7
421
 16777215
 74
     2
 91
        2
 64
     7
 65
   257
 75
     1
175
     1
 42
179.0
 92
        8
 66
     7
 43
1.0
 76
     1
 77
     6
 78
     2
 67
     7
 79
     3
170
     0
171
     0
290
     0
174
     0
 93
        1
 44
0.0
173
     0
291
     0
 45
0.0
  0
VISUALSTYLE
  5
143B
102
{ACAD_REACTORS
330
1430
102
}
102
{ACAD_XDICTIONARY
360
17E8
102
}
330
1430
100
AcDbVisualStyle
  2
Dim
 70
    11
 71
     2
 72
     2
 73
     0
 90
        0
 40
0.6
 41
30.0
 62
     5
 63
     7
421
 16777215
 74
     1
 91
        4
 64
     7
 65
   257
 75
     1
175
     1
 42
1.0
 92
        8
 66
     7
 43
1.0
 76
     1
 77
     6
 78
     2
 67
     7
 79
     5
170
     0
171
     0
290
     0
174
     0
 93
        1
 44
-50.0
173
     0
291
     1
 45
0.0
  0
VISUALSTYLE
  5
1443
102
{ACAD_REACTORS
330
1430
102
}
102
{ACAD_XDICTIONARY
360
17EA
102
}
330
1430
100
AcDbVisualStyle
  2
EdgeColorOff
 70
    22
 71
     2
 72
     2
 73
     0
 90
        0
 40
0.6
 41
30.0
 62
     5
 63
     7
421
 16777215
 74
     1
 91
        4
 64
     7
 65
   257
 75
     1
175
     1
 42
1.0
 92
        8
 66
     7
 43
1.0
 76
     1
 77
     6
 78
     2
 67
     7
 79
     5
170
     0
171
     0
290
     0
174
     0
 93
        1
 44
0.0
173
     0
291
     1
 45
0.0
  0
VISUALSTYLE
  5
143F
102
{ACAD_REACTORS
330
1430
102
}
102
{ACAD_XDICTIONARY
360
17EC
102
}
330
1430
100
AcDbVisualStyle
  2
Facepattern
 70
    15
 71
     2
 72
     2
 73
     0
 90
        0
 40
0.6
 41
30.0
 62
     5
 63
     7
421
 16777215
 74
     1
 91
        4
 64
     7
 65
   257
 75
     1
175
     1
 42
1.0
 92
        8
 66
     7
 43
1.0
 76
     1
 77
     6
 78
     2
 67
     7
 79
     5
170
     0
171
     0
290
     0
174
     0
 93
        1
 44
0.0
173
     0
291
     1
 45
0.0
  0
VISUALSTYLE
  5
1431
102
{ACAD_REACTORS
330
1430
102
}
102
{ACAD_XDICTIONARY
360
17EE
102
}
330
1430
100
AcDbVisualStyle
  2
Flat
 70
     0
 71
     2
 72
     1
 73
     1
 90
        2
 40
0.6
 41
30.0
 62
     5
 63
     7
421
 16777215
 74
     0
 91
        0
 64
     7
 65
   257
 75
     1
175
     1
 42
1.0
 92
        8
 66
     7
 43
1.0
 76
     1
 77
     6
 78
     2
 67
     7
 79
     5
170
     0
171
     0
290
     0
174
     0
 93
       13
 44
0.0
173
     0
291
     1
 45
0.0
  0
VISUALSTYLE
  5
1432
102
{ACAD_REACTORS
330
1430
102
}
102
{ACAD_XDICTIONARY
360
17F0
102
}
330
1430
100
AcDbVisualStyle
  2
FlatWithEdges
 70
     1
 71
     2
 72
     1
 73
     1
 90
        2
 40
0.6
 41
30.0
 62
     5
 63
     7
421
 16777215
 74
     1
 91
        0
 64
     7
 65
   257
 75
     1
175
     1
 42
1.0
 92
        0
 66
   257
 43
1.0
 76
     1
 77
     6
 78
     2
 67
     7
 79
     5
170
     0
171
     0
290
     0
174
     0
 93
       13
 44
0.0
173
     0
291
     1
 45
0.0
  0
VISUALSTYLE
  5
1433
102
{ACAD_REACTORS
330
1430
102
}
102
{ACAD_XDICTIONARY
360
17F2
102
}
330
1430
100
AcDbVisualStyle
  2
Gouraud
 70
     2
 71
     2
 72
     2
 73
     1
 90
        2
 40
0.6
 41
30.0
 62
     5
 63
     7
421
 16777215
 74
     0
 91
        0
 64
     7
 65
   257
 75
     1
175
     1
 42
1.0
 92
        0
 66
     7
 43
1.0
 76
     1
 77
     6
 78
     2
 67
     7
 79
     5
170
     0
171
     0
290
     0
174
     0
 93
       13
 44
0.0
173
     0
291
     1
 45
0.0
  0
VISUALSTYLE
  5
1434
102
{ACAD_REACTORS
330
1430
102
}
102
{ACAD_XDICTIONARY
360
17F4
102
}
330
1430
100
AcDbVisualStyle
  2
GouraudWithEdges
 70
     3
 71
     2
 72
     2
 73
     1
 90
        2
 40
0.6
 41
30.0
 62
     5
 63
     7
421
 16777215
 74
     1
 91
        0
 64
     7
 65
   257
 75
     1
175
     1
 42
1.0
 92
        0
 66
   257
 43
1.0
 76
     1
 77
     6
 78
     2
 67
     7
 79
     5
170
     0
171
     0
290
     0
174
     0
 93
       13
 44
0.0
173
     0
291
     1
 45
0.0
  0
VISUALSTYLE
  5
1437
102
{ACAD_REACTORS
330
1430
102
}
102
{ACAD_XDICTIONARY
360
17F6
102
}
330
1430
100
AcDbVisualStyle
  2
Hidden
 70
     6
 71
     1
 72
     2
 73
     2
 90
        0
 40
0.6
 41
30.0
 62
     5
 63
     7
421
 16777215
 74
     2
 91
        2
 64
     7
 65
   257
 75
     2
175
     1
 42
40.0
 92
        0
 66
   257
 43
1.0
 76
     1
 77
     6
 78
     2
 67
     7
 79
     3
170
     0
171
     0
290
     0
174
     0
 93
        1
 44
0.0
173
     0
291
     0
 45
0.0
  0
VISUALSTYLE
  5
1441
102
{ACAD_REACTORS
330
1430
102
}
102
{ACAD_XDICTIONARY
360
17F8
102
}
330
1430
100
AcDbVisualStyle
  2
JitterOff
 70
    20
 71
     2
 72
     2
 73
     0
 90
        0
 40
0.6
 41
30.0
 62
     5
 63
     7
421
 16777215
 74
     1
 91
        4
 64
     7
 65
   257
 75
     1
175
     1
 42
1.0
 92
       10
 66
     7
 43
1.0
 76
     1
 77
     6
 78
     2
 67
     7
 79
     5
170
     0
171
     0
290
     0
174
     0
 93
        1
 44
0.0
173
     0
291
     1
 45
0.0
  0
VISUALSTYLE
  5
143E
102
{ACAD_REACTORS
330
1430
102
}
102
{ACAD_XDICTIONARY
360
17FA
102
}
330
1430
100
AcDbVisualStyle
  2
Linepattern
 70
    14
 71
     2
 72
     2
 73
     0
 90
        0
 40
0.6
 41
30.0
 62
     5
 63
     7
421
 16777215
 74
     1
 91
        4
 64
     7
 65
   257
 75
     7
175
     7
 42
1.0
 92
        8
 66
     7
 43
1.0
 76
     1
 77
     6
 78
     2
 67
     7
 79
     5
170
     0
171
     0
290
     0
174
     0
 93
        1
 44
0.0
173
     0
291
     1
 45
0.0
  0
VISUALSTYLE
  5
1442
102
{ACAD_REACTORS
330
1430
102
}
102
{ACAD_XDICTIONARY
360
17FC
102
}
330
1430
100
AcDbVisualStyle
  2
OverhangOff
 70
    21
 71
     2
 72
     2
 73
     0
 90
        0
 40
0.6
 41
30.0
 62
     5
 63
     7
421
 16777215
 74
     1
 91
        4
 64
     7
 65
   257
 75
     1
175
     1
 42
1.0
 92
        9
 66
     7
 43
1.0
 76
     1
 77
     6
 78
     2
 67
     7
 79
     5
170
     0
171
     0
290
     0
174
     0
 93
        1
 44
0.0
173
     0
291
     1
 45
0.0
  0
VISUALSTYLE
  5
1439
102
{ACAD_REACTORS
330
1430
102
}
102
{ACAD_XDICTIONARY
360
17FE
102
}
330
1430
100
AcDbVisualStyle
  2
Realistic
 70
     8
 71
     2
 72
     3
 73
     0
 90
        2
 40
0.6
 41
30.0
 62
     5
 63
     7
421
 16777215
 74
     0
 91
        0
 64
     7
 65
   257
 75
     1
175
     1
 42
1.0
 92
        8
 66
   257
 43
1.0
 76
     1
 77
     6
 78
     2
 67
     7
 79
     3
170
     0
171
     0
290
     0
174
     0
 93
       13
 44
0.0
173
     0
291
     0
 45
0.0
  0
VISUALSTYLE
  5
1448
102
{ACAD_REACTORS
330
1430
102
}
102
{ACAD_XDICTIONARY
360
1800
102
}
330
1430
100
AcDbVisualStyle
  2
Shaded
 70
    27
 71
     2
 72
     2
 73
     1
 90
        2
 40
0.6
 41
30.0
 62
     5
 63
     7
421
 16777215
 74
     0
 91
        4
 64
     7
 65
   257
 75
     1
175
     1
 42
1.0
 92
        8
 66
   257
 43
1.0
 76
     1
 77
     6
 78
     2
 67
     8
425
  7895160
 79
     3
170
     0
171
     0
290
     0
174
     0
 93
        5
 44
0.0
173
     0
291
     0
 45
0.0
  0
VISUALSTYLE
  5
1447
102
{ACAD_REACTORS
330
1430
102
}
102
{ACAD_XDICTIONARY
360
1802
102
}
330
1430
100
AcDbVisualStyle
  2
Shaded with edges
 70
    26
 71
     2
 72
     2
 73
     1
 90
        2
 40
0.6
 41
30.0
 62
     5
 63
     7
421
 16777215
 74
     1
 91
       10
 64
     7
 65
   257
 75
     2
175
     1
 42
1.0
 92
        8
 66
   257
 43
1.0
 76
     1
 77
     6
 78
     2
 67
     7
 79
     3
170
     0
171
     0
290
     0
174
     0
 93
        5
 44
0.0
173
     0
291
     0
 45
0.0
  0
VISUALSTYLE
  5
1444
102
{ACAD_REACTORS
330
1430
102
}
102
{ACAD_XDICTIONARY
360
1804
102
}
330
1430
100
AcDbVisualStyle
  2
Shades of Gray
 70
    23
 71
     2
 72
     2
 73
     3
 90
        0
 40
0.6
 41
30.0
 62
     5
 63
     7
421
 16777215
 74
     2
 91
        2
 64
     7
 65
     7
 75
     1
175
     1
 42
40.0
 92
        8
 66
     7
 43
1.0
 76
     1
 77
     6
 78
     2
 67
     7
 79
     3
170
     0
171
     0
290
     0
174
     0
 93
        1
 44
0.0
173
     0
291
     0
 45
0.0
  0
VISUALSTYLE
  5
1445
102
{ACAD_REACTORS
330
1430
102
}
102
{ACAD_XDICTIONARY
360
1806
102
}
330
1430
100
AcDbVisualStyle
  2
Sketchy
 70
    24
 71
     1
 72
     2
 73
     2
 90
        0
 40
0.6
 41
30.0
 62
     5
 63
     7
421
 16777215
 74
     2
 91
        2
 64
     7
 65
     7
 75
     1
175
     1
 42
40.0
 92
       11
 66
     7
 43
1.0
 76
     1
 77
     6
 78
     2
 67
     7
 79
     6
170
     0
171
     0
290
     0
174
     0
 93
        1
 44
0.0
173
     0
291
     0
 45
0.0
  0
VISUALSTYLE
  5
143D
102
{ACAD_REACTORS
330
1430
102
}
102
{ACAD_XDICTIONARY
360
1808
102
}
330
1430
100
AcDbVisualStyle
  2
Thicken
 70
    13
 71
     2
 72
     2
 73
     0
 90
        0
 40
0.6
 41
30.0
 62
     5
 63
     7
421
 16777215
 74
     1
 91
        4
 64
     7
 65
   257
 75
     1
175
     1
 42
1.0
 92
       12
 66
     7
 43
1.0
 76
     1
 77
     6
 78
     2
 67
     7
 79
     5
170
     0
171
     0
290
     0
174
     0
 93
        1
 44
0.0
173
     0
291
     1
 45
0.0
  0
VISUALSTYLE
  5
1436
102
{ACAD_REACTORS
330
1430
102
}
102
{ACAD_XDICTIONARY
360
180A
102
}
330
1430
100
AcDbVisualStyle
  2
Wireframe
 70
     5
 71
     0
 72
     2
 73
     0
 90
        0
 40
0.6
 41
30.0
 62
     5
 63
     7
421
 16777215
 74
     1
 91
        4
 64
     7
 65
   257
 75
     1
175
     1
 42
1.0
 92
        0
 66
   257
 43
1.0
 76
     1
 77
     6
 78
     2
 67
     7
 79
     3
170
     0
171
     0
290
     0
174
     0
 93
        1
 44
0.0
173
     0
291
     0
 45
0.0
  0
VISUALSTYLE
  5
1446
102
{ACAD_REACTORS
330
1430
102
}
102
{ACAD_XDICTIONARY
360
180C
102
}
330
1430
100
AcDbVisualStyle
  2
X-Ray
 70
    25
 71
     2
 72
     2
 73
     1
 90
        1
 40
0.5
 41
30.0
 62
     5
 63
     7
421
 16777215
 74
     1
 91
        0
 64
     7
 65
   257
 75
     1
175
     1
 42
1.0
 92
        8
 66
     7
 43
1.0
 76
     1
 77
     6
 78
     2
 67
     7
 79
     3
170
     0
171
     0
290
     0
174
     0
 93
       13
 44
0.0
173
     0
291
     0
 45
0.0
  0
DICTIONARYVAR
  5
17CE
102
{ACAD_REACTORS
330
19E
102
}
330
19E
100
DictionaryVariables
280
   100
  1
Standard
  0
DICTIONARYVAR
  5
17CD
102
{ACAD_REACTORS
330
19E
102
}
330
19E
100
DictionaryVariables
280
    92
  1
Standard
  0
DICTIONARYVAR
  5
19F
102
{ACAD_REACTORS
330
19E
102
}
330
19E
100
DictionaryVariables
280
     0
  1
1
  0
DICTIONARYVAR
  5
1A0
102
{ACAD_REACTORS
330
19E
102
}
330
19E
100
DictionaryVariables
280
     0
  1

  0
DICTIONARYVAR
  5
17CF
102
{ACAD_REACTORS
330
19E
102
}
330
19E
100
DictionaryVariables
280
   -92
  1
0
  0
XRECORD
  5
2BC
102
{ACAD_REACTORS
330
2BA
102
}
330
2BA
100
AcDbXrecord
280
     1
  0
XRECORD
  5
178F
102
{ACAD_REACTORS
330
178C
102
}
330
178C
100
AcDbXrecord
280
     1
301
178E
310
47420000000000000000000000000000000000000000000000000000000000000000000000000000000000000000000000000000000000000000000000000000000000000000000000000000
  0
DICTIONARY
  5
178D
102
{ACAD_REACTORS
330
178C
102
}
330
178C
100
AcDbDictionary
281
     1
  3
GB
350
178E
  0
DICTIONARY
  5
17DA
330
144C
100
AcDbDictionary
280
     1
281
     1
  3
ACAD_XREC_ROUNDTRIP
360
17DB
  0
DICTIONARY
  5
17DC
330
144A
100
AcDbDictionary
280
     1
281
     1
  3
ACAD_ROUNDTRIP_2008_TABLESTYLE_CELLSTYLEMAP
360
17DD
  0
DICTIONARY
  5
17DE
330
1435
100
AcDbDictionary
280
     1
281
     1
  3
ACAD_XREC_ROUNDTRIP
360
17DF
  0
DICTIONARY
  5
17E0
330
1438
100
AcDbDictionary
280
     1
281
     1
  3
ACAD_XREC_ROUNDTRIP
360
17E1
  0
DICTIONARY
  5
17E2
330
143C
100
AcDbDictionary
280
     1
281
     1
  3
ACAD_XREC_ROUNDTRIP
360
17E3
  0
DICTIONARY
  5
17E4
330
1440
100
AcDbDictionary
280
     1
281
     1
  3
ACAD_XREC_ROUNDTRIP
360
17E5
  0
DICTIONARY
  5
17E6
330
143A
100
AcDbDictionary
280
     1
281
     1
  3
ACAD_XREC_ROUNDTRIP
360
17E7
  0
DICTIONARY
  5
17E8
330
143B
100
AcDbDictionary
280
     1
281
     1
  3
ACAD_XREC_ROUNDTRIP
360
17E9
  0
DICTIONARY
  5
17EA
330
1443
100
AcDbDictionary
280
     1
281
     1
  3
ACAD_XREC_ROUNDTRIP
360
17EB
  0
DICTIONARY
  5
17EC
330
143F
100
AcDbDictionary
280
     1
281
     1
  3
ACAD_XREC_ROUNDTRIP
360
17ED
  0
DICTIONARY
  5
17EE
330
1431
100
AcDbDictionary
280
     1
281
     1
  3
ACAD_XREC_ROUNDTRIP
360
17EF
  0
DICTIONARY
  5
17F0
330
1432
100
AcDbDictionary
280
     1
281
     1
  3
ACAD_XREC_ROUNDTRIP
360
17F1
  0
DICTIONARY
  5
17F2
330
1433
100
AcDbDictionary
280
     1
281
     1
  3
ACAD_XREC_ROUNDTRIP
360
17F3
  0
DICTIONARY
  5
17F4
330
1434
100
AcDbDictionary
280
     1
281
     1
  3
ACAD_XREC_ROUNDTRIP
360
17F5
  0
DICTIONARY
  5
17F6
330
1437
100
AcDbDictionary
280
     1
281
     1
  3
ACAD_XREC_ROUNDTRIP
360
17F7
  0
DICTIONARY
  5
17F8
330
1441
100
AcDbDictionary
280
     1
281
     1
  3
ACAD_XREC_ROUNDTRIP
360
17F9
  0
DICTIONARY
  5
17FA
330
143E
100
AcDbDictionary
280
     1
281
     1
  3
ACAD_XREC_ROUNDTRIP
360
17FB
  0
DICTIONARY
  5
17FC
330
1442
100
AcDbDictionary
280
     1
281
     1
  3
ACAD_XREC_ROUNDTRIP
360
17FD
  0
DICTIONARY
  5
17FE
330
1439
100
AcDbDictionary
280
     1
281
     1
  3
ACAD_XREC_ROUNDTRIP
360
17FF
  0
DICTIONARY
  5
1800
330
1448
100
AcDbDictionary
280
     1
281
     1
  3
ACAD_XREC_ROUNDTRIP
360
1801
  0
DICTIONARY
  5
1802
330
1447
100
AcDbDictionary
280
     1
281
     1
  3
ACAD_XREC_ROUNDTRIP
360
1803
  0
DICTIONARY
  5
1804
330
1444
100
AcDbDictionary
280
     1
281
     1
  3
ACAD_XREC_ROUNDTRIP
360
1805
  0
DICTIONARY
  5
1806
330
1445
100
AcDbDictionary
280
     1
281
     1
  3
ACAD_XREC_ROUNDTRIP
360
1807
  0
DICTIONARY
  5
1808
330
143D
100
AcDbDictionary
280
     1
281
     1
  3
ACAD_XREC_ROUNDTRIP
360
1809
  0
DICTIONARY
  5
180A
330
1436
100
AcDbDictionary
280
     1
281
     1
  3
ACAD_XREC_ROUNDTRIP
360
180B
  0
DICTIONARY
  5
180C
330
1446
100
AcDbDictionary
280
     1
281
     1
  3
ACAD_XREC_ROUNDTRIP
360
180D
  0
ACAD_PROXY_OBJECT
  5
178E
102
{ACAD_REACTORS
330
178D
102
}
330
178D
100
AcDbProxyObject
 90
      499
 91
      510
 95
   524319
 70
     0
 96
     6360
311
902470042004091C01080290247004200AAAAAAAAAA42968015C0134010C0130017C010C016401040138010A5A0057004D0043004C005F0042004C005500450043568015C0134010C0130017C0110012401340150011401600150010D5A0057004D0043004C005F004200590042004C004F0043004B0045D68015C0134010C
311
0130017C0110012401340150011401600150017C0158011401480164013001040148011C0114010C5A0057004D0043004C005F00590045004C004C004F00570044D68015C0134010C0130017C0110012401340150011401600150017C014C0134010401300130010B5A0057004D0043004C005F0047005200450045004E004
311
2D68015C0134010C0130017C015001140160015000C8010B5A0057004D0043004C005F005400450058005400330042968015C0134010C0130017C0150011401600150010B5A0057004D0043004C005F0042004C00410043004B0045168015C0134010C0130017C0110012401340150011401600150017C0134011401100124
311
01540134010B5A0057004D0043004C005F005700480049005400450042D68015C0134010C0130017C015001140160015000C4010A5A0057004D0043004C005F00440049004D00360042968015C0134010C0130017C01100124013400D4010A5A0057004D0043004C005F00440049004D00340042968015C0134010C0130017
311
C01100124013400CC010A5A0057004D0043004C005F00440049004D00320042968015C0134010C0130017C01100124013400C401095A0057004D0043004C005F00440049004D0042D68015C0134010C0130017C015001140160015000D8010E5A0057004D0043004C005F00440049004D004100520052004F00570042D6801
311
5C0134010C0130017C015001140160015000D001135A0057004D0043004C005F00440049004D0054004500580054005F004C00410052004700450042568015C0134010C0130017C014801140110010B5A0057004D0043004C005F005400450058005400350043D68015C0134010C0130017C01100124013401300114010401
311
1001140148010D5A0057004D0043004C005F00420059004C004100590045005200
 93
     2537
310
406406FFFFFFFFFFFFFF023FFFCFFFF3FFFCFFFF3FFFCFFFF3FFFCFFFF3FFFFFFFCFFFFFFFF3FFFFFFFCFFFFFFFF3FFFFFFFCFFFFFFFF3FFFFFFFCFFFFFFFF405029380000000000000C404FFFF3FFFCFFFF3FFFE592AA555000000000000031000000000000000C40000000000000031000000000000000C4000000000000
310
0031000000000000000C403FFFCFFFF3FFFCFFFF3FFFCFFFF3FFFCFFFF3FFFCFFFF3FFFCFFFFFFFFFFFFFFFFFFFF3FFFCFFFF3FFFCFFFF3FFFCFFFF3FFFCFFFF3FFFFFFFCFFFFFFFF3FFFFFFFCFFFFFFFF3FFFFFFFCFFFFFFFF3FFFFFFFCFFFFFFFFAAAA901000000000000011000000000000000C40000000000000051000
310
000000000001C40000000000000011000000000000000C40000000000000051000000000000001C40606000202A368F214827681681FA0285683FFFFFFA23F80
340
0
340
0
340
0
340
0
340
0
340
0
340
0
340
0
340
0
340
0
340
0
340
0
340
0
340
0
340
0
340
0
340
0
340
0
340
0
340
0
340
0
340
0
340
0
340
0
340
0
360
1790
360
17A2
360
17A9
360
17AA
360
17B3
360
17B4
360
17B5
360
17B6
360
17B7
360
17B8
360
17B9
360
17BA
360
17BB
360
17BE
360
17BF
360
17C0
360
17C1
360
17C2
360
17C4
360
17C5
360
17C6
360
17C7
360
17C8
360
17C9
360
17CA
360
17CB
360
17CC
 94
        0
  0
XRECORD
  5
17DB
102
{ACAD_REACTORS
330
17DA
102
}
330
17DA
100
AcDbXrecord
280
     1
102
ACAD_ROUNDTRIP_2010_MLEADER_STYLE
  0
CELLSTYLEMAP
  5
17DD
102
{ACAD_REACTORS
330
17DC
102
}
330
17DC
100
AcDbCellStyleMap
 90
        3
300
CELLSTYLE
  1
TABLEFORMAT_BEGIN
 90
        5
170
     1
 91
        0
 92
    32768
 62
   257
 93
        1
300
CONTENTFORMAT
  1
CONTENTFORMAT_BEGIN
 90
        0
 91
        0
 92
        4
 93
        0
300

 40
0.0
140
1.0
 94
        5
 62
     7
340
F
144
6.0
309
CONTENTFORMAT_END
171
     0
 94
        6
 95
        1
302
GRIDFORMAT
  1
GRIDFORMAT_BEGIN
 90
        0
 91
        1
 62
     0
 92
       -2
340
0
 93
        0
 40
0.045
309
GRIDFORMAT_END
 95
        2
302
GRIDFORMAT
  1
GRIDFORMAT_BEGIN
 90
        0
 91
        1
 62
     0
 92
       -2
340
0
 93
        0
 40
0.045
309
GRIDFORMAT_END
 95
        4
302
GRIDFORMAT
  1
GRIDFORMAT_BEGIN
 90
        0
 91
        1
 62
     0
 92
       -2
340
0
 93
        0
 40
0.045
309
GRIDFORMAT_END
 95
        8
302
GRIDFORMAT
  1
GRIDFORMAT_BEGIN
 90
        0
 91
        1
 62
     0
 92
       -2
340
0
 93
        0
 40
0.045
309
GRIDFORMAT_END
 95
       16
302
GRIDFORMAT
  1
GRIDFORMAT_BEGIN
 90
        0
 91
        1
 62
     0
 92
       -2
340
0
 93
        0
 40
0.045
309
GRIDFORMAT_END
 95
       32
302
GRIDFORMAT
  1
GRIDFORMAT_BEGIN
 90
        0
 91
        1
 62
     0
 92
       -2
340
0
 93
        0
 40
0.045
309
GRIDFORMAT_END
309
TABLEFORMAT_END
  1
CELLSTYLE_BEGIN
 90
        1
 91
        1
300
_TITLE
309
CELLSTYLE_END
300
CELLSTYLE
  1
TABLEFORMAT_BEGIN
 90
        5
170
     1
 91
        0
 92
        0
 62
   257
 93
        1
300
CONTENTFORMAT
  1
CONTENTFORMAT_BEGIN
 90
        0
 91
        0
 92
        4
 93
        0
300

 40
0.0
140
1.0
 94
        5
 62
     7
340
F
144
4.5
309
CONTENTFORMAT_END
171
     0
 94
        6
 95
        1
302
GRIDFORMAT
  1
GRIDFORMAT_BEGIN
 90
        0
 91
        1
 62
     0
 92
       -2
340
0
 93
        0
 40
0.045
309
GRIDFORMAT_END
 95
        2
302
GRIDFORMAT
  1
GRIDFORMAT_BEGIN
 90
        0
 91
        1
 62
     0
 92
       -2
340
0
 93
        0
 40
0.045
309
GRIDFORMAT_END
 95
        4
302
GRIDFORMAT
  1
GRIDFORMAT_BEGIN
 90
        0
 91
        1
 62
     0
 92
       -2
340
0
 93
        0
 40
0.045
309
GRIDFORMAT_END
 95
        8
302
GRIDFORMAT
  1
GRIDFORMAT_BEGIN
 90
        0
 91
        1
 62
     0
 92
       -2
340
0
 93
        0
 40
0.045
309
GRIDFORMAT_END
 95
       16
302
GRIDFORMAT
  1
GRIDFORMAT_BEGIN
 90
        0
 91
        1
 62
     0
 92
       -2
340
0
 93
        0
 40
0.045
309
GRIDFORMAT_END
 95
       32
302
GRIDFORMAT
  1
GRIDFORMAT_BEGIN
 90
        0
 91
        1
 62
     0
 92
       -2
340
0
 93
        0
 40
0.045
309
GRIDFORMAT_END
309
TABLEFORMAT_END
  1
CELLSTYLE_BEGIN
 90
        2
 91
        1
300
_HEADER
309
CELLSTYLE_END
300
CELLSTYLE
  1
TABLEFORMAT_BEGIN
 90
        5
170
     1
 91
        0
 92
        0
 62
   257
 93
        1
300
CONTENTFORMAT
  1
CONTENTFORMAT_BEGIN
 90
        0
 91
        0
 92
        4
 93
        0
300

 40
0.0
140
1.0
 94
        2
 62
     7
340
F
144
4.5
309
CONTENTFORMAT_END
171
     0
 94
        6
 95
        1
302
GRIDFORMAT
  1
GRIDFORMAT_BEGIN
 90
        0
 91
        1
 62
     0
 92
       -2
340
0
 93
        0
 40
0.045
309
GRIDFORMAT_END
 95
        2
302
GRIDFORMAT
  1
GRIDFORMAT_BEGIN
 90
        0
 91
        1
 62
     0
 92
       -2
340
0
 93
        0
 40
0.045
309
GRIDFORMAT_END
 95
        4
302
GRIDFORMAT
  1
GRIDFORMAT_BEGIN
 90
        0
 91
        1
 62
     0
 92
       -2
340
0
 93
        0
 40
0.045
309
GRIDFORMAT_END
 95
        8
302
GRIDFORMAT
  1
GRIDFORMAT_BEGIN
 90
        0
 91
        1
 62
     0
 92
       -2
340
0
 93
        0
 40
0.045
309
GRIDFORMAT_END
 95
       16
302
GRIDFORMAT
  1
GRIDFORMAT_BEGIN
 90
        0
 91
        1
 62
     0
 92
       -2
340
0
 93
        0
 40
0.045
309
GRIDFORMAT_END
 95
       32
302
GRIDFORMAT
  1
GRIDFORMAT_BEGIN
 90
        0
 91
        1
 62
     0
 92
       -2
340
0
 93
        0
 40
0.045
309
GRIDFORMAT_END
309
TABLEFORMAT_END
  1
CELLSTYLE_BEGIN
 90
        3
 91
        2
300
_DATA
309
CELLSTYLE_END
  0
XRECORD
  5
17DF
102
{ACAD_REACTORS
330
17DE
102
}
330
17DE
100
AcDbXrecord
280
     1
102
RTVSPropertyOp0
 70
     1
102
RTVSPropertyOp1
 70
     1
102
RTVSPropertyOp2
 70
     1
102
RTVSPropertyOp3
 70
     1
102
RTVSPropertyOp4
 70
     1
102
RTVSPropertyOp5
 70
     1
102
RTVSPropertyOp6
 70
     1
102
RTVSPropertyOp7
 70
     1
102
RTVSPropertyOp8
 70
     1
102
RTVSPropertyOp9
 70
     1
102
RTVSPropertyOp10
 70
     1
102
RTVSPropertyOp11
 70
     1
102
RTVSPropertyOp12
 70
     1
102
RTVSPropertyOp13
 70
     1
102
RTVSPropertyOp14
 70
     1
102
RTVSPropertyOp15
 70
     1
102
RTVSPropertyOp16
 70
     1
102
RTVSPropertyOp17
 70
     1
102
RTVSPropertyOp18
 70
     1
102
RTVSPropertyOp19
 70
     1
102
RTVSPropertyOp20
 70
     1
102
RTVSPropertyOp21
 70
     1
102
RTVSPropertyOp22
 70
     1
102
RTVSPropertyOp23
 70
     1
102
RTVSPropertyOp24
 70
     1
102
RTVSPropertyOp25
 70
     1
102
RTVSPropertyOp26
 70
     1
102
RTVSPropertyOp27
 70
     1
102
RTVSPropertyOp28
 70
     1
102
RTVSPropertyOp29
 70
     1
102
RTVSPropertyOp30
 70
     1
102
RTVSPropertyOp31
 70
     1
102
RTVSPropertyOp32
 70
     1
102
RTVSPropertyOp33
 70
     1
102
RTVSPropertyOp34
 70
     1
102
RTVSPropertyOp35
 70
     1
102
RTVSPropertyOp36
 70
     1
102
RTVSPropertyOp37
 70
     1
102
RTVSPropertyOp38
 70
     1
102
RTVSPropertyOp39
 70
     1
102
RTVSPropertyOp40
 70
     1
102
RTVSPropertyOp41
 70
     1
102
RTVSPropertyOp42
 70
     1
102
RTVSPropertyOp43
 70
     1
102
RTVSPropertyOp44
 70
     1
102
RTVSPropertyOp45
 70
     1
102
RTVSPropertyOp46
 70
     1
102
RTVSPropertyOp47
 70
     1
102
RTVSPropertyOp48
 70
     1
102
RTVSPropertyOp49
 70
     1
102
RTVSPropertyOp50
 70
     1
102
RTVSPropertyOp51
 70
     0
102
RTVSPropertyOp52
 70
     0
102
RTVSPropertyOp53
 70
     1
102
RTVSPropertyOp54
 70
     1
102
RTVSPropertyOp55
 70
     1
102
RTVSPropertyOp56
 70
     1
102
RTVSPropertyOp57
 70
     1
102
RTVSPost2010Prop28
280
     1
102
RTVSPost2010PropOp28
 70
     1
102
RTVSPost2010Prop29
280
     1
102
RTVSPost2010PropOp29
 70
     1
102
RTVSPost2010Prop30
280
     0
102
RTVSPost2010PropOp30
 70
     1
102
RTVSPost2010Prop31
280
     0
102
RTVSPost2010PropOp31
 70
     1
102
RTVSPost2010Prop32
280
     0
102
RTVSPost2010PropOp32
 70
     1
102
RTVSPost2010Prop33
280
     0
102
RTVSPost2010PropOp33
 70
     1
102
RTVSPost2010Prop34
280
     0
102
RTVSPost2010PropOp34
 70
     1
102
RTVSPost2010Prop35
280
     0
102
RTVSPost2010PropOp35
 70
     1
102
RTVSPost2010Prop36
280
     0
102
RTVSPost2010PropOp36
 70
     1
102
RTVSPost2010Prop37
 90
       50
102
RTVSPost2010PropOp37
 70
     1
102
RTVSPost2010Prop38
140
0.0
102
RTVSPost2010PropOp38
 70
     1
102
RTVSPost2010Prop39
140
1.0
102
RTVSPost2010PropOp39
 70
     1
102
RTVSPost2010Prop40
 90
        0
102
RTVSPost2010PropOp40
 70
     1
102
RTVSPost2010Prop41ColorIndex
 90
       18
102
RTVSPost2010Prop41ColorRGB
 90
        0
102
RTVSPost2010PropOp41
 70
     1
102
RTVSPost2010Prop42
 90
       50
102
RTVSPost2010PropOp42
 70
     1
102
RTVSPost2010Prop43
 90
        3
102
RTVSPost2010PropOp43
 70
     1
102
RTVSPost2010Prop44ColorIndex
 90
        5
102
RTVSPost2010Prop44ColorRGB
 90
      255
102
RTVSPost2010PropOp44
 70
     1
102
RTVSPost2010Prop45
280
     0
102
RTVSPost2010PropOp45
 70
     1
102
RTVSPost2010Prop46
 90
       50
102
RTVSPost2010PropOp46
 70
     1
102
RTVSPost2010Prop47
 90
       50
102
RTVSPost2010PropOp47
 70
     1
102
RTVSPost2010Prop48
 90
       50
102
RTVSPost2010PropOp48
 70
     1
102
RTVSPost2010Prop49
280
     0
102
RTVSPost2010PropOp49
 70
     1
102
RTVSPost2010Prop50
 90
       50
102
RTVSPost2010PropOp50
 70
     1
102
RTVSPost2010Prop51ColorIndex
 90
      256
102
RTVSPost2010Prop51ColorRGB
 90
-16777216
102
RTVSPost2010PropOp51
 70
     0
102
RTVSPost2010Prop52
140
1.0
102
RTVSPost2010PropOp52
 70
     0
102
RTVSPost2010Prop53
 90
        2
102
RTVSPost2010PropOp53
 70
     1
102
RTVSPost2010Prop54
  1
strokes_ogs.tif
102
RTVSPost2010PropOp54
 70
     1
102
RTVSPost2010Prop55
280
     0
102
RTVSPost2010PropOp55
 70
     1
102
RTVSPost2010Prop56
140
1.0
102
RTVSPost2010PropOp56
 70
     1
102
RTVSPost2010Prop57
140
1.0
102
RTVSPost2010PropOp57
 70
     1
  0
XRECORD
  5
17E1
102
{ACAD_REACTORS
330
17E0
102
}
330
17E0
100
AcDbXrecord
280
     1
102
RTVSPropertyOp0
 70
     1
102
RTVSPropertyOp1
 70
     1
102
RTVSPropertyOp2
 70
     1
102
RTVSPropertyOp3
 70
     1
102
RTVSPropertyOp4
 70
     1
102
RTVSPropertyOp5
 70
     1
102
RTVSPropertyOp6
 70
     1
102
RTVSPropertyOp7
 70
     1
102
RTVSPropertyOp8
 70
     1
102
RTVSPropertyOp9
 70
     1
102
RTVSPropertyOp10
 70
     1
102
RTVSPropertyOp11
 70
     1
102
RTVSPropertyOp12
 70
     1
102
RTVSPropertyOp13
 70
     1
102
RTVSPropertyOp14
 70
     1
102
RTVSPropertyOp15
 70
     1
102
RTVSPropertyOp16
 70
     1
102
RTVSPropertyOp17
 70
     1
102
RTVSPropertyOp18
 70
     1
102
RTVSPropertyOp19
 70
     1
102
RTVSPropertyOp20
 70
     1
102
RTVSPropertyOp21
 70
     1
102
RTVSPropertyOp22
 70
     1
102
RTVSPropertyOp23
 70
     1
102
RTVSPropertyOp24
 70
     1
102
RTVSPropertyOp25
 70
     1
102
RTVSPropertyOp26
 70
     1
102
RTVSPropertyOp27
 70
     1
102
RTVSPropertyOp28
 70
     1
102
RTVSPropertyOp29
 70
     1
102
RTVSPropertyOp30
 70
     1
102
RTVSPropertyOp31
 70
     1
102
RTVSPropertyOp32
 70
     1
102
RTVSPropertyOp33
 70
     1
102
RTVSPropertyOp34
 70
     1
102
RTVSPropertyOp35
 70
     1
102
RTVSPropertyOp36
 70
     1
102
RTVSPropertyOp37
 70
     1
102
RTVSPropertyOp38
 70
     1
102
RTVSPropertyOp39
 70
     1
102
RTVSPropertyOp40
 70
     1
102
RTVSPropertyOp41
 70
     1
102
RTVSPropertyOp42
 70
     1
102
RTVSPropertyOp43
 70
     1
102
RTVSPropertyOp44
 70
     1
102
RTVSPropertyOp45
 70
     1
102
RTVSPropertyOp46
 70
     1
102
RTVSPropertyOp47
 70
     1
102
RTVSPropertyOp48
 70
     1
102
RTVSPropertyOp49
 70
     1
102
RTVSPropertyOp50
 70
     1
102
RTVSPropertyOp51
 70
     0
102
RTVSPropertyOp52
 70
     0
102
RTVSPropertyOp53
 70
     1
102
RTVSPropertyOp54
 70
     1
102
RTVSPropertyOp55
 70
     1
102
RTVSPropertyOp56
 70
     1
102
RTVSPropertyOp57
 70
     1
102
RTVSPost2010Prop28
280
     0
102
RTVSPost2010PropOp28
 70
     1
102
RTVSPost2010Prop29
280
     1
102
RTVSPost2010PropOp29
 70
     1
102
RTVSPost2010Prop30
280
     1
102
RTVSPost2010PropOp30
 70
     1
102
RTVSPost2010Prop31
280
     0
102
RTVSPost2010PropOp31
 70
     1
102
RTVSPost2010Prop32
280
     0
102
RTVSPost2010PropOp32
 70
     1
102
RTVSPost2010Prop33
280
     0
102
RTVSPost2010PropOp33
 70
     1
102
RTVSPost2010Prop34
280
     0
102
RTVSPost2010PropOp34
 70
     1
102
RTVSPost2010Prop35
280
     0
102
RTVSPost2010PropOp35
 70
     1
102
RTVSPost2010Prop36
280
     0
102
RTVSPost2010PropOp36
 70
     1
102
RTVSPost2010Prop37
 90
       50
102
RTVSPost2010PropOp37
 70
     1
102
RTVSPost2010Prop38
140
0.0
102
RTVSPost2010PropOp38
 70
     1
102
RTVSPost2010Prop39
140
1.0
102
RTVSPost2010PropOp39
 70
     1
102
RTVSPost2010Prop40
 90
        0
102
RTVSPost2010PropOp40
 70
     1
102
RTVSPost2010Prop41ColorIndex
 90
       18
102
RTVSPost2010Prop41ColorRGB
 90
        0
102
RTVSPost2010PropOp41
 70
     1
102
RTVSPost2010Prop42
 90
       50
102
RTVSPost2010PropOp42
 70
     1
102
RTVSPost2010Prop43
 90
        3
102
RTVSPost2010PropOp43
 70
     1
102
RTVSPost2010Prop44ColorIndex
 90
        5
102
RTVSPost2010Prop44ColorRGB
 90
      255
102
RTVSPost2010PropOp44
 70
     1
102
RTVSPost2010Prop45
280
     0
102
RTVSPost2010PropOp45
 70
     1
102
RTVSPost2010Prop46
 90
       50
102
RTVSPost2010PropOp46
 70
     1
102
RTVSPost2010Prop47
 90
       50
102
RTVSPost2010PropOp47
 70
     1
102
RTVSPost2010Prop48
 90
       50
102
RTVSPost2010PropOp48
 70
     1
102
RTVSPost2010Prop49
280
     0
102
RTVSPost2010PropOp49
 70
     1
102
RTVSPost2010Prop50
 90
       50
102
RTVSPost2010PropOp50
 70
     1
102
RTVSPost2010Prop51ColorIndex
 90
      256
102
RTVSPost2010Prop51ColorRGB
 90
-16777216
102
RTVSPost2010PropOp51
 70
     0
102
RTVSPost2010Prop52
140
1.0
102
RTVSPost2010PropOp52
 70
     0
102
RTVSPost2010Prop53
 90
        2
102
RTVSPost2010PropOp53
 70
     1
102
RTVSPost2010Prop54
  1
strokes_ogs.tif
102
RTVSPost2010PropOp54
 70
     1
102
RTVSPost2010Prop55
280
     0
102
RTVSPost2010PropOp55
 70
     1
102
RTVSPost2010Prop56
140
1.0
102
RTVSPost2010PropOp56
 70
     1
102
RTVSPost2010Prop57
140
1.0
102
RTVSPost2010PropOp57
 70
     1
  0
XRECORD
  5
17E3
102
{ACAD_REACTORS
330
17E2
102
}
330
17E2
100
AcDbXrecord
280
     1
102
RTVSPropertyOp0
 70
     1
102
RTVSPropertyOp1
 70
     1
102
RTVSPropertyOp2
 70
     1
102
RTVSPropertyOp3
 70
     1
102
RTVSPropertyOp4
 70
     1
102
RTVSPropertyOp5
 70
     1
102
RTVSPropertyOp6
 70
     1
102
RTVSPropertyOp7
 70
     1
102
RTVSPropertyOp8
 70
     1
102
RTVSPropertyOp9
 70
     1
102
RTVSPropertyOp10
 70
     1
102
RTVSPropertyOp11
 70
     1
102
RTVSPropertyOp12
 70
     1
102
RTVSPropertyOp13
 70
     1
102
RTVSPropertyOp14
 70
     1
102
RTVSPropertyOp15
 70
     1
102
RTVSPropertyOp16
 70
     1
102
RTVSPropertyOp17
 70
     1
102
RTVSPropertyOp18
 70
     1
102
RTVSPropertyOp19
 70
     1
102
RTVSPropertyOp20
 70
     1
102
RTVSPropertyOp21
 70
     1
102
RTVSPropertyOp22
 70
     1
102
RTVSPropertyOp23
 70
     1
102
RTVSPropertyOp24
 70
     1
102
RTVSPropertyOp25
 70
     1
102
RTVSPropertyOp26
 70
     1
102
RTVSPropertyOp27
 70
     1
102
RTVSPropertyOp28
 70
     1
102
RTVSPropertyOp29
 70
     1
102
RTVSPropertyOp30
 70
     1
102
RTVSPropertyOp31
 70
     1
102
RTVSPropertyOp32
 70
     1
102
RTVSPropertyOp33
 70
     1
102
RTVSPropertyOp34
 70
     1
102
RTVSPropertyOp35
 70
     1
102
RTVSPropertyOp36
 70
     1
102
RTVSPropertyOp37
 70
     1
102
RTVSPropertyOp38
 70
     1
102
RTVSPropertyOp39
 70
     1
102
RTVSPropertyOp40
 70
     1
102
RTVSPropertyOp41
 70
     1
102
RTVSPropertyOp42
 70
     1
102
RTVSPropertyOp43
 70
     1
102
RTVSPropertyOp44
 70
     1
102
RTVSPropertyOp45
 70
     1
102
RTVSPropertyOp46
 70
     1
102
RTVSPropertyOp47
 70
     1
102
RTVSPropertyOp48
 70
     1
102
RTVSPropertyOp49
 70
     1
102
RTVSPropertyOp50
 70
     1
102
RTVSPropertyOp51
 70
     0
102
RTVSPropertyOp52
 70
     0
102
RTVSPropertyOp53
 70
     1
102
RTVSPropertyOp54
 70
     1
102
RTVSPropertyOp55
 70
     1
102
RTVSPropertyOp56
 70
     1
102
RTVSPropertyOp57
 70
     1
102
RTVSPost2010Prop28
280
     0
102
RTVSPost2010PropOp28
 70
     1
102
RTVSPost2010Prop29
280
     1
102
RTVSPost2010PropOp29
 70
     1
102
RTVSPost2010Prop30
280
     1
102
RTVSPost2010PropOp30
 70
     1
102
RTVSPost2010Prop31
280
     0
102
RTVSPost2010PropOp31
 70
     1
102
RTVSPost2010Prop32
280
     0
102
RTVSPost2010PropOp32
 70
     1
102
RTVSPost2010Prop33
280
     0
102
RTVSPost2010PropOp33
 70
     1
102
RTVSPost2010Prop34
280
     0
102
RTVSPost2010PropOp34
 70
     1
102
RTVSPost2010Prop35
280
     0
102
RTVSPost2010PropOp35
 70
     1
102
RTVSPost2010Prop36
280
     0
102
RTVSPost2010PropOp36
 70
     1
102
RTVSPost2010Prop37
 90
       50
102
RTVSPost2010PropOp37
 70
     1
102
RTVSPost2010Prop38
140
0.0
102
RTVSPost2010PropOp38
 70
     1
102
RTVSPost2010Prop39
140
1.0
102
RTVSPost2010PropOp39
 70
     1
102
RTVSPost2010Prop40
 90
        0
102
RTVSPost2010PropOp40
 70
     1
102
RTVSPost2010Prop41ColorIndex
 90
       18
102
RTVSPost2010Prop41ColorRGB
 90
        0
102
RTVSPost2010PropOp41
 70
     1
102
RTVSPost2010Prop42
 90
       50
102
RTVSPost2010PropOp42
 70
     1
102
RTVSPost2010Prop43
 90
        3
102
RTVSPost2010PropOp43
 70
     1
102
RTVSPost2010Prop44ColorIndex
 90
        5
102
RTVSPost2010Prop44ColorRGB
 90
      255
102
RTVSPost2010PropOp44
 70
     1
102
RTVSPost2010Prop45
280
     0
102
RTVSPost2010PropOp45
 70
     1
102
RTVSPost2010Prop46
 90
       50
102
RTVSPost2010PropOp46
 70
     1
102
RTVSPost2010Prop47
 90
       50
102
RTVSPost2010PropOp47
 70
     1
102
RTVSPost2010Prop48
 90
       50
102
RTVSPost2010PropOp48
 70
     1
102
RTVSPost2010Prop49
280
     0
102
RTVSPost2010PropOp49
 70
     1
102
RTVSPost2010Prop50
 90
       50
102
RTVSPost2010PropOp50
 70
     1
102
RTVSPost2010Prop51ColorIndex
 90
      256
102
RTVSPost2010Prop51ColorRGB
 90
-16777216
102
RTVSPost2010PropOp51
 70
     0
102
RTVSPost2010Prop52
140
1.0
102
RTVSPost2010PropOp52
 70
     0
102
RTVSPost2010Prop53
 90
        2
102
RTVSPost2010PropOp53
 70
     1
102
RTVSPost2010Prop54
  1
strokes_ogs.tif
102
RTVSPost2010PropOp54
 70
     1
102
RTVSPost2010Prop55
280
     0
102
RTVSPost2010PropOp55
 70
     1
102
RTVSPost2010Prop56
140
1.0
102
RTVSPost2010PropOp56
 70
     1
102
RTVSPost2010Prop57
140
1.0
102
RTVSPost2010PropOp57
 70
     1
  0
XRECORD
  5
17E5
102
{ACAD_REACTORS
330
17E4
102
}
330
17E4
100
AcDbXrecord
280
     1
102
RTVSPropertyOp0
 70
     1
102
RTVSPropertyOp1
 70
     1
102
RTVSPropertyOp2
 70
     1
102
RTVSPropertyOp3
 70
     1
102
RTVSPropertyOp4
 70
     1
102
RTVSPropertyOp5
 70
     1
102
RTVSPropertyOp6
 70
     1
102
RTVSPropertyOp7
 70
     1
102
RTVSPropertyOp8
 70
     1
102
RTVSPropertyOp9
 70
     1
102
RTVSPropertyOp10
 70
     1
102
RTVSPropertyOp11
 70
     1
102
RTVSPropertyOp12
 70
     1
102
RTVSPropertyOp13
 70
     1
102
RTVSPropertyOp14
 70
     1
102
RTVSPropertyOp15
 70
     1
102
RTVSPropertyOp16
 70
     1
102
RTVSPropertyOp17
 70
     1
102
RTVSPropertyOp18
 70
     1
102
RTVSPropertyOp19
 70
     1
102
RTVSPropertyOp20
 70
     1
102
RTVSPropertyOp21
 70
     1
102
RTVSPropertyOp22
 70
     1
102
RTVSPropertyOp23
 70
     1
102
RTVSPropertyOp24
 70
     1
102
RTVSPropertyOp25
 70
     1
102
RTVSPropertyOp26
 70
     1
102
RTVSPropertyOp27
 70
     1
102
RTVSPropertyOp28
 70
     1
102
RTVSPropertyOp29
 70
     1
102
RTVSPropertyOp30
 70
     1
102
RTVSPropertyOp31
 70
     1
102
RTVSPropertyOp32
 70
     1
102
RTVSPropertyOp33
 70
     1
102
RTVSPropertyOp34
 70
     1
102
RTVSPropertyOp35
 70
     1
102
RTVSPropertyOp36
 70
     1
102
RTVSPropertyOp37
 70
     1
102
RTVSPropertyOp38
 70
     1
102
RTVSPropertyOp39
 70
     1
102
RTVSPropertyOp40
 70
     1
102
RTVSPropertyOp41
 70
     1
102
RTVSPropertyOp42
 70
     1
102
RTVSPropertyOp43
 70
     1
102
RTVSPropertyOp44
 70
     1
102
RTVSPropertyOp45
 70
     1
102
RTVSPropertyOp46
 70
     1
102
RTVSPropertyOp47
 70
     1
102
RTVSPropertyOp48
 70
     1
102
RTVSPropertyOp49
 70
     1
102
RTVSPropertyOp50
 70
     1
102
RTVSPropertyOp51
 70
     0
102
RTVSPropertyOp52
 70
     0
102
RTVSPropertyOp53
 70
     1
102
RTVSPropertyOp54
 70
     1
102
RTVSPropertyOp55
 70
     1
102
RTVSPropertyOp56
 70
     1
102
RTVSPropertyOp57
 70
     1
102
RTVSPost2010Prop28
280
     0
102
RTVSPost2010PropOp28
 70
     1
102
RTVSPost2010Prop29
280
     1
102
RTVSPost2010PropOp29
 70
     1
102
RTVSPost2010Prop30
280
     1
102
RTVSPost2010PropOp30
 70
     1
102
RTVSPost2010Prop31
280
     0
102
RTVSPost2010PropOp31
 70
     1
102
RTVSPost2010Prop32
280
     0
102
RTVSPost2010PropOp32
 70
     1
102
RTVSPost2010Prop33
280
     0
102
RTVSPost2010PropOp33
 70
     1
102
RTVSPost2010Prop34
280
     0
102
RTVSPost2010PropOp34
 70
     1
102
RTVSPost2010Prop35
280
     0
102
RTVSPost2010PropOp35
 70
     1
102
RTVSPost2010Prop36
280
     0
102
RTVSPost2010PropOp36
 70
     1
102
RTVSPost2010Prop37
 90
       50
102
RTVSPost2010PropOp37
 70
     1
102
RTVSPost2010Prop38
140
0.0
102
RTVSPost2010PropOp38
 70
     1
102
RTVSPost2010Prop39
140
1.0
102
RTVSPost2010PropOp39
 70
     1
102
RTVSPost2010Prop40
 90
        0
102
RTVSPost2010PropOp40
 70
     1
102
RTVSPost2010Prop41ColorIndex
 90
       18
102
RTVSPost2010Prop41ColorRGB
 90
        0
102
RTVSPost2010PropOp41
 70
     1
102
RTVSPost2010Prop42
 90
       50
102
RTVSPost2010PropOp42
 70
     1
102
RTVSPost2010Prop43
 90
        3
102
RTVSPost2010PropOp43
 70
     1
102
RTVSPost2010Prop44ColorIndex
 90
        5
102
RTVSPost2010Prop44ColorRGB
 90
      255
102
RTVSPost2010PropOp44
 70
     1
102
RTVSPost2010Prop45
280
     0
102
RTVSPost2010PropOp45
 70
     1
102
RTVSPost2010Prop46
 90
       50
102
RTVSPost2010PropOp46
 70
     1
102
RTVSPost2010Prop47
 90
       50
102
RTVSPost2010PropOp47
 70
     1
102
RTVSPost2010Prop48
 90
       50
102
RTVSPost2010PropOp48
 70
     1
102
RTVSPost2010Prop49
280
     0
102
RTVSPost2010PropOp49
 70
     1
102
RTVSPost2010Prop50
 90
       50
102
RTVSPost2010PropOp50
 70
     1
102
RTVSPost2010Prop51ColorIndex
 90
      256
102
RTVSPost2010Prop51ColorRGB
 90
-16777216
102
RTVSPost2010PropOp51
 70
     0
102
RTVSPost2010Prop52
140
1.0
102
RTVSPost2010PropOp52
 70
     0
102
RTVSPost2010Prop53
 90
        2
102
RTVSPost2010PropOp53
 70
     1
102
RTVSPost2010Prop54
  1
strokes_ogs.tif
102
RTVSPost2010PropOp54
 70
     1
102
RTVSPost2010Prop55
280
     0
102
RTVSPost2010PropOp55
 70
     1
102
RTVSPost2010Prop56
140
1.0
102
RTVSPost2010PropOp56
 70
     1
102
RTVSPost2010Prop57
140
1.0
102
RTVSPost2010PropOp57
 70
     1
  0
XRECORD
  5
17E7
102
{ACAD_REACTORS
330
17E6
102
}
330
17E6
100
AcDbXrecord
280
     1
102
RTVSPropertyOp0
 70
     1
102
RTVSPropertyOp1
 70
     1
102
RTVSPropertyOp2
 70
     1
102
RTVSPropertyOp3
 70
     1
102
RTVSPropertyOp4
 70
     1
102
RTVSPropertyOp5
 70
     1
102
RTVSPropertyOp6
 70
     1
102
RTVSPropertyOp7
 70
     1
102
RTVSPropertyOp8
 70
     1
102
RTVSPropertyOp9
 70
     1
102
RTVSPropertyOp10
 70
     1
102
RTVSPropertyOp11
 70
     1
102
RTVSPropertyOp12
 70
     1
102
RTVSPropertyOp13
 70
     1
102
RTVSPropertyOp14
 70
     1
102
RTVSPropertyOp15
 70
     1
102
RTVSPropertyOp16
 70
     1
102
RTVSPropertyOp17
 70
     1
102
RTVSPropertyOp18
 70
     1
102
RTVSPropertyOp19
 70
     1
102
RTVSPropertyOp20
 70
     1
102
RTVSPropertyOp21
 70
     1
102
RTVSPropertyOp22
 70
     1
102
RTVSPropertyOp23
 70
     1
102
RTVSPropertyOp24
 70
     1
102
RTVSPropertyOp25
 70
     1
102
RTVSPropertyOp26
 70
     1
102
RTVSPropertyOp27
 70
     1
102
RTVSPropertyOp28
 70
     1
102
RTVSPropertyOp29
 70
     1
102
RTVSPropertyOp30
 70
     1
102
RTVSPropertyOp31
 70
     1
102
RTVSPropertyOp32
 70
     1
102
RTVSPropertyOp33
 70
     1
102
RTVSPropertyOp34
 70
     1
102
RTVSPropertyOp35
 70
     1
102
RTVSPropertyOp36
 70
     1
102
RTVSPropertyOp37
 70
     1
102
RTVSPropertyOp38
 70
     1
102
RTVSPropertyOp39
 70
     1
102
RTVSPropertyOp40
 70
     1
102
RTVSPropertyOp41
 70
     1
102
RTVSPropertyOp42
 70
     1
102
RTVSPropertyOp43
 70
     1
102
RTVSPropertyOp44
 70
     1
102
RTVSPropertyOp45
 70
     1
102
RTVSPropertyOp46
 70
     1
102
RTVSPropertyOp47
 70
     1
102
RTVSPropertyOp48
 70
     1
102
RTVSPropertyOp49
 70
     1
102
RTVSPropertyOp50
 70
     1
102
RTVSPropertyOp51
 70
     0
102
RTVSPropertyOp52
 70
     0
102
RTVSPropertyOp53
 70
     1
102
RTVSPropertyOp54
 70
     1
102
RTVSPropertyOp55
 70
     1
102
RTVSPropertyOp56
 70
     1
102
RTVSPropertyOp57
 70
     1
102
RTVSPost2010Prop28
280
     0
102
RTVSPost2010PropOp28
 70
     1
102
RTVSPost2010Prop29
280
     1
102
RTVSPost2010PropOp29
 70
     1
102
RTVSPost2010Prop30
280
     1
102
RTVSPost2010PropOp30
 70
     1
102
RTVSPost2010Prop31
280
     0
102
RTVSPost2010PropOp31
 70
     1
102
RTVSPost2010Prop32
280
     0
102
RTVSPost2010PropOp32
 70
     1
102
RTVSPost2010Prop33
280
     0
102
RTVSPost2010PropOp33
 70
     1
102
RTVSPost2010Prop34
280
     0
102
RTVSPost2010PropOp34
 70
     1
102
RTVSPost2010Prop35
280
     0
102
RTVSPost2010PropOp35
 70
     1
102
RTVSPost2010Prop36
280
     0
102
RTVSPost2010PropOp36
 70
     1
102
RTVSPost2010Prop37
 90
       50
102
RTVSPost2010PropOp37
 70
     1
102
RTVSPost2010Prop38
140
0.0
102
RTVSPost2010PropOp38
 70
     1
102
RTVSPost2010Prop39
140
1.0
102
RTVSPost2010PropOp39
 70
     1
102
RTVSPost2010Prop40
 90
        0
102
RTVSPost2010PropOp40
 70
     1
102
RTVSPost2010Prop41ColorIndex
 90
       18
102
RTVSPost2010Prop41ColorRGB
 90
        0
102
RTVSPost2010PropOp41
 70
     1
102
RTVSPost2010Prop42
 90
       50
102
RTVSPost2010PropOp42
 70
     1
102
RTVSPost2010Prop43
 90
        3
102
RTVSPost2010PropOp43
 70
     1
102
RTVSPost2010Prop44ColorIndex
 90
        5
102
RTVSPost2010Prop44ColorRGB
 90
      255
102
RTVSPost2010PropOp44
 70
     1
102
RTVSPost2010Prop45
280
     0
102
RTVSPost2010PropOp45
 70
     1
102
RTVSPost2010Prop46
 90
       50
102
RTVSPost2010PropOp46
 70
     1
102
RTVSPost2010Prop47
 90
       50
102
RTVSPost2010PropOp47
 70
     1
102
RTVSPost2010Prop48
 90
       50
102
RTVSPost2010PropOp48
 70
     1
102
RTVSPost2010Prop49
280
     0
102
RTVSPost2010PropOp49
 70
     1
102
RTVSPost2010Prop50
 90
       50
102
RTVSPost2010PropOp50
 70
     1
102
RTVSPost2010Prop51ColorIndex
 90
      256
102
RTVSPost2010Prop51ColorRGB
 90
-16777216
102
RTVSPost2010PropOp51
 70
     0
102
RTVSPost2010Prop52
140
1.0
102
RTVSPost2010PropOp52
 70
     0
102
RTVSPost2010Prop53
 90
        2
102
RTVSPost2010PropOp53
 70
     1
102
RTVSPost2010Prop54
  1
strokes_ogs.tif
102
RTVSPost2010PropOp54
 70
     1
102
RTVSPost2010Prop55
280
     0
102
RTVSPost2010PropOp55
 70
     1
102
RTVSPost2010Prop56
140
1.0
102
RTVSPost2010PropOp56
 70
     1
102
RTVSPost2010Prop57
140
1.0
102
RTVSPost2010PropOp57
 70
     1
  0
XRECORD
  5
17E9
102
{ACAD_REACTORS
330
17E8
102
}
330
17E8
100
AcDbXrecord
280
     1
102
RTVSPropertyOp0
 70
     1
102
RTVSPropertyOp1
 70
     1
102
RTVSPropertyOp2
 70
     1
102
RTVSPropertyOp3
 70
     1
102
RTVSPropertyOp4
 70
     1
102
RTVSPropertyOp5
 70
     1
102
RTVSPropertyOp6
 70
     1
102
RTVSPropertyOp7
 70
     1
102
RTVSPropertyOp8
 70
     1
102
RTVSPropertyOp9
 70
     1
102
RTVSPropertyOp10
 70
     1
102
RTVSPropertyOp11
 70
     1
102
RTVSPropertyOp12
 70
     1
102
RTVSPropertyOp13
 70
     1
102
RTVSPropertyOp14
 70
     1
102
RTVSPropertyOp15
 70
     1
102
RTVSPropertyOp16
 70
     1
102
RTVSPropertyOp17
 70
     1
102
RTVSPropertyOp18
 70
     1
102
RTVSPropertyOp19
 70
     1
102
RTVSPropertyOp20
 70
     1
102
RTVSPropertyOp21
 70
     1
102
RTVSPropertyOp22
 70
     1
102
RTVSPropertyOp23
 70
     1
102
RTVSPropertyOp24
 70
     1
102
RTVSPropertyOp25
 70
     1
102
RTVSPropertyOp26
 70
     1
102
RTVSPropertyOp27
 70
     1
102
RTVSPropertyOp28
 70
     1
102
RTVSPropertyOp29
 70
     1
102
RTVSPropertyOp30
 70
     1
102
RTVSPropertyOp31
 70
     1
102
RTVSPropertyOp32
 70
     1
102
RTVSPropertyOp33
 70
     1
102
RTVSPropertyOp34
 70
     1
102
RTVSPropertyOp35
 70
     1
102
RTVSPropertyOp36
 70
     1
102
RTVSPropertyOp37
 70
     1
102
RTVSPropertyOp38
 70
     1
102
RTVSPropertyOp39
 70
     1
102
RTVSPropertyOp40
 70
     1
102
RTVSPropertyOp41
 70
     1
102
RTVSPropertyOp42
 70
     1
102
RTVSPropertyOp43
 70
     1
102
RTVSPropertyOp44
 70
     1
102
RTVSPropertyOp45
 70
     1
102
RTVSPropertyOp46
 70
     1
102
RTVSPropertyOp47
 70
     1
102
RTVSPropertyOp48
 70
     1
102
RTVSPropertyOp49
 70
     1
102
RTVSPropertyOp50
 70
     1
102
RTVSPropertyOp51
 70
     0
102
RTVSPropertyOp52
 70
     0
102
RTVSPropertyOp53
 70
     1
102
RTVSPropertyOp54
 70
     1
102
RTVSPropertyOp55
 70
     1
102
RTVSPropertyOp56
 70
     1
102
RTVSPropertyOp57
 70
     1
102
RTVSPost2010Prop28
280
     0
102
RTVSPost2010PropOp28
 70
     1
102
RTVSPost2010Prop29
280
     1
102
RTVSPost2010PropOp29
 70
     1
102
RTVSPost2010Prop30
280
     1
102
RTVSPost2010PropOp30
 70
     1
102
RTVSPost2010Prop31
280
     0
102
RTVSPost2010PropOp31
 70
     1
102
RTVSPost2010Prop32
280
     0
102
RTVSPost2010PropOp32
 70
     1
102
RTVSPost2010Prop33
280
     0
102
RTVSPost2010PropOp33
 70
     1
102
RTVSPost2010Prop34
280
     0
102
RTVSPost2010PropOp34
 70
     1
102
RTVSPost2010Prop35
280
     0
102
RTVSPost2010PropOp35
 70
     1
102
RTVSPost2010Prop36
280
     0
102
RTVSPost2010PropOp36
 70
     1
102
RTVSPost2010Prop37
 90
       50
102
RTVSPost2010PropOp37
 70
     1
102
RTVSPost2010Prop38
140
0.0
102
RTVSPost2010PropOp38
 70
     1
102
RTVSPost2010Prop39
140
1.0
102
RTVSPost2010PropOp39
 70
     1
102
RTVSPost2010Prop40
 90
        0
102
RTVSPost2010PropOp40
 70
     1
102
RTVSPost2010Prop41ColorIndex
 90
       18
102
RTVSPost2010Prop41ColorRGB
 90
        0
102
RTVSPost2010PropOp41
 70
     1
102
RTVSPost2010Prop42
 90
       50
102
RTVSPost2010PropOp42
 70
     1
102
RTVSPost2010Prop43
 90
        3
102
RTVSPost2010PropOp43
 70
     1
102
RTVSPost2010Prop44ColorIndex
 90
        5
102
RTVSPost2010Prop44ColorRGB
 90
      255
102
RTVSPost2010PropOp44
 70
     1
102
RTVSPost2010Prop45
280
     0
102
RTVSPost2010PropOp45
 70
     1
102
RTVSPost2010Prop46
 90
       50
102
RTVSPost2010PropOp46
 70
     1
102
RTVSPost2010Prop47
 90
       50
102
RTVSPost2010PropOp47
 70
     1
102
RTVSPost2010Prop48
 90
       50
102
RTVSPost2010PropOp48
 70
     1
102
RTVSPost2010Prop49
280
     0
102
RTVSPost2010PropOp49
 70
     1
102
RTVSPost2010Prop50
 90
       50
102
RTVSPost2010PropOp50
 70
     1
102
RTVSPost2010Prop51ColorIndex
 90
      256
102
RTVSPost2010Prop51ColorRGB
 90
-16777216
102
RTVSPost2010PropOp51
 70
     0
102
RTVSPost2010Prop52
140
1.0
102
RTVSPost2010PropOp52
 70
     0
102
RTVSPost2010Prop53
 90
        2
102
RTVSPost2010PropOp53
 70
     1
102
RTVSPost2010Prop54
  1
strokes_ogs.tif
102
RTVSPost2010PropOp54
 70
     1
102
RTVSPost2010Prop55
280
     0
102
RTVSPost2010PropOp55
 70
     1
102
RTVSPost2010Prop56
140
1.0
102
RTVSPost2010PropOp56
 70
     1
102
RTVSPost2010Prop57
140
1.0
102
RTVSPost2010PropOp57
 70
     1
  0
XRECORD
  5
17EB
102
{ACAD_REACTORS
330
17EA
102
}
330
17EA
100
AcDbXrecord
280
     1
102
RTVSPropertyOp0
 70
     0
102
RTVSPropertyOp1
 70
     0
102
RTVSPropertyOp2
 70
     0
102
RTVSPropertyOp3
 70
     0
102
RTVSPropertyOp4
 70
     0
102
RTVSPropertyOp5
 70
     0
102
RTVSPropertyOp6
 70
     0
102
RTVSPropertyOp7
 70
     0
102
RTVSPropertyOp8
 70
     0
102
RTVSPropertyOp9
 70
     0
102
RTVSPropertyOp10
 70
     0
102
RTVSPropertyOp11
 70
     0
102
RTVSPropertyOp12
 70
     0
102
RTVSPropertyOp13
 70
     0
102
RTVSPropertyOp14
 70
     2
102
RTVSPropertyOp15
 70
     0
102
RTVSPropertyOp16
 70
     0
102
RTVSPropertyOp17
 70
     0
102
RTVSPropertyOp18
 70
     0
102
RTVSPropertyOp19
 70
     0
102
RTVSPropertyOp20
 70
     0
102
RTVSPropertyOp21
 70
     0
102
RTVSPropertyOp22
 70
     0
102
RTVSPropertyOp23
 70
     0
102
RTVSPropertyOp24
 70
     0
102
RTVSPropertyOp25
 70
     0
102
RTVSPropertyOp26
 70
     0
102
RTVSPropertyOp27
 70
     0
102
RTVSPropertyOp28
 70
     0
102
RTVSPropertyOp29
 70
     0
102
RTVSPropertyOp30
 70
     0
102
RTVSPropertyOp31
 70
     0
102
RTVSPropertyOp32
 70
     0
102
RTVSPropertyOp33
 70
     0
102
RTVSPropertyOp34
 70
     0
102
RTVSPropertyOp35
 70
     0
102
RTVSPropertyOp36
 70
     0
102
RTVSPropertyOp37
 70
     0
102
RTVSPropertyOp38
 70
     0
102
RTVSPropertyOp39
 70
     0
102
RTVSPropertyOp40
 70
     0
102
RTVSPropertyOp41
 70
     0
102
RTVSPropertyOp42
 70
     0
102
RTVSPropertyOp43
 70
     0
102
RTVSPropertyOp44
 70
     0
102
RTVSPropertyOp45
 70
     0
102
RTVSPropertyOp46
 70
     0
102
RTVSPropertyOp47
 70
     0
102
RTVSPropertyOp48
 70
     0
102
RTVSPropertyOp49
 70
     0
102
RTVSPropertyOp50
 70
     0
102
RTVSPropertyOp51
 70
     0
102
RTVSPropertyOp52
 70
     0
102
RTVSPropertyOp53
 70
     0
102
RTVSPropertyOp54
 70
     0
102
RTVSPropertyOp55
 70
     0
102
RTVSPropertyOp56
 70
     0
102
RTVSPropertyOp57
 70
     0
102
RTVSPost2010Prop28
280
     0
102
RTVSPost2010PropOp28
 70
     0
102
RTVSPost2010Prop29
280
     1
102
RTVSPost2010PropOp29
 70
     0
102
RTVSPost2010Prop30
280
     1
102
RTVSPost2010PropOp30
 70
     0
102
RTVSPost2010Prop31
280
     0
102
RTVSPost2010PropOp31
 70
     0
102
RTVSPost2010Prop32
280
     0
102
RTVSPost2010PropOp32
 70
     0
102
RTVSPost2010Prop33
280
     0
102
RTVSPost2010PropOp33
 70
     0
102
RTVSPost2010Prop34
280
     0
102
RTVSPost2010PropOp34
 70
     0
102
RTVSPost2010Prop35
280
     0
102
RTVSPost2010PropOp35
 70
     0
102
RTVSPost2010Prop36
280
     0
102
RTVSPost2010PropOp36
 70
     0
102
RTVSPost2010Prop37
 90
       50
102
RTVSPost2010PropOp37
 70
     0
102
RTVSPost2010Prop38
140
0.0
102
RTVSPost2010PropOp38
 70
     0
102
RTVSPost2010Prop39
140
1.0
102
RTVSPost2010PropOp39
 70
     0
102
RTVSPost2010Prop40
 90
        0
102
RTVSPost2010PropOp40
 70
     0
102
RTVSPost2010Prop41ColorIndex
 90
       18
102
RTVSPost2010Prop41ColorRGB
 90
        0
102
RTVSPost2010PropOp41
 70
     0
102
RTVSPost2010Prop42
 90
       50
102
RTVSPost2010PropOp42
 70
     0
102
RTVSPost2010Prop43
 90
        3
102
RTVSPost2010PropOp43
 70
     0
102
RTVSPost2010Prop44ColorIndex
 90
        5
102
RTVSPost2010Prop44ColorRGB
 90
      255
102
RTVSPost2010PropOp44
 70
     0
102
RTVSPost2010Prop45
280
     0
102
RTVSPost2010PropOp45
 70
     0
102
RTVSPost2010Prop46
 90
       50
102
RTVSPost2010PropOp46
 70
     0
102
RTVSPost2010Prop47
 90
       50
102
RTVSPost2010PropOp47
 70
     0
102
RTVSPost2010Prop48
 90
       50
102
RTVSPost2010PropOp48
 70
     0
102
RTVSPost2010Prop49
280
     0
102
RTVSPost2010PropOp49
 70
     0
102
RTVSPost2010Prop50
 90
       50
102
RTVSPost2010PropOp50
 70
     0
102
RTVSPost2010Prop51ColorIndex
 90
      256
102
RTVSPost2010Prop51ColorRGB
 90
-16777216
102
RTVSPost2010PropOp51
 70
     0
102
RTVSPost2010Prop52
140
1.0
102
RTVSPost2010PropOp52
 70
     0
102
RTVSPost2010Prop53
 90
        2
102
RTVSPost2010PropOp53
 70
     0
102
RTVSPost2010Prop54
  1
strokes_ogs.tif
102
RTVSPost2010PropOp54
 70
     0
102
RTVSPost2010Prop55
280
     0
102
RTVSPost2010PropOp55
 70
     0
102
RTVSPost2010Prop56
140
1.0
102
RTVSPost2010PropOp56
 70
     0
102
RTVSPost2010Prop57
140
1.0
102
RTVSPost2010PropOp57
 70
     0
  0
XRECORD
  5
17ED
102
{ACAD_REACTORS
330
17EC
102
}
330
17EC
100
AcDbXrecord
280
     1
102
RTVSPropertyOp0
 70
     1
102
RTVSPropertyOp1
 70
     1
102
RTVSPropertyOp2
 70
     1
102
RTVSPropertyOp3
 70
     1
102
RTVSPropertyOp4
 70
     1
102
RTVSPropertyOp5
 70
     1
102
RTVSPropertyOp6
 70
     1
102
RTVSPropertyOp7
 70
     1
102
RTVSPropertyOp8
 70
     1
102
RTVSPropertyOp9
 70
     1
102
RTVSPropertyOp10
 70
     1
102
RTVSPropertyOp11
 70
     1
102
RTVSPropertyOp12
 70
     1
102
RTVSPropertyOp13
 70
     1
102
RTVSPropertyOp14
 70
     1
102
RTVSPropertyOp15
 70
     1
102
RTVSPropertyOp16
 70
     1
102
RTVSPropertyOp17
 70
     1
102
RTVSPropertyOp18
 70
     1
102
RTVSPropertyOp19
 70
     1
102
RTVSPropertyOp20
 70
     1
102
RTVSPropertyOp21
 70
     1
102
RTVSPropertyOp22
 70
     1
102
RTVSPropertyOp23
 70
     1
102
RTVSPropertyOp24
 70
     1
102
RTVSPropertyOp25
 70
     1
102
RTVSPropertyOp26
 70
     1
102
RTVSPropertyOp27
 70
     1
102
RTVSPropertyOp28
 70
     1
102
RTVSPropertyOp29
 70
     1
102
RTVSPropertyOp30
 70
     1
102
RTVSPropertyOp31
 70
     1
102
RTVSPropertyOp32
 70
     1
102
RTVSPropertyOp33
 70
     1
102
RTVSPropertyOp34
 70
     1
102
RTVSPropertyOp35
 70
     1
102
RTVSPropertyOp36
 70
     1
102
RTVSPropertyOp37
 70
     1
102
RTVSPropertyOp38
 70
     1
102
RTVSPropertyOp39
 70
     1
102
RTVSPropertyOp40
 70
     1
102
RTVSPropertyOp41
 70
     1
102
RTVSPropertyOp42
 70
     1
102
RTVSPropertyOp43
 70
     1
102
RTVSPropertyOp44
 70
     1
102
RTVSPropertyOp45
 70
     1
102
RTVSPropertyOp46
 70
     1
102
RTVSPropertyOp47
 70
     1
102
RTVSPropertyOp48
 70
     1
102
RTVSPropertyOp49
 70
     1
102
RTVSPropertyOp50
 70
     1
102
RTVSPropertyOp51
 70
     0
102
RTVSPropertyOp52
 70
     0
102
RTVSPropertyOp53
 70
     1
102
RTVSPropertyOp54
 70
     1
102
RTVSPropertyOp55
 70
     1
102
RTVSPropertyOp56
 70
     1
102
RTVSPropertyOp57
 70
     1
102
RTVSPost2010Prop28
280
     0
102
RTVSPost2010PropOp28
 70
     1
102
RTVSPost2010Prop29
280
     1
102
RTVSPost2010PropOp29
 70
     1
102
RTVSPost2010Prop30
280
     1
102
RTVSPost2010PropOp30
 70
     1
102
RTVSPost2010Prop31
280
     0
102
RTVSPost2010PropOp31
 70
     1
102
RTVSPost2010Prop32
280
     0
102
RTVSPost2010PropOp32
 70
     1
102
RTVSPost2010Prop33
280
     0
102
RTVSPost2010PropOp33
 70
     1
102
RTVSPost2010Prop34
280
     0
102
RTVSPost2010PropOp34
 70
     1
102
RTVSPost2010Prop35
280
     0
102
RTVSPost2010PropOp35
 70
     1
102
RTVSPost2010Prop36
280
     0
102
RTVSPost2010PropOp36
 70
     1
102
RTVSPost2010Prop37
 90
       50
102
RTVSPost2010PropOp37
 70
     1
102
RTVSPost2010Prop38
140
0.0
102
RTVSPost2010PropOp38
 70
     1
102
RTVSPost2010Prop39
140
1.0
102
RTVSPost2010PropOp39
 70
     1
102
RTVSPost2010Prop40
 90
        0
102
RTVSPost2010PropOp40
 70
     1
102
RTVSPost2010Prop41ColorIndex
 90
       18
102
RTVSPost2010Prop41ColorRGB
 90
        0
102
RTVSPost2010PropOp41
 70
     1
102
RTVSPost2010Prop42
 90
       50
102
RTVSPost2010PropOp42
 70
     1
102
RTVSPost2010Prop43
 90
        3
102
RTVSPost2010PropOp43
 70
     1
102
RTVSPost2010Prop44ColorIndex
 90
        5
102
RTVSPost2010Prop44ColorRGB
 90
      255
102
RTVSPost2010PropOp44
 70
     1
102
RTVSPost2010Prop45
280
     0
102
RTVSPost2010PropOp45
 70
     1
102
RTVSPost2010Prop46
 90
       50
102
RTVSPost2010PropOp46
 70
     1
102
RTVSPost2010Prop47
 90
       50
102
RTVSPost2010PropOp47
 70
     1
102
RTVSPost2010Prop48
 90
       50
102
RTVSPost2010PropOp48
 70
     1
102
RTVSPost2010Prop49
280
     0
102
RTVSPost2010PropOp49
 70
     1
102
RTVSPost2010Prop50
 90
       50
102
RTVSPost2010PropOp50
 70
     1
102
RTVSPost2010Prop51ColorIndex
 90
      256
102
RTVSPost2010Prop51ColorRGB
 90
-16777216
102
RTVSPost2010PropOp51
 70
     0
102
RTVSPost2010Prop52
140
1.0
102
RTVSPost2010PropOp52
 70
     0
102
RTVSPost2010Prop53
 90
        2
102
RTVSPost2010PropOp53
 70
     1
102
RTVSPost2010Prop54
  1
strokes_ogs.tif
102
RTVSPost2010PropOp54
 70
     1
102
RTVSPost2010Prop55
280
     0
102
RTVSPost2010PropOp55
 70
     1
102
RTVSPost2010Prop56
140
1.0
102
RTVSPost2010PropOp56
 70
     1
102
RTVSPost2010Prop57
140
1.0
102
RTVSPost2010PropOp57
 70
     1
  0
XRECORD
  5
17EF
102
{ACAD_REACTORS
330
17EE
102
}
330
17EE
100
AcDbXrecord
280
     1
102
RTVSPropertyOp0
 70
     1
102
RTVSPropertyOp1
 70
     1
102
RTVSPropertyOp2
 70
     1
102
RTVSPropertyOp3
 70
     1
102
RTVSPropertyOp4
 70
     1
102
RTVSPropertyOp5
 70
     1
102
RTVSPropertyOp6
 70
     1
102
RTVSPropertyOp7
 70
     1
102
RTVSPropertyOp8
 70
     1
102
RTVSPropertyOp9
 70
     1
102
RTVSPropertyOp10
 70
     1
102
RTVSPropertyOp11
 70
     1
102
RTVSPropertyOp12
 70
     1
102
RTVSPropertyOp13
 70
     1
102
RTVSPropertyOp14
 70
     1
102
RTVSPropertyOp15
 70
     1
102
RTVSPropertyOp16
 70
     1
102
RTVSPropertyOp17
 70
     1
102
RTVSPropertyOp18
 70
     1
102
RTVSPropertyOp19
 70
     1
102
RTVSPropertyOp20
 70
     1
102
RTVSPropertyOp21
 70
     1
102
RTVSPropertyOp22
 70
     1
102
RTVSPropertyOp23
 70
     1
102
RTVSPropertyOp24
 70
     1
102
RTVSPropertyOp25
 70
     1
102
RTVSPropertyOp26
 70
     1
102
RTVSPropertyOp27
 70
     1
102
RTVSPropertyOp28
 70
     1
102
RTVSPropertyOp29
 70
     1
102
RTVSPropertyOp30
 70
     1
102
RTVSPropertyOp31
 70
     1
102
RTVSPropertyOp32
 70
     1
102
RTVSPropertyOp33
 70
     1
102
RTVSPropertyOp34
 70
     1
102
RTVSPropertyOp35
 70
     1
102
RTVSPropertyOp36
 70
     1
102
RTVSPropertyOp37
 70
     1
102
RTVSPropertyOp38
 70
     1
102
RTVSPropertyOp39
 70
     1
102
RTVSPropertyOp40
 70
     1
102
RTVSPropertyOp41
 70
     1
102
RTVSPropertyOp42
 70
     1
102
RTVSPropertyOp43
 70
     1
102
RTVSPropertyOp44
 70
     1
102
RTVSPropertyOp45
 70
     1
102
RTVSPropertyOp46
 70
     1
102
RTVSPropertyOp47
 70
     1
102
RTVSPropertyOp48
 70
     1
102
RTVSPropertyOp49
 70
     1
102
RTVSPropertyOp50
 70
     1
102
RTVSPropertyOp51
 70
     0
102
RTVSPropertyOp52
 70
     0
102
RTVSPropertyOp53
 70
     1
102
RTVSPropertyOp54
 70
     1
102
RTVSPropertyOp55
 70
     1
102
RTVSPropertyOp56
 70
     1
102
RTVSPropertyOp57
 70
     1
102
RTVSPost2010Prop28
280
     0
102
RTVSPost2010PropOp28
 70
     1
102
RTVSPost2010Prop29
280
     1
102
RTVSPost2010PropOp29
 70
     1
102
RTVSPost2010Prop30
280
     1
102
RTVSPost2010PropOp30
 70
     1
102
RTVSPost2010Prop31
280
     0
102
RTVSPost2010PropOp31
 70
     1
102
RTVSPost2010Prop32
280
     0
102
RTVSPost2010PropOp32
 70
     1
102
RTVSPost2010Prop33
280
     0
102
RTVSPost2010PropOp33
 70
     1
102
RTVSPost2010Prop34
280
     0
102
RTVSPost2010PropOp34
 70
     1
102
RTVSPost2010Prop35
280
     0
102
RTVSPost2010PropOp35
 70
     1
102
RTVSPost2010Prop36
280
     0
102
RTVSPost2010PropOp36
 70
     1
102
RTVSPost2010Prop37
 90
       50
102
RTVSPost2010PropOp37
 70
     1
102
RTVSPost2010Prop38
140
0.0
102
RTVSPost2010PropOp38
 70
     1
102
RTVSPost2010Prop39
140
1.0
102
RTVSPost2010PropOp39
 70
     1
102
RTVSPost2010Prop40
 90
        0
102
RTVSPost2010PropOp40
 70
     1
102
RTVSPost2010Prop41ColorIndex
 90
       18
102
RTVSPost2010Prop41ColorRGB
 90
        0
102
RTVSPost2010PropOp41
 70
     1
102
RTVSPost2010Prop42
 90
       50
102
RTVSPost2010PropOp42
 70
     1
102
RTVSPost2010Prop43
 90
        3
102
RTVSPost2010PropOp43
 70
     1
102
RTVSPost2010Prop44ColorIndex
 90
        5
102
RTVSPost2010Prop44ColorRGB
 90
      255
102
RTVSPost2010PropOp44
 70
     1
102
RTVSPost2010Prop45
280
     0
102
RTVSPost2010PropOp45
 70
     1
102
RTVSPost2010Prop46
 90
       50
102
RTVSPost2010PropOp46
 70
     1
102
RTVSPost2010Prop47
 90
       50
102
RTVSPost2010PropOp47
 70
     1
102
RTVSPost2010Prop48
 90
       50
102
RTVSPost2010PropOp48
 70
     1
102
RTVSPost2010Prop49
280
     0
102
RTVSPost2010PropOp49
 70
     1
102
RTVSPost2010Prop50
 90
       50
102
RTVSPost2010PropOp50
 70
     1
102
RTVSPost2010Prop51ColorIndex
 90
      256
102
RTVSPost2010Prop51ColorRGB
 90
-16777216
102
RTVSPost2010PropOp51
 70
     0
102
RTVSPost2010Prop52
140
1.0
102
RTVSPost2010PropOp52
 70
     0
102
RTVSPost2010Prop53
 90
        2
102
RTVSPost2010PropOp53
 70
     1
102
RTVSPost2010Prop54
  1
strokes_ogs.tif
102
RTVSPost2010PropOp54
 70
     1
102
RTVSPost2010Prop55
280
     0
102
RTVSPost2010PropOp55
 70
     1
102
RTVSPost2010Prop56
140
1.0
102
RTVSPost2010PropOp56
 70
     1
102
RTVSPost2010Prop57
140
1.0
102
RTVSPost2010PropOp57
 70
     1
  0
XRECORD
  5
17F1
102
{ACAD_REACTORS
330
17F0
102
}
330
17F0
100
AcDbXrecord
280
     1
102
RTVSPropertyOp0
 70
     1
102
RTVSPropertyOp1
 70
     1
102
RTVSPropertyOp2
 70
     1
102
RTVSPropertyOp3
 70
     1
102
RTVSPropertyOp4
 70
     1
102
RTVSPropertyOp5
 70
     1
102
RTVSPropertyOp6
 70
     1
102
RTVSPropertyOp7
 70
     1
102
RTVSPropertyOp8
 70
     1
102
RTVSPropertyOp9
 70
     1
102
RTVSPropertyOp10
 70
     1
102
RTVSPropertyOp11
 70
     1
102
RTVSPropertyOp12
 70
     1
102
RTVSPropertyOp13
 70
     1
102
RTVSPropertyOp14
 70
     1
102
RTVSPropertyOp15
 70
     1
102
RTVSPropertyOp16
 70
     1
102
RTVSPropertyOp17
 70
     1
102
RTVSPropertyOp18
 70
     1
102
RTVSPropertyOp19
 70
     1
102
RTVSPropertyOp20
 70
     1
102
RTVSPropertyOp21
 70
     1
102
RTVSPropertyOp22
 70
     1
102
RTVSPropertyOp23
 70
     1
102
RTVSPropertyOp24
 70
     1
102
RTVSPropertyOp25
 70
     1
102
RTVSPropertyOp26
 70
     1
102
RTVSPropertyOp27
 70
     1
102
RTVSPropertyOp28
 70
     1
102
RTVSPropertyOp29
 70
     1
102
RTVSPropertyOp30
 70
     1
102
RTVSPropertyOp31
 70
     1
102
RTVSPropertyOp32
 70
     1
102
RTVSPropertyOp33
 70
     1
102
RTVSPropertyOp34
 70
     1
102
RTVSPropertyOp35
 70
     1
102
RTVSPropertyOp36
 70
     1
102
RTVSPropertyOp37
 70
     1
102
RTVSPropertyOp38
 70
     1
102
RTVSPropertyOp39
 70
     1
102
RTVSPropertyOp40
 70
     1
102
RTVSPropertyOp41
 70
     1
102
RTVSPropertyOp42
 70
     1
102
RTVSPropertyOp43
 70
     1
102
RTVSPropertyOp44
 70
     1
102
RTVSPropertyOp45
 70
     1
102
RTVSPropertyOp46
 70
     1
102
RTVSPropertyOp47
 70
     1
102
RTVSPropertyOp48
 70
     1
102
RTVSPropertyOp49
 70
     1
102
RTVSPropertyOp50
 70
     1
102
RTVSPropertyOp51
 70
     0
102
RTVSPropertyOp52
 70
     0
102
RTVSPropertyOp53
 70
     1
102
RTVSPropertyOp54
 70
     1
102
RTVSPropertyOp55
 70
     1
102
RTVSPropertyOp56
 70
     1
102
RTVSPropertyOp57
 70
     1
102
RTVSPost2010Prop28
280
     0
102
RTVSPost2010PropOp28
 70
     1
102
RTVSPost2010Prop29
280
     1
102
RTVSPost2010PropOp29
 70
     1
102
RTVSPost2010Prop30
280
     1
102
RTVSPost2010PropOp30
 70
     1
102
RTVSPost2010Prop31
280
     0
102
RTVSPost2010PropOp31
 70
     1
102
RTVSPost2010Prop32
280
     0
102
RTVSPost2010PropOp32
 70
     1
102
RTVSPost2010Prop33
280
     0
102
RTVSPost2010PropOp33
 70
     1
102
RTVSPost2010Prop34
280
     0
102
RTVSPost2010PropOp34
 70
     1
102
RTVSPost2010Prop35
280
     0
102
RTVSPost2010PropOp35
 70
     1
102
RTVSPost2010Prop36
280
     0
102
RTVSPost2010PropOp36
 70
     1
102
RTVSPost2010Prop37
 90
       50
102
RTVSPost2010PropOp37
 70
     1
102
RTVSPost2010Prop38
140
0.0
102
RTVSPost2010PropOp38
 70
     1
102
RTVSPost2010Prop39
140
1.0
102
RTVSPost2010PropOp39
 70
     1
102
RTVSPost2010Prop40
 90
        0
102
RTVSPost2010PropOp40
 70
     1
102
RTVSPost2010Prop41ColorIndex
 90
       18
102
RTVSPost2010Prop41ColorRGB
 90
        0
102
RTVSPost2010PropOp41
 70
     1
102
RTVSPost2010Prop42
 90
       50
102
RTVSPost2010PropOp42
 70
     1
102
RTVSPost2010Prop43
 90
        3
102
RTVSPost2010PropOp43
 70
     1
102
RTVSPost2010Prop44ColorIndex
 90
        5
102
RTVSPost2010Prop44ColorRGB
 90
      255
102
RTVSPost2010PropOp44
 70
     1
102
RTVSPost2010Prop45
280
     0
102
RTVSPost2010PropOp45
 70
     1
102
RTVSPost2010Prop46
 90
       50
102
RTVSPost2010PropOp46
 70
     1
102
RTVSPost2010Prop47
 90
       50
102
RTVSPost2010PropOp47
 70
     1
102
RTVSPost2010Prop48
 90
       50
102
RTVSPost2010PropOp48
 70
     1
102
RTVSPost2010Prop49
280
     0
102
RTVSPost2010PropOp49
 70
     1
102
RTVSPost2010Prop50
 90
       50
102
RTVSPost2010PropOp50
 70
     1
102
RTVSPost2010Prop51ColorIndex
 90
      256
102
RTVSPost2010Prop51ColorRGB
 90
-16777216
102
RTVSPost2010PropOp51
 70
     0
102
RTVSPost2010Prop52
140
1.0
102
RTVSPost2010PropOp52
 70
     0
102
RTVSPost2010Prop53
 90
        2
102
RTVSPost2010PropOp53
 70
     1
102
RTVSPost2010Prop54
  1
strokes_ogs.tif
102
RTVSPost2010PropOp54
 70
     1
102
RTVSPost2010Prop55
280
     0
102
RTVSPost2010PropOp55
 70
     1
102
RTVSPost2010Prop56
140
1.0
102
RTVSPost2010PropOp56
 70
     1
102
RTVSPost2010Prop57
140
1.0
102
RTVSPost2010PropOp57
 70
     1
  0
XRECORD
  5
17F3
102
{ACAD_REACTORS
330
17F2
102
}
330
17F2
100
AcDbXrecord
280
     1
102
RTVSPropertyOp0
 70
     1
102
RTVSPropertyOp1
 70
     1
102
RTVSPropertyOp2
 70
     1
102
RTVSPropertyOp3
 70
     1
102
RTVSPropertyOp4
 70
     1
102
RTVSPropertyOp5
 70
     1
102
RTVSPropertyOp6
 70
     1
102
RTVSPropertyOp7
 70
     1
102
RTVSPropertyOp8
 70
     1
102
RTVSPropertyOp9
 70
     1
102
RTVSPropertyOp10
 70
     1
102
RTVSPropertyOp11
 70
     1
102
RTVSPropertyOp12
 70
     1
102
RTVSPropertyOp13
 70
     1
102
RTVSPropertyOp14
 70
     1
102
RTVSPropertyOp15
 70
     1
102
RTVSPropertyOp16
 70
     1
102
RTVSPropertyOp17
 70
     1
102
RTVSPropertyOp18
 70
     1
102
RTVSPropertyOp19
 70
     1
102
RTVSPropertyOp20
 70
     1
102
RTVSPropertyOp21
 70
     1
102
RTVSPropertyOp22
 70
     1
102
RTVSPropertyOp23
 70
     1
102
RTVSPropertyOp24
 70
     1
102
RTVSPropertyOp25
 70
     1
102
RTVSPropertyOp26
 70
     1
102
RTVSPropertyOp27
 70
     1
102
RTVSPropertyOp28
 70
     1
102
RTVSPropertyOp29
 70
     1
102
RTVSPropertyOp30
 70
     1
102
RTVSPropertyOp31
 70
     1
102
RTVSPropertyOp32
 70
     1
102
RTVSPropertyOp33
 70
     1
102
RTVSPropertyOp34
 70
     1
102
RTVSPropertyOp35
 70
     1
102
RTVSPropertyOp36
 70
     1
102
RTVSPropertyOp37
 70
     1
102
RTVSPropertyOp38
 70
     1
102
RTVSPropertyOp39
 70
     1
102
RTVSPropertyOp40
 70
     1
102
RTVSPropertyOp41
 70
     1
102
RTVSPropertyOp42
 70
     1
102
RTVSPropertyOp43
 70
     1
102
RTVSPropertyOp44
 70
     1
102
RTVSPropertyOp45
 70
     1
102
RTVSPropertyOp46
 70
     1
102
RTVSPropertyOp47
 70
     1
102
RTVSPropertyOp48
 70
     1
102
RTVSPropertyOp49
 70
     1
102
RTVSPropertyOp50
 70
     1
102
RTVSPropertyOp51
 70
     0
102
RTVSPropertyOp52
 70
     0
102
RTVSPropertyOp53
 70
     1
102
RTVSPropertyOp54
 70
     1
102
RTVSPropertyOp55
 70
     1
102
RTVSPropertyOp56
 70
     1
102
RTVSPropertyOp57
 70
     1
102
RTVSPost2010Prop28
280
     0
102
RTVSPost2010PropOp28
 70
     1
102
RTVSPost2010Prop29
280
     1
102
RTVSPost2010PropOp29
 70
     1
102
RTVSPost2010Prop30
280
     1
102
RTVSPost2010PropOp30
 70
     1
102
RTVSPost2010Prop31
280
     0
102
RTVSPost2010PropOp31
 70
     1
102
RTVSPost2010Prop32
280
     0
102
RTVSPost2010PropOp32
 70
     1
102
RTVSPost2010Prop33
280
     0
102
RTVSPost2010PropOp33
 70
     1
102
RTVSPost2010Prop34
280
     0
102
RTVSPost2010PropOp34
 70
     1
102
RTVSPost2010Prop35
280
     0
102
RTVSPost2010PropOp35
 70
     1
102
RTVSPost2010Prop36
280
     0
102
RTVSPost2010PropOp36
 70
     1
102
RTVSPost2010Prop37
 90
       50
102
RTVSPost2010PropOp37
 70
     1
102
RTVSPost2010Prop38
140
0.0
102
RTVSPost2010PropOp38
 70
     1
102
RTVSPost2010Prop39
140
1.0
102
RTVSPost2010PropOp39
 70
     1
102
RTVSPost2010Prop40
 90
        0
102
RTVSPost2010PropOp40
 70
     1
102
RTVSPost2010Prop41ColorIndex
 90
       18
102
RTVSPost2010Prop41ColorRGB
 90
        0
102
RTVSPost2010PropOp41
 70
     1
102
RTVSPost2010Prop42
 90
       50
102
RTVSPost2010PropOp42
 70
     1
102
RTVSPost2010Prop43
 90
        3
102
RTVSPost2010PropOp43
 70
     1
102
RTVSPost2010Prop44ColorIndex
 90
        5
102
RTVSPost2010Prop44ColorRGB
 90
      255
102
RTVSPost2010PropOp44
 70
     1
102
RTVSPost2010Prop45
280
     0
102
RTVSPost2010PropOp45
 70
     1
102
RTVSPost2010Prop46
 90
       50
102
RTVSPost2010PropOp46
 70
     1
102
RTVSPost2010Prop47
 90
       50
102
RTVSPost2010PropOp47
 70
     1
102
RTVSPost2010Prop48
 90
       50
102
RTVSPost2010PropOp48
 70
     1
102
RTVSPost2010Prop49
280
     0
102
RTVSPost2010PropOp49
 70
     1
102
RTVSPost2010Prop50
 90
       50
102
RTVSPost2010PropOp50
 70
     1
102
RTVSPost2010Prop51ColorIndex
 90
      256
102
RTVSPost2010Prop51ColorRGB
 90
-16777216
102
RTVSPost2010PropOp51
 70
     0
102
RTVSPost2010Prop52
140
1.0
102
RTVSPost2010PropOp52
 70
     0
102
RTVSPost2010Prop53
 90
        2
102
RTVSPost2010PropOp53
 70
     1
102
RTVSPost2010Prop54
  1
strokes_ogs.tif
102
RTVSPost2010PropOp54
 70
     1
102
RTVSPost2010Prop55
280
     0
102
RTVSPost2010PropOp55
 70
     1
102
RTVSPost2010Prop56
140
1.0
102
RTVSPost2010PropOp56
 70
     1
102
RTVSPost2010Prop57
140
1.0
102
RTVSPost2010PropOp57
 70
     1
  0
XRECORD
  5
17F5
102
{ACAD_REACTORS
330
17F4
102
}
330
17F4
100
AcDbXrecord
280
     1
102
RTVSPropertyOp0
 70
     1
102
RTVSPropertyOp1
 70
     1
102
RTVSPropertyOp2
 70
     1
102
RTVSPropertyOp3
 70
     1
102
RTVSPropertyOp4
 70
     1
102
RTVSPropertyOp5
 70
     1
102
RTVSPropertyOp6
 70
     1
102
RTVSPropertyOp7
 70
     1
102
RTVSPropertyOp8
 70
     1
102
RTVSPropertyOp9
 70
     1
102
RTVSPropertyOp10
 70
     1
102
RTVSPropertyOp11
 70
     1
102
RTVSPropertyOp12
 70
     1
102
RTVSPropertyOp13
 70
     1
102
RTVSPropertyOp14
 70
     1
102
RTVSPropertyOp15
 70
     1
102
RTVSPropertyOp16
 70
     1
102
RTVSPropertyOp17
 70
     1
102
RTVSPropertyOp18
 70
     1
102
RTVSPropertyOp19
 70
     1
102
RTVSPropertyOp20
 70
     1
102
RTVSPropertyOp21
 70
     1
102
RTVSPropertyOp22
 70
     1
102
RTVSPropertyOp23
 70
     1
102
RTVSPropertyOp24
 70
     1
102
RTVSPropertyOp25
 70
     1
102
RTVSPropertyOp26
 70
     1
102
RTVSPropertyOp27
 70
     1
102
RTVSPropertyOp28
 70
     1
102
RTVSPropertyOp29
 70
     1
102
RTVSPropertyOp30
 70
     1
102
RTVSPropertyOp31
 70
     1
102
RTVSPropertyOp32
 70
     1
102
RTVSPropertyOp33
 70
     1
102
RTVSPropertyOp34
 70
     1
102
RTVSPropertyOp35
 70
     1
102
RTVSPropertyOp36
 70
     1
102
RTVSPropertyOp37
 70
     1
102
RTVSPropertyOp38
 70
     1
102
RTVSPropertyOp39
 70
     1
102
RTVSPropertyOp40
 70
     1
102
RTVSPropertyOp41
 70
     1
102
RTVSPropertyOp42
 70
     1
102
RTVSPropertyOp43
 70
     1
102
RTVSPropertyOp44
 70
     1
102
RTVSPropertyOp45
 70
     1
102
RTVSPropertyOp46
 70
     1
102
RTVSPropertyOp47
 70
     1
102
RTVSPropertyOp48
 70
     1
102
RTVSPropertyOp49
 70
     1
102
RTVSPropertyOp50
 70
     1
102
RTVSPropertyOp51
 70
     0
102
RTVSPropertyOp52
 70
     0
102
RTVSPropertyOp53
 70
     1
102
RTVSPropertyOp54
 70
     1
102
RTVSPropertyOp55
 70
     1
102
RTVSPropertyOp56
 70
     1
102
RTVSPropertyOp57
 70
     1
102
RTVSPost2010Prop28
280
     0
102
RTVSPost2010PropOp28
 70
     1
102
RTVSPost2010Prop29
280
     1
102
RTVSPost2010PropOp29
 70
     1
102
RTVSPost2010Prop30
280
     1
102
RTVSPost2010PropOp30
 70
     1
102
RTVSPost2010Prop31
280
     0
102
RTVSPost2010PropOp31
 70
     1
102
RTVSPost2010Prop32
280
     0
102
RTVSPost2010PropOp32
 70
     1
102
RTVSPost2010Prop33
280
     0
102
RTVSPost2010PropOp33
 70
     1
102
RTVSPost2010Prop34
280
     0
102
RTVSPost2010PropOp34
 70
     1
102
RTVSPost2010Prop35
280
     0
102
RTVSPost2010PropOp35
 70
     1
102
RTVSPost2010Prop36
280
     0
102
RTVSPost2010PropOp36
 70
     1
102
RTVSPost2010Prop37
 90
       50
102
RTVSPost2010PropOp37
 70
     1
102
RTVSPost2010Prop38
140
0.0
102
RTVSPost2010PropOp38
 70
     1
102
RTVSPost2010Prop39
140
1.0
102
RTVSPost2010PropOp39
 70
     1
102
RTVSPost2010Prop40
 90
        0
102
RTVSPost2010PropOp40
 70
     1
102
RTVSPost2010Prop41ColorIndex
 90
       18
102
RTVSPost2010Prop41ColorRGB
 90
        0
102
RTVSPost2010PropOp41
 70
     1
102
RTVSPost2010Prop42
 90
       50
102
RTVSPost2010PropOp42
 70
     1
102
RTVSPost2010Prop43
 90
        3
102
RTVSPost2010PropOp43
 70
     1
102
RTVSPost2010Prop44ColorIndex
 90
        5
102
RTVSPost2010Prop44ColorRGB
 90
      255
102
RTVSPost2010PropOp44
 70
     1
102
RTVSPost2010Prop45
280
     0
102
RTVSPost2010PropOp45
 70
     1
102
RTVSPost2010Prop46
 90
       50
102
RTVSPost2010PropOp46
 70
     1
102
RTVSPost2010Prop47
 90
       50
102
RTVSPost2010PropOp47
 70
     1
102
RTVSPost2010Prop48
 90
       50
102
RTVSPost2010PropOp48
 70
     1
102
RTVSPost2010Prop49
280
     0
102
RTVSPost2010PropOp49
 70
     1
102
RTVSPost2010Prop50
 90
       50
102
RTVSPost2010PropOp50
 70
     1
102
RTVSPost2010Prop51ColorIndex
 90
      256
102
RTVSPost2010Prop51ColorRGB
 90
-16777216
102
RTVSPost2010PropOp51
 70
     0
102
RTVSPost2010Prop52
140
1.0
102
RTVSPost2010PropOp52
 70
     0
102
RTVSPost2010Prop53
 90
        2
102
RTVSPost2010PropOp53
 70
     1
102
RTVSPost2010Prop54
  1
strokes_ogs.tif
102
RTVSPost2010PropOp54
 70
     1
102
RTVSPost2010Prop55
280
     0
102
RTVSPost2010PropOp55
 70
     1
102
RTVSPost2010Prop56
140
1.0
102
RTVSPost2010PropOp56
 70
     1
102
RTVSPost2010Prop57
140
1.0
102
RTVSPost2010PropOp57
 70
     1
  0
XRECORD
  5
17F7
102
{ACAD_REACTORS
330
17F6
102
}
330
17F6
100
AcDbXrecord
280
     1
102
RTVSPropertyOp0
 70
     1
102
RTVSPropertyOp1
 70
     1
102
RTVSPropertyOp2
 70
     1
102
RTVSPropertyOp3
 70
     1
102
RTVSPropertyOp4
 70
     1
102
RTVSPropertyOp5
 70
     1
102
RTVSPropertyOp6
 70
     1
102
RTVSPropertyOp7
 70
     1
102
RTVSPropertyOp8
 70
     1
102
RTVSPropertyOp9
 70
     1
102
RTVSPropertyOp10
 70
     1
102
RTVSPropertyOp11
 70
     1
102
RTVSPropertyOp12
 70
     1
102
RTVSPropertyOp13
 70
     1
102
RTVSPropertyOp14
 70
     1
102
RTVSPropertyOp15
 70
     1
102
RTVSPropertyOp16
 70
     1
102
RTVSPropertyOp17
 70
     1
102
RTVSPropertyOp18
 70
     1
102
RTVSPropertyOp19
 70
     1
102
RTVSPropertyOp20
 70
     1
102
RTVSPropertyOp21
 70
     1
102
RTVSPropertyOp22
 70
     1
102
RTVSPropertyOp23
 70
     1
102
RTVSPropertyOp24
 70
     1
102
RTVSPropertyOp25
 70
     1
102
RTVSPropertyOp26
 70
     1
102
RTVSPropertyOp27
 70
     1
102
RTVSPropertyOp28
 70
     1
102
RTVSPropertyOp29
 70
     1
102
RTVSPropertyOp30
 70
     1
102
RTVSPropertyOp31
 70
     1
102
RTVSPropertyOp32
 70
     1
102
RTVSPropertyOp33
 70
     1
102
RTVSPropertyOp34
 70
     1
102
RTVSPropertyOp35
 70
     1
102
RTVSPropertyOp36
 70
     1
102
RTVSPropertyOp37
 70
     1
102
RTVSPropertyOp38
 70
     1
102
RTVSPropertyOp39
 70
     1
102
RTVSPropertyOp40
 70
     1
102
RTVSPropertyOp41
 70
     1
102
RTVSPropertyOp42
 70
     1
102
RTVSPropertyOp43
 70
     1
102
RTVSPropertyOp44
 70
     1
102
RTVSPropertyOp45
 70
     1
102
RTVSPropertyOp46
 70
     1
102
RTVSPropertyOp47
 70
     1
102
RTVSPropertyOp48
 70
     1
102
RTVSPropertyOp49
 70
     1
102
RTVSPropertyOp50
 70
     1
102
RTVSPropertyOp51
 70
     0
102
RTVSPropertyOp52
 70
     0
102
RTVSPropertyOp53
 70
     1
102
RTVSPropertyOp54
 70
     1
102
RTVSPropertyOp55
 70
     1
102
RTVSPropertyOp56
 70
     1
102
RTVSPropertyOp57
 70
     1
102
RTVSPost2010Prop28
280
     0
102
RTVSPost2010PropOp28
 70
     1
102
RTVSPost2010Prop29
280
     1
102
RTVSPost2010PropOp29
 70
     1
102
RTVSPost2010Prop30
280
     1
102
RTVSPost2010PropOp30
 70
     1
102
RTVSPost2010Prop31
280
     0
102
RTVSPost2010PropOp31
 70
     1
102
RTVSPost2010Prop32
280
     0
102
RTVSPost2010PropOp32
 70
     1
102
RTVSPost2010Prop33
280
     0
102
RTVSPost2010PropOp33
 70
     1
102
RTVSPost2010Prop34
280
     0
102
RTVSPost2010PropOp34
 70
     1
102
RTVSPost2010Prop35
280
     0
102
RTVSPost2010PropOp35
 70
     1
102
RTVSPost2010Prop36
280
     0
102
RTVSPost2010PropOp36
 70
     1
102
RTVSPost2010Prop37
 90
       50
102
RTVSPost2010PropOp37
 70
     1
102
RTVSPost2010Prop38
140
0.0
102
RTVSPost2010PropOp38
 70
     1
102
RTVSPost2010Prop39
140
1.0
102
RTVSPost2010PropOp39
 70
     1
102
RTVSPost2010Prop40
 90
        0
102
RTVSPost2010PropOp40
 70
     1
102
RTVSPost2010Prop41ColorIndex
 90
       18
102
RTVSPost2010Prop41ColorRGB
 90
        0
102
RTVSPost2010PropOp41
 70
     1
102
RTVSPost2010Prop42
 90
       50
102
RTVSPost2010PropOp42
 70
     1
102
RTVSPost2010Prop43
 90
        3
102
RTVSPost2010PropOp43
 70
     1
102
RTVSPost2010Prop44ColorIndex
 90
        5
102
RTVSPost2010Prop44ColorRGB
 90
      255
102
RTVSPost2010PropOp44
 70
     1
102
RTVSPost2010Prop45
280
     0
102
RTVSPost2010PropOp45
 70
     1
102
RTVSPost2010Prop46
 90
       50
102
RTVSPost2010PropOp46
 70
     1
102
RTVSPost2010Prop47
 90
       50
102
RTVSPost2010PropOp47
 70
     1
102
RTVSPost2010Prop48
 90
       50
102
RTVSPost2010PropOp48
 70
     1
102
RTVSPost2010Prop49
280
     0
102
RTVSPost2010PropOp49
 70
     1
102
RTVSPost2010Prop50
 90
       50
102
RTVSPost2010PropOp50
 70
     1
102
RTVSPost2010Prop51ColorIndex
 90
      256
102
RTVSPost2010Prop51ColorRGB
 90
-16777216
102
RTVSPost2010PropOp51
 70
     0
102
RTVSPost2010Prop52
140
1.0
102
RTVSPost2010PropOp52
 70
     0
102
RTVSPost2010Prop53
 90
        2
102
RTVSPost2010PropOp53
 70
     1
102
RTVSPost2010Prop54
  1
strokes_ogs.tif
102
RTVSPost2010PropOp54
 70
     1
102
RTVSPost2010Prop55
280
     0
102
RTVSPost2010PropOp55
 70
     1
102
RTVSPost2010Prop56
140
1.0
102
RTVSPost2010PropOp56
 70
     1
102
RTVSPost2010Prop57
140
1.0
102
RTVSPost2010PropOp57
 70
     1
  0
XRECORD
  5
17F9
102
{ACAD_REACTORS
330
17F8
102
}
330
17F8
100
AcDbXrecord
280
     1
102
RTVSPropertyOp0
 70
     0
102
RTVSPropertyOp1
 70
     0
102
RTVSPropertyOp2
 70
     0
102
RTVSPropertyOp3
 70
     0
102
RTVSPropertyOp4
 70
     0
102
RTVSPropertyOp5
 70
     0
102
RTVSPropertyOp6
 70
     0
102
RTVSPropertyOp7
 70
     0
102
RTVSPropertyOp8
 70
     0
102
RTVSPropertyOp9
 70
     0
102
RTVSPropertyOp10
 70
     0
102
RTVSPropertyOp11
 70
     0
102
RTVSPropertyOp12
 70
     0
102
RTVSPropertyOp13
 70
     0
102
RTVSPropertyOp14
 70
     2
102
RTVSPropertyOp15
 70
     0
102
RTVSPropertyOp16
 70
     0
102
RTVSPropertyOp17
 70
     0
102
RTVSPropertyOp18
 70
     0
102
RTVSPropertyOp19
 70
     0
102
RTVSPropertyOp20
 70
     0
102
RTVSPropertyOp21
 70
     0
102
RTVSPropertyOp22
 70
     0
102
RTVSPropertyOp23
 70
     0
102
RTVSPropertyOp24
 70
     0
102
RTVSPropertyOp25
 70
     0
102
RTVSPropertyOp26
 70
     0
102
RTVSPropertyOp27
 70
     0
102
RTVSPropertyOp28
 70
     0
102
RTVSPropertyOp29
 70
     0
102
RTVSPropertyOp30
 70
     0
102
RTVSPropertyOp31
 70
     0
102
RTVSPropertyOp32
 70
     0
102
RTVSPropertyOp33
 70
     0
102
RTVSPropertyOp34
 70
     0
102
RTVSPropertyOp35
 70
     0
102
RTVSPropertyOp36
 70
     0
102
RTVSPropertyOp37
 70
     0
102
RTVSPropertyOp38
 70
     0
102
RTVSPropertyOp39
 70
     0
102
RTVSPropertyOp40
 70
     0
102
RTVSPropertyOp41
 70
     0
102
RTVSPropertyOp42
 70
     0
102
RTVSPropertyOp43
 70
     0
102
RTVSPropertyOp44
 70
     0
102
RTVSPropertyOp45
 70
     0
102
RTVSPropertyOp46
 70
     0
102
RTVSPropertyOp47
 70
     0
102
RTVSPropertyOp48
 70
     0
102
RTVSPropertyOp49
 70
     0
102
RTVSPropertyOp50
 70
     0
102
RTVSPropertyOp51
 70
     0
102
RTVSPropertyOp52
 70
     0
102
RTVSPropertyOp53
 70
     0
102
RTVSPropertyOp54
 70
     0
102
RTVSPropertyOp55
 70
     0
102
RTVSPropertyOp56
 70
     0
102
RTVSPropertyOp57
 70
     0
102
RTVSPost2010Prop28
280
     0
102
RTVSPost2010PropOp28
 70
     0
102
RTVSPost2010Prop29
280
     1
102
RTVSPost2010PropOp29
 70
     0
102
RTVSPost2010Prop30
280
     1
102
RTVSPost2010PropOp30
 70
     0
102
RTVSPost2010Prop31
280
     0
102
RTVSPost2010PropOp31
 70
     0
102
RTVSPost2010Prop32
280
     0
102
RTVSPost2010PropOp32
 70
     0
102
RTVSPost2010Prop33
280
     0
102
RTVSPost2010PropOp33
 70
     0
102
RTVSPost2010Prop34
280
     0
102
RTVSPost2010PropOp34
 70
     0
102
RTVSPost2010Prop35
280
     0
102
RTVSPost2010PropOp35
 70
     0
102
RTVSPost2010Prop36
280
     0
102
RTVSPost2010PropOp36
 70
     0
102
RTVSPost2010Prop37
 90
       50
102
RTVSPost2010PropOp37
 70
     0
102
RTVSPost2010Prop38
140
0.0
102
RTVSPost2010PropOp38
 70
     0
102
RTVSPost2010Prop39
140
1.0
102
RTVSPost2010PropOp39
 70
     0
102
RTVSPost2010Prop40
 90
        0
102
RTVSPost2010PropOp40
 70
     0
102
RTVSPost2010Prop41ColorIndex
 90
       18
102
RTVSPost2010Prop41ColorRGB
 90
        0
102
RTVSPost2010PropOp41
 70
     0
102
RTVSPost2010Prop42
 90
       50
102
RTVSPost2010PropOp42
 70
     0
102
RTVSPost2010Prop43
 90
        3
102
RTVSPost2010PropOp43
 70
     0
102
RTVSPost2010Prop44ColorIndex
 90
        5
102
RTVSPost2010Prop44ColorRGB
 90
      255
102
RTVSPost2010PropOp44
 70
     0
102
RTVSPost2010Prop45
280
     0
102
RTVSPost2010PropOp45
 70
     0
102
RTVSPost2010Prop46
 90
       50
102
RTVSPost2010PropOp46
 70
     0
102
RTVSPost2010Prop47
 90
       50
102
RTVSPost2010PropOp47
 70
     0
102
RTVSPost2010Prop48
 90
       50
102
RTVSPost2010PropOp48
 70
     0
102
RTVSPost2010Prop49
280
     0
102
RTVSPost2010PropOp49
 70
     0
102
RTVSPost2010Prop50
 90
       50
102
RTVSPost2010PropOp50
 70
     0
102
RTVSPost2010Prop51ColorIndex
 90
      256
102
RTVSPost2010Prop51ColorRGB
 90
-16777216
102
RTVSPost2010PropOp51
 70
     0
102
RTVSPost2010Prop52
140
1.0
102
RTVSPost2010PropOp52
 70
     0
102
RTVSPost2010Prop53
 90
        2
102
RTVSPost2010PropOp53
 70
     0
102
RTVSPost2010Prop54
  1
strokes_ogs.tif
102
RTVSPost2010PropOp54
 70
     0
102
RTVSPost2010Prop55
280
     0
102
RTVSPost2010PropOp55
 70
     0
102
RTVSPost2010Prop56
140
1.0
102
RTVSPost2010PropOp56
 70
     0
102
RTVSPost2010Prop57
140
1.0
102
RTVSPost2010PropOp57
 70
     0
  0
XRECORD
  5
17FB
102
{ACAD_REACTORS
330
17FA
102
}
330
17FA
100
AcDbXrecord
280
     1
102
RTVSPropertyOp0
 70
     1
102
RTVSPropertyOp1
 70
     1
102
RTVSPropertyOp2
 70
     1
102
RTVSPropertyOp3
 70
     1
102
RTVSPropertyOp4
 70
     1
102
RTVSPropertyOp5
 70
     1
102
RTVSPropertyOp6
 70
     1
102
RTVSPropertyOp7
 70
     1
102
RTVSPropertyOp8
 70
     1
102
RTVSPropertyOp9
 70
     1
102
RTVSPropertyOp10
 70
     1
102
RTVSPropertyOp11
 70
     1
102
RTVSPropertyOp12
 70
     1
102
RTVSPropertyOp13
 70
     1
102
RTVSPropertyOp14
 70
     1
102
RTVSPropertyOp15
 70
     1
102
RTVSPropertyOp16
 70
     1
102
RTVSPropertyOp17
 70
     1
102
RTVSPropertyOp18
 70
     1
102
RTVSPropertyOp19
 70
     1
102
RTVSPropertyOp20
 70
     1
102
RTVSPropertyOp21
 70
     1
102
RTVSPropertyOp22
 70
     1
102
RTVSPropertyOp23
 70
     1
102
RTVSPropertyOp24
 70
     1
102
RTVSPropertyOp25
 70
     1
102
RTVSPropertyOp26
 70
     1
102
RTVSPropertyOp27
 70
     1
102
RTVSPropertyOp28
 70
     1
102
RTVSPropertyOp29
 70
     1
102
RTVSPropertyOp30
 70
     1
102
RTVSPropertyOp31
 70
     1
102
RTVSPropertyOp32
 70
     1
102
RTVSPropertyOp33
 70
     1
102
RTVSPropertyOp34
 70
     1
102
RTVSPropertyOp35
 70
     1
102
RTVSPropertyOp36
 70
     1
102
RTVSPropertyOp37
 70
     1
102
RTVSPropertyOp38
 70
     1
102
RTVSPropertyOp39
 70
     1
102
RTVSPropertyOp40
 70
     1
102
RTVSPropertyOp41
 70
     1
102
RTVSPropertyOp42
 70
     1
102
RTVSPropertyOp43
 70
     1
102
RTVSPropertyOp44
 70
     1
102
RTVSPropertyOp45
 70
     1
102
RTVSPropertyOp46
 70
     1
102
RTVSPropertyOp47
 70
     1
102
RTVSPropertyOp48
 70
     1
102
RTVSPropertyOp49
 70
     1
102
RTVSPropertyOp50
 70
     1
102
RTVSPropertyOp51
 70
     0
102
RTVSPropertyOp52
 70
     0
102
RTVSPropertyOp53
 70
     1
102
RTVSPropertyOp54
 70
     1
102
RTVSPropertyOp55
 70
     1
102
RTVSPropertyOp56
 70
     1
102
RTVSPropertyOp57
 70
     1
102
RTVSPost2010Prop28
280
     0
102
RTVSPost2010PropOp28
 70
     1
102
RTVSPost2010Prop29
280
     1
102
RTVSPost2010PropOp29
 70
     1
102
RTVSPost2010Prop30
280
     1
102
RTVSPost2010PropOp30
 70
     1
102
RTVSPost2010Prop31
280
     0
102
RTVSPost2010PropOp31
 70
     1
102
RTVSPost2010Prop32
280
     0
102
RTVSPost2010PropOp32
 70
     1
102
RTVSPost2010Prop33
280
     0
102
RTVSPost2010PropOp33
 70
     1
102
RTVSPost2010Prop34
280
     0
102
RTVSPost2010PropOp34
 70
     1
102
RTVSPost2010Prop35
280
     0
102
RTVSPost2010PropOp35
 70
     1
102
RTVSPost2010Prop36
280
     0
102
RTVSPost2010PropOp36
 70
     1
102
RTVSPost2010Prop37
 90
       50
102
RTVSPost2010PropOp37
 70
     1
102
RTVSPost2010Prop38
140
0.0
102
RTVSPost2010PropOp38
 70
     1
102
RTVSPost2010Prop39
140
1.0
102
RTVSPost2010PropOp39
 70
     1
102
RTVSPost2010Prop40
 90
        0
102
RTVSPost2010PropOp40
 70
     1
102
RTVSPost2010Prop41ColorIndex
 90
       18
102
RTVSPost2010Prop41ColorRGB
 90
        0
102
RTVSPost2010PropOp41
 70
     1
102
RTVSPost2010Prop42
 90
       50
102
RTVSPost2010PropOp42
 70
     1
102
RTVSPost2010Prop43
 90
        3
102
RTVSPost2010PropOp43
 70
     1
102
RTVSPost2010Prop44ColorIndex
 90
        5
102
RTVSPost2010Prop44ColorRGB
 90
      255
102
RTVSPost2010PropOp44
 70
     1
102
RTVSPost2010Prop45
280
     0
102
RTVSPost2010PropOp45
 70
     1
102
RTVSPost2010Prop46
 90
       50
102
RTVSPost2010PropOp46
 70
     1
102
RTVSPost2010Prop47
 90
       50
102
RTVSPost2010PropOp47
 70
     1
102
RTVSPost2010Prop48
 90
       50
102
RTVSPost2010PropOp48
 70
     1
102
RTVSPost2010Prop49
280
     0
102
RTVSPost2010PropOp49
 70
     1
102
RTVSPost2010Prop50
 90
       50
102
RTVSPost2010PropOp50
 70
     1
102
RTVSPost2010Prop51ColorIndex
 90
      256
102
RTVSPost2010Prop51ColorRGB
 90
-16777216
102
RTVSPost2010PropOp51
 70
     0
102
RTVSPost2010Prop52
140
1.0
102
RTVSPost2010PropOp52
 70
     0
102
RTVSPost2010Prop53
 90
        2
102
RTVSPost2010PropOp53
 70
     1
102
RTVSPost2010Prop54
  1
strokes_ogs.tif
102
RTVSPost2010PropOp54
 70
     1
102
RTVSPost2010Prop55
280
     0
102
RTVSPost2010PropOp55
 70
     1
102
RTVSPost2010Prop56
140
1.0
102
RTVSPost2010PropOp56
 70
     1
102
RTVSPost2010Prop57
140
1.0
102
RTVSPost2010PropOp57
 70
     1
  0
XRECORD
  5
17FD
102
{ACAD_REACTORS
330
17FC
102
}
330
17FC
100
AcDbXrecord
280
     1
102
RTVSPropertyOp0
 70
     0
102
RTVSPropertyOp1
 70
     0
102
RTVSPropertyOp2
 70
     0
102
RTVSPropertyOp3
 70
     0
102
RTVSPropertyOp4
 70
     0
102
RTVSPropertyOp5
 70
     0
102
RTVSPropertyOp6
 70
     0
102
RTVSPropertyOp7
 70
     0
102
RTVSPropertyOp8
 70
     0
102
RTVSPropertyOp9
 70
     0
102
RTVSPropertyOp10
 70
     0
102
RTVSPropertyOp11
 70
     0
102
RTVSPropertyOp12
 70
     0
102
RTVSPropertyOp13
 70
     0
102
RTVSPropertyOp14
 70
     2
102
RTVSPropertyOp15
 70
     0
102
RTVSPropertyOp16
 70
     0
102
RTVSPropertyOp17
 70
     0
102
RTVSPropertyOp18
 70
     0
102
RTVSPropertyOp19
 70
     0
102
RTVSPropertyOp20
 70
     0
102
RTVSPropertyOp21
 70
     0
102
RTVSPropertyOp22
 70
     0
102
RTVSPropertyOp23
 70
     0
102
RTVSPropertyOp24
 70
     0
102
RTVSPropertyOp25
 70
     0
102
RTVSPropertyOp26
 70
     0
102
RTVSPropertyOp27
 70
     0
102
RTVSPropertyOp28
 70
     0
102
RTVSPropertyOp29
 70
     0
102
RTVSPropertyOp30
 70
     0
102
RTVSPropertyOp31
 70
     0
102
RTVSPropertyOp32
 70
     0
102
RTVSPropertyOp33
 70
     0
102
RTVSPropertyOp34
 70
     0
102
RTVSPropertyOp35
 70
     0
102
RTVSPropertyOp36
 70
     0
102
RTVSPropertyOp37
 70
     0
102
RTVSPropertyOp38
 70
     0
102
RTVSPropertyOp39
 70
     0
102
RTVSPropertyOp40
 70
     0
102
RTVSPropertyOp41
 70
     0
102
RTVSPropertyOp42
 70
     0
102
RTVSPropertyOp43
 70
     0
102
RTVSPropertyOp44
 70
     0
102
RTVSPropertyOp45
 70
     0
102
RTVSPropertyOp46
 70
     0
102
RTVSPropertyOp47
 70
     0
102
RTVSPropertyOp48
 70
     0
102
RTVSPropertyOp49
 70
     0
102
RTVSPropertyOp50
 70
     0
102
RTVSPropertyOp51
 70
     0
102
RTVSPropertyOp52
 70
     0
102
RTVSPropertyOp53
 70
     0
102
RTVSPropertyOp54
 70
     0
102
RTVSPropertyOp55
 70
     0
102
RTVSPropertyOp56
 70
     0
102
RTVSPropertyOp57
 70
     0
102
RTVSPost2010Prop28
280
     0
102
RTVSPost2010PropOp28
 70
     0
102
RTVSPost2010Prop29
280
     1
102
RTVSPost2010PropOp29
 70
     0
102
RTVSPost2010Prop30
280
     1
102
RTVSPost2010PropOp30
 70
     0
102
RTVSPost2010Prop31
280
     0
102
RTVSPost2010PropOp31
 70
     0
102
RTVSPost2010Prop32
280
     0
102
RTVSPost2010PropOp32
 70
     0
102
RTVSPost2010Prop33
280
     0
102
RTVSPost2010PropOp33
 70
     0
102
RTVSPost2010Prop34
280
     0
102
RTVSPost2010PropOp34
 70
     0
102
RTVSPost2010Prop35
280
     0
102
RTVSPost2010PropOp35
 70
     0
102
RTVSPost2010Prop36
280
     0
102
RTVSPost2010PropOp36
 70
     0
102
RTVSPost2010Prop37
 90
       50
102
RTVSPost2010PropOp37
 70
     0
102
RTVSPost2010Prop38
140
0.0
102
RTVSPost2010PropOp38
 70
     0
102
RTVSPost2010Prop39
140
1.0
102
RTVSPost2010PropOp39
 70
     0
102
RTVSPost2010Prop40
 90
        0
102
RTVSPost2010PropOp40
 70
     0
102
RTVSPost2010Prop41ColorIndex
 90
       18
102
RTVSPost2010Prop41ColorRGB
 90
        0
102
RTVSPost2010PropOp41
 70
     0
102
RTVSPost2010Prop42
 90
       50
102
RTVSPost2010PropOp42
 70
     0
102
RTVSPost2010Prop43
 90
        3
102
RTVSPost2010PropOp43
 70
     0
102
RTVSPost2010Prop44ColorIndex
 90
        5
102
RTVSPost2010Prop44ColorRGB
 90
      255
102
RTVSPost2010PropOp44
 70
     0
102
RTVSPost2010Prop45
280
     0
102
RTVSPost2010PropOp45
 70
     0
102
RTVSPost2010Prop46
 90
       50
102
RTVSPost2010PropOp46
 70
     0
102
RTVSPost2010Prop47
 90
       50
102
RTVSPost2010PropOp47
 70
     0
102
RTVSPost2010Prop48
 90
       50
102
RTVSPost2010PropOp48
 70
     0
102
RTVSPost2010Prop49
280
     0
102
RTVSPost2010PropOp49
 70
     0
102
RTVSPost2010Prop50
 90
       50
102
RTVSPost2010PropOp50
 70
     0
102
RTVSPost2010Prop51ColorIndex
 90
      256
102
RTVSPost2010Prop51ColorRGB
 90
-16777216
102
RTVSPost2010PropOp51
 70
     0
102
RTVSPost2010Prop52
140
1.0
102
RTVSPost2010PropOp52
 70
     0
102
RTVSPost2010Prop53
 90
        2
102
RTVSPost2010PropOp53
 70
     0
102
RTVSPost2010Prop54
  1
strokes_ogs.tif
102
RTVSPost2010PropOp54
 70
     0
102
RTVSPost2010Prop55
280
     0
102
RTVSPost2010PropOp55
 70
     0
102
RTVSPost2010Prop56
140
1.0
102
RTVSPost2010PropOp56
 70
     0
102
RTVSPost2010Prop57
140
1.0
102
RTVSPost2010PropOp57
 70
     0
  0
XRECORD
  5
17FF
102
{ACAD_REACTORS
330
17FE
102
}
330
17FE
100
AcDbXrecord
280
     1
102
RTVSPropertyOp0
 70
     1
102
RTVSPropertyOp1
 70
     1
102
RTVSPropertyOp2
 70
     1
102
RTVSPropertyOp3
 70
     1
102
RTVSPropertyOp4
 70
     1
102
RTVSPropertyOp5
 70
     1
102
RTVSPropertyOp6
 70
     1
102
RTVSPropertyOp7
 70
     1
102
RTVSPropertyOp8
 70
     1
102
RTVSPropertyOp9
 70
     1
102
RTVSPropertyOp10
 70
     1
102
RTVSPropertyOp11
 70
     1
102
RTVSPropertyOp12
 70
     1
102
RTVSPropertyOp13
 70
     1
102
RTVSPropertyOp14
 70
     1
102
RTVSPropertyOp15
 70
     1
102
RTVSPropertyOp16
 70
     1
102
RTVSPropertyOp17
 70
     1
102
RTVSPropertyOp18
 70
     1
102
RTVSPropertyOp19
 70
     1
102
RTVSPropertyOp20
 70
     1
102
RTVSPropertyOp21
 70
     1
102
RTVSPropertyOp22
 70
     1
102
RTVSPropertyOp23
 70
     1
102
RTVSPropertyOp24
 70
     1
102
RTVSPropertyOp25
 70
     1
102
RTVSPropertyOp26
 70
     1
102
RTVSPropertyOp27
 70
     1
102
RTVSPropertyOp28
 70
     1
102
RTVSPropertyOp29
 70
     1
102
RTVSPropertyOp30
 70
     1
102
RTVSPropertyOp31
 70
     1
102
RTVSPropertyOp32
 70
     1
102
RTVSPropertyOp33
 70
     1
102
RTVSPropertyOp34
 70
     1
102
RTVSPropertyOp35
 70
     1
102
RTVSPropertyOp36
 70
     1
102
RTVSPropertyOp37
 70
     1
102
RTVSPropertyOp38
 70
     1
102
RTVSPropertyOp39
 70
     1
102
RTVSPropertyOp40
 70
     1
102
RTVSPropertyOp41
 70
     1
102
RTVSPropertyOp42
 70
     1
102
RTVSPropertyOp43
 70
     1
102
RTVSPropertyOp44
 70
     1
102
RTVSPropertyOp45
 70
     1
102
RTVSPropertyOp46
 70
     1
102
RTVSPropertyOp47
 70
     1
102
RTVSPropertyOp48
 70
     1
102
RTVSPropertyOp49
 70
     1
102
RTVSPropertyOp50
 70
     1
102
RTVSPropertyOp51
 70
     0
102
RTVSPropertyOp52
 70
     0
102
RTVSPropertyOp53
 70
     1
102
RTVSPropertyOp54
 70
     1
102
RTVSPropertyOp55
 70
     1
102
RTVSPropertyOp56
 70
     1
102
RTVSPropertyOp57
 70
     1
102
RTVSPost2010Prop28
280
     0
102
RTVSPost2010PropOp28
 70
     1
102
RTVSPost2010Prop29
280
     1
102
RTVSPost2010PropOp29
 70
     1
102
RTVSPost2010Prop30
280
     1
102
RTVSPost2010PropOp30
 70
     1
102
RTVSPost2010Prop31
280
     0
102
RTVSPost2010PropOp31
 70
     1
102
RTVSPost2010Prop32
280
     0
102
RTVSPost2010PropOp32
 70
     1
102
RTVSPost2010Prop33
280
     0
102
RTVSPost2010PropOp33
 70
     1
102
RTVSPost2010Prop34
280
     0
102
RTVSPost2010PropOp34
 70
     1
102
RTVSPost2010Prop35
280
     0
102
RTVSPost2010PropOp35
 70
     1
102
RTVSPost2010Prop36
280
     0
102
RTVSPost2010PropOp36
 70
     1
102
RTVSPost2010Prop37
 90
       50
102
RTVSPost2010PropOp37
 70
     1
102
RTVSPost2010Prop38
140
0.0
102
RTVSPost2010PropOp38
 70
     1
102
RTVSPost2010Prop39
140
1.0
102
RTVSPost2010PropOp39
 70
     1
102
RTVSPost2010Prop40
 90
        0
102
RTVSPost2010PropOp40
 70
     1
102
RTVSPost2010Prop41ColorIndex
 90
       18
102
RTVSPost2010Prop41ColorRGB
 90
        0
102
RTVSPost2010PropOp41
 70
     1
102
RTVSPost2010Prop42
 90
       50
102
RTVSPost2010PropOp42
 70
     1
102
RTVSPost2010Prop43
 90
        3
102
RTVSPost2010PropOp43
 70
     1
102
RTVSPost2010Prop44ColorIndex
 90
        5
102
RTVSPost2010Prop44ColorRGB
 90
      255
102
RTVSPost2010PropOp44
 70
     1
102
RTVSPost2010Prop45
280
     0
102
RTVSPost2010PropOp45
 70
     1
102
RTVSPost2010Prop46
 90
       50
102
RTVSPost2010PropOp46
 70
     1
102
RTVSPost2010Prop47
 90
       50
102
RTVSPost2010PropOp47
 70
     1
102
RTVSPost2010Prop48
 90
       50
102
RTVSPost2010PropOp48
 70
     1
102
RTVSPost2010Prop49
280
     0
102
RTVSPost2010PropOp49
 70
     1
102
RTVSPost2010Prop50
 90
       50
102
RTVSPost2010PropOp50
 70
     1
102
RTVSPost2010Prop51ColorIndex
 90
      256
102
RTVSPost2010Prop51ColorRGB
 90
-16777216
102
RTVSPost2010PropOp51
 70
     0
102
RTVSPost2010Prop52
140
1.0
102
RTVSPost2010PropOp52
 70
     0
102
RTVSPost2010Prop53
 90
        2
102
RTVSPost2010PropOp53
 70
     1
102
RTVSPost2010Prop54
  1
strokes_ogs.tif
102
RTVSPost2010PropOp54
 70
     1
102
RTVSPost2010Prop55
280
     0
102
RTVSPost2010PropOp55
 70
     1
102
RTVSPost2010Prop56
140
1.0
102
RTVSPost2010PropOp56
 70
     1
102
RTVSPost2010Prop57
140
1.0
102
RTVSPost2010PropOp57
 70
     1
  0
XRECORD
  5
1801
102
{ACAD_REACTORS
330
1800
102
}
330
1800
100
AcDbXrecord
280
     1
102
RTVSPropertyOp0
 70
     1
102
RTVSPropertyOp1
 70
     1
102
RTVSPropertyOp2
 70
     1
102
RTVSPropertyOp3
 70
     1
102
RTVSPropertyOp4
 70
     1
102
RTVSPropertyOp5
 70
     1
102
RTVSPropertyOp6
 70
     1
102
RTVSPropertyOp7
 70
     1
102
RTVSPropertyOp8
 70
     1
102
RTVSPropertyOp9
 70
     1
102
RTVSPropertyOp10
 70
     1
102
RTVSPropertyOp11
 70
     1
102
RTVSPropertyOp12
 70
     1
102
RTVSPropertyOp13
 70
     1
102
RTVSPropertyOp14
 70
     1
102
RTVSPropertyOp15
 70
     1
102
RTVSPropertyOp16
 70
     1
102
RTVSPropertyOp17
 70
     1
102
RTVSPropertyOp18
 70
     1
102
RTVSPropertyOp19
 70
     1
102
RTVSPropertyOp20
 70
     1
102
RTVSPropertyOp21
 70
     1
102
RTVSPropertyOp22
 70
     1
102
RTVSPropertyOp23
 70
     1
102
RTVSPropertyOp24
 70
     1
102
RTVSPropertyOp25
 70
     1
102
RTVSPropertyOp26
 70
     1
102
RTVSPropertyOp27
 70
     1
102
RTVSPropertyOp28
 70
     1
102
RTVSPropertyOp29
 70
     1
102
RTVSPropertyOp30
 70
     1
102
RTVSPropertyOp31
 70
     1
102
RTVSPropertyOp32
 70
     1
102
RTVSPropertyOp33
 70
     1
102
RTVSPropertyOp34
 70
     1
102
RTVSPropertyOp35
 70
     1
102
RTVSPropertyOp36
 70
     1
102
RTVSPropertyOp37
 70
     1
102
RTVSPropertyOp38
 70
     1
102
RTVSPropertyOp39
 70
     1
102
RTVSPropertyOp40
 70
     1
102
RTVSPropertyOp41
 70
     1
102
RTVSPropertyOp42
 70
     1
102
RTVSPropertyOp43
 70
     1
102
RTVSPropertyOp44
 70
     1
102
RTVSPropertyOp45
 70
     1
102
RTVSPropertyOp46
 70
     1
102
RTVSPropertyOp47
 70
     1
102
RTVSPropertyOp48
 70
     1
102
RTVSPropertyOp49
 70
     1
102
RTVSPropertyOp50
 70
     1
102
RTVSPropertyOp51
 70
     0
102
RTVSPropertyOp52
 70
     0
102
RTVSPropertyOp53
 70
     1
102
RTVSPropertyOp54
 70
     1
102
RTVSPropertyOp55
 70
     1
102
RTVSPropertyOp56
 70
     1
102
RTVSPropertyOp57
 70
     1
102
RTVSPost2010Prop28
280
     0
102
RTVSPost2010PropOp28
 70
     1
102
RTVSPost2010Prop29
280
     1
102
RTVSPost2010PropOp29
 70
     1
102
RTVSPost2010Prop30
280
     1
102
RTVSPost2010PropOp30
 70
     1
102
RTVSPost2010Prop31
280
     0
102
RTVSPost2010PropOp31
 70
     1
102
RTVSPost2010Prop32
280
     0
102
RTVSPost2010PropOp32
 70
     1
102
RTVSPost2010Prop33
280
     0
102
RTVSPost2010PropOp33
 70
     1
102
RTVSPost2010Prop34
280
     0
102
RTVSPost2010PropOp34
 70
     1
102
RTVSPost2010Prop35
280
     0
102
RTVSPost2010PropOp35
 70
     1
102
RTVSPost2010Prop36
280
     0
102
RTVSPost2010PropOp36
 70
     1
102
RTVSPost2010Prop37
 90
       50
102
RTVSPost2010PropOp37
 70
     1
102
RTVSPost2010Prop38
140
0.0
102
RTVSPost2010PropOp38
 70
     1
102
RTVSPost2010Prop39
140
1.0
102
RTVSPost2010PropOp39
 70
     1
102
RTVSPost2010Prop40
 90
        0
102
RTVSPost2010PropOp40
 70
     1
102
RTVSPost2010Prop41ColorIndex
 90
       18
102
RTVSPost2010Prop41ColorRGB
 90
        0
102
RTVSPost2010PropOp41
 70
     1
102
RTVSPost2010Prop42
 90
       50
102
RTVSPost2010PropOp42
 70
     1
102
RTVSPost2010Prop43
 90
        3
102
RTVSPost2010PropOp43
 70
     1
102
RTVSPost2010Prop44ColorIndex
 90
        5
102
RTVSPost2010Prop44ColorRGB
 90
      255
102
RTVSPost2010PropOp44
 70
     1
102
RTVSPost2010Prop45
280
     0
102
RTVSPost2010PropOp45
 70
     1
102
RTVSPost2010Prop46
 90
       50
102
RTVSPost2010PropOp46
 70
     1
102
RTVSPost2010Prop47
 90
       50
102
RTVSPost2010PropOp47
 70
     1
102
RTVSPost2010Prop48
 90
       50
102
RTVSPost2010PropOp48
 70
     1
102
RTVSPost2010Prop49
280
     0
102
RTVSPost2010PropOp49
 70
     1
102
RTVSPost2010Prop50
 90
       50
102
RTVSPost2010PropOp50
 70
     1
102
RTVSPost2010Prop51ColorIndex
 90
      256
102
RTVSPost2010Prop51ColorRGB
 90
-16777216
102
RTVSPost2010PropOp51
 70
     0
102
RTVSPost2010Prop52
140
1.0
102
RTVSPost2010PropOp52
 70
     0
102
RTVSPost2010Prop53
 90
        2
102
RTVSPost2010PropOp53
 70
     1
102
RTVSPost2010Prop54
  1
strokes_ogs.tif
102
RTVSPost2010PropOp54
 70
     1
102
RTVSPost2010Prop55
280
     0
102
RTVSPost2010PropOp55
 70
     1
102
RTVSPost2010Prop56
140
1.0
102
RTVSPost2010PropOp56
 70
     1
102
RTVSPost2010Prop57
140
1.0
102
RTVSPost2010PropOp57
 70
     1
  0
XRECORD
  5
1803
102
{ACAD_REACTORS
330
1802
102
}
330
1802
100
AcDbXrecord
280
     1
102
RTVSPropertyOp0
 70
     1
102
RTVSPropertyOp1
 70
     1
102
RTVSPropertyOp2
 70
     1
102
RTVSPropertyOp3
 70
     1
102
RTVSPropertyOp4
 70
     1
102
RTVSPropertyOp5
 70
     1
102
RTVSPropertyOp6
 70
     1
102
RTVSPropertyOp7
 70
     1
102
RTVSPropertyOp8
 70
     1
102
RTVSPropertyOp9
 70
     1
102
RTVSPropertyOp10
 70
     1
102
RTVSPropertyOp11
 70
     1
102
RTVSPropertyOp12
 70
     1
102
RTVSPropertyOp13
 70
     1
102
RTVSPropertyOp14
 70
     1
102
RTVSPropertyOp15
 70
     1
102
RTVSPropertyOp16
 70
     1
102
RTVSPropertyOp17
 70
     1
102
RTVSPropertyOp18
 70
     1
102
RTVSPropertyOp19
 70
     1
102
RTVSPropertyOp20
 70
     1
102
RTVSPropertyOp21
 70
     1
102
RTVSPropertyOp22
 70
     1
102
RTVSPropertyOp23
 70
     1
102
RTVSPropertyOp24
 70
     1
102
RTVSPropertyOp25
 70
     1
102
RTVSPropertyOp26
 70
     1
102
RTVSPropertyOp27
 70
     1
102
RTVSPropertyOp28
 70
     1
102
RTVSPropertyOp29
 70
     1
102
RTVSPropertyOp30
 70
     1
102
RTVSPropertyOp31
 70
     1
102
RTVSPropertyOp32
 70
     1
102
RTVSPropertyOp33
 70
     1
102
RTVSPropertyOp34
 70
     1
102
RTVSPropertyOp35
 70
     1
102
RTVSPropertyOp36
 70
     1
102
RTVSPropertyOp37
 70
     1
102
RTVSPropertyOp38
 70
     1
102
RTVSPropertyOp39
 70
     1
102
RTVSPropertyOp40
 70
     1
102
RTVSPropertyOp41
 70
     1
102
RTVSPropertyOp42
 70
     1
102
RTVSPropertyOp43
 70
     1
102
RTVSPropertyOp44
 70
     1
102
RTVSPropertyOp45
 70
     1
102
RTVSPropertyOp46
 70
     1
102
RTVSPropertyOp47
 70
     1
102
RTVSPropertyOp48
 70
     1
102
RTVSPropertyOp49
 70
     1
102
RTVSPropertyOp50
 70
     1
102
RTVSPropertyOp51
 70
     0
102
RTVSPropertyOp52
 70
     0
102
RTVSPropertyOp53
 70
     1
102
RTVSPropertyOp54
 70
     1
102
RTVSPropertyOp55
 70
     1
102
RTVSPropertyOp56
 70
     1
102
RTVSPropertyOp57
 70
     1
102
RTVSPost2010Prop28
280
     0
102
RTVSPost2010PropOp28
 70
     1
102
RTVSPost2010Prop29
280
     1
102
RTVSPost2010PropOp29
 70
     1
102
RTVSPost2010Prop30
280
     1
102
RTVSPost2010PropOp30
 70
     1
102
RTVSPost2010Prop31
280
     0
102
RTVSPost2010PropOp31
 70
     1
102
RTVSPost2010Prop32
280
     0
102
RTVSPost2010PropOp32
 70
     1
102
RTVSPost2010Prop33
280
     0
102
RTVSPost2010PropOp33
 70
     1
102
RTVSPost2010Prop34
280
     0
102
RTVSPost2010PropOp34
 70
     1
102
RTVSPost2010Prop35
280
     0
102
RTVSPost2010PropOp35
 70
     1
102
RTVSPost2010Prop36
280
     0
102
RTVSPost2010PropOp36
 70
     1
102
RTVSPost2010Prop37
 90
       50
102
RTVSPost2010PropOp37
 70
     1
102
RTVSPost2010Prop38
140
0.0
102
RTVSPost2010PropOp38
 70
     1
102
RTVSPost2010Prop39
140
1.0
102
RTVSPost2010PropOp39
 70
     1
102
RTVSPost2010Prop40
 90
        0
102
RTVSPost2010PropOp40
 70
     1
102
RTVSPost2010Prop41ColorIndex
 90
       18
102
RTVSPost2010Prop41ColorRGB
 90
        0
102
RTVSPost2010PropOp41
 70
     1
102
RTVSPost2010Prop42
 90
       50
102
RTVSPost2010PropOp42
 70
     1
102
RTVSPost2010Prop43
 90
        3
102
RTVSPost2010PropOp43
 70
     1
102
RTVSPost2010Prop44ColorIndex
 90
        5
102
RTVSPost2010Prop44ColorRGB
 90
      255
102
RTVSPost2010PropOp44
 70
     1
102
RTVSPost2010Prop45
280
     0
102
RTVSPost2010PropOp45
 70
     1
102
RTVSPost2010Prop46
 90
       50
102
RTVSPost2010PropOp46
 70
     1
102
RTVSPost2010Prop47
 90
       50
102
RTVSPost2010PropOp47
 70
     1
102
RTVSPost2010Prop48
 90
       50
102
RTVSPost2010PropOp48
 70
     1
102
RTVSPost2010Prop49
280
     0
102
RTVSPost2010PropOp49
 70
     1
102
RTVSPost2010Prop50
 90
       50
102
RTVSPost2010PropOp50
 70
     1
102
RTVSPost2010Prop51ColorIndex
 90
      256
102
RTVSPost2010Prop51ColorRGB
 90
-16777216
102
RTVSPost2010PropOp51
 70
     0
102
RTVSPost2010Prop52
140
1.0
102
RTVSPost2010PropOp52
 70
     0
102
RTVSPost2010Prop53
 90
        2
102
RTVSPost2010PropOp53
 70
     1
102
RTVSPost2010Prop54
  1
strokes_ogs.tif
102
RTVSPost2010PropOp54
 70
     1
102
RTVSPost2010Prop55
280
     0
102
RTVSPost2010PropOp55
 70
     1
102
RTVSPost2010Prop56
140
1.0
102
RTVSPost2010PropOp56
 70
     1
102
RTVSPost2010Prop57
140
1.0
102
RTVSPost2010PropOp57
 70
     1
  0
XRECORD
  5
1805
102
{ACAD_REACTORS
330
1804
102
}
330
1804
100
AcDbXrecord
280
     1
102
RTVSPropertyOp0
 70
     1
102
RTVSPropertyOp1
 70
     1
102
RTVSPropertyOp2
 70
     1
102
RTVSPropertyOp3
 70
     1
102
RTVSPropertyOp4
 70
     1
102
RTVSPropertyOp5
 70
     1
102
RTVSPropertyOp6
 70
     1
102
RTVSPropertyOp7
 70
     1
102
RTVSPropertyOp8
 70
     1
102
RTVSPropertyOp9
 70
     1
102
RTVSPropertyOp10
 70
     1
102
RTVSPropertyOp11
 70
     1
102
RTVSPropertyOp12
 70
     1
102
RTVSPropertyOp13
 70
     1
102
RTVSPropertyOp14
 70
     1
102
RTVSPropertyOp15
 70
     1
102
RTVSPropertyOp16
 70
     1
102
RTVSPropertyOp17
 70
     1
102
RTVSPropertyOp18
 70
     1
102
RTVSPropertyOp19
 70
     1
102
RTVSPropertyOp20
 70
     1
102
RTVSPropertyOp21
 70
     1
102
RTVSPropertyOp22
 70
     1
102
RTVSPropertyOp23
 70
     1
102
RTVSPropertyOp24
 70
     1
102
RTVSPropertyOp25
 70
     1
102
RTVSPropertyOp26
 70
     1
102
RTVSPropertyOp27
 70
     1
102
RTVSPropertyOp28
 70
     1
102
RTVSPropertyOp29
 70
     1
102
RTVSPropertyOp30
 70
     1
102
RTVSPropertyOp31
 70
     1
102
RTVSPropertyOp32
 70
     1
102
RTVSPropertyOp33
 70
     1
102
RTVSPropertyOp34
 70
     1
102
RTVSPropertyOp35
 70
     1
102
RTVSPropertyOp36
 70
     1
102
RTVSPropertyOp37
 70
     1
102
RTVSPropertyOp38
 70
     1
102
RTVSPropertyOp39
 70
     1
102
RTVSPropertyOp40
 70
     1
102
RTVSPropertyOp41
 70
     1
102
RTVSPropertyOp42
 70
     1
102
RTVSPropertyOp43
 70
     1
102
RTVSPropertyOp44
 70
     1
102
RTVSPropertyOp45
 70
     1
102
RTVSPropertyOp46
 70
     1
102
RTVSPropertyOp47
 70
     1
102
RTVSPropertyOp48
 70
     1
102
RTVSPropertyOp49
 70
     1
102
RTVSPropertyOp50
 70
     1
102
RTVSPropertyOp51
 70
     0
102
RTVSPropertyOp52
 70
     0
102
RTVSPropertyOp53
 70
     1
102
RTVSPropertyOp54
 70
     1
102
RTVSPropertyOp55
 70
     1
102
RTVSPropertyOp56
 70
     1
102
RTVSPropertyOp57
 70
     1
102
RTVSPost2010Prop28
280
     0
102
RTVSPost2010PropOp28
 70
     1
102
RTVSPost2010Prop29
280
     1
102
RTVSPost2010PropOp29
 70
     1
102
RTVSPost2010Prop30
280
     1
102
RTVSPost2010PropOp30
 70
     1
102
RTVSPost2010Prop31
280
     0
102
RTVSPost2010PropOp31
 70
     1
102
RTVSPost2010Prop32
280
     0
102
RTVSPost2010PropOp32
 70
     1
102
RTVSPost2010Prop33
280
     0
102
RTVSPost2010PropOp33
 70
     1
102
RTVSPost2010Prop34
280
     0
102
RTVSPost2010PropOp34
 70
     1
102
RTVSPost2010Prop35
280
     0
102
RTVSPost2010PropOp35
 70
     1
102
RTVSPost2010Prop36
280
     0
102
RTVSPost2010PropOp36
 70
     1
102
RTVSPost2010Prop37
 90
       50
102
RTVSPost2010PropOp37
 70
     1
102
RTVSPost2010Prop38
140
0.0
102
RTVSPost2010PropOp38
 70
     1
102
RTVSPost2010Prop39
140
1.0
102
RTVSPost2010PropOp39
 70
     1
102
RTVSPost2010Prop40
 90
        0
102
RTVSPost2010PropOp40
 70
     1
102
RTVSPost2010Prop41ColorIndex
 90
       18
102
RTVSPost2010Prop41ColorRGB
 90
        0
102
RTVSPost2010PropOp41
 70
     1
102
RTVSPost2010Prop42
 90
       50
102
RTVSPost2010PropOp42
 70
     1
102
RTVSPost2010Prop43
 90
        3
102
RTVSPost2010PropOp43
 70
     1
102
RTVSPost2010Prop44ColorIndex
 90
        5
102
RTVSPost2010Prop44ColorRGB
 90
      255
102
RTVSPost2010PropOp44
 70
     1
102
RTVSPost2010Prop45
280
     0
102
RTVSPost2010PropOp45
 70
     1
102
RTVSPost2010Prop46
 90
       50
102
RTVSPost2010PropOp46
 70
     1
102
RTVSPost2010Prop47
 90
       50
102
RTVSPost2010PropOp47
 70
     1
102
RTVSPost2010Prop48
 90
       50
102
RTVSPost2010PropOp48
 70
     1
102
RTVSPost2010Prop49
280
     0
102
RTVSPost2010PropOp49
 70
     1
102
RTVSPost2010Prop50
 90
       50
102
RTVSPost2010PropOp50
 70
     1
102
RTVSPost2010Prop51ColorIndex
 90
      256
102
RTVSPost2010Prop51ColorRGB
 90
-16777216
102
RTVSPost2010PropOp51
 70
     0
102
RTVSPost2010Prop52
140
1.0
102
RTVSPost2010PropOp52
 70
     0
102
RTVSPost2010Prop53
 90
        2
102
RTVSPost2010PropOp53
 70
     1
102
RTVSPost2010Prop54
  1
strokes_ogs.tif
102
RTVSPost2010PropOp54
 70
     1
102
RTVSPost2010Prop55
280
     0
102
RTVSPost2010PropOp55
 70
     1
102
RTVSPost2010Prop56
140
1.0
102
RTVSPost2010PropOp56
 70
     1
102
RTVSPost2010Prop57
140
1.0
102
RTVSPost2010PropOp57
 70
     1
  0
XRECORD
  5
1807
102
{ACAD_REACTORS
330
1806
102
}
330
1806
100
AcDbXrecord
280
     1
102
RTVSPropertyOp0
 70
     1
102
RTVSPropertyOp1
 70
     1
102
RTVSPropertyOp2
 70
     1
102
RTVSPropertyOp3
 70
     1
102
RTVSPropertyOp4
 70
     1
102
RTVSPropertyOp5
 70
     1
102
RTVSPropertyOp6
 70
     1
102
RTVSPropertyOp7
 70
     1
102
RTVSPropertyOp8
 70
     1
102
RTVSPropertyOp9
 70
     1
102
RTVSPropertyOp10
 70
     1
102
RTVSPropertyOp11
 70
     1
102
RTVSPropertyOp12
 70
     1
102
RTVSPropertyOp13
 70
     1
102
RTVSPropertyOp14
 70
     1
102
RTVSPropertyOp15
 70
     1
102
RTVSPropertyOp16
 70
     1
102
RTVSPropertyOp17
 70
     1
102
RTVSPropertyOp18
 70
     1
102
RTVSPropertyOp19
 70
     1
102
RTVSPropertyOp20
 70
     1
102
RTVSPropertyOp21
 70
     1
102
RTVSPropertyOp22
 70
     1
102
RTVSPropertyOp23
 70
     1
102
RTVSPropertyOp24
 70
     1
102
RTVSPropertyOp25
 70
     1
102
RTVSPropertyOp26
 70
     1
102
RTVSPropertyOp27
 70
     1
102
RTVSPropertyOp28
 70
     1
102
RTVSPropertyOp29
 70
     1
102
RTVSPropertyOp30
 70
     1
102
RTVSPropertyOp31
 70
     1
102
RTVSPropertyOp32
 70
     1
102
RTVSPropertyOp33
 70
     1
102
RTVSPropertyOp34
 70
     1
102
RTVSPropertyOp35
 70
     1
102
RTVSPropertyOp36
 70
     1
102
RTVSPropertyOp37
 70
     1
102
RTVSPropertyOp38
 70
     1
102
RTVSPropertyOp39
 70
     1
102
RTVSPropertyOp40
 70
     1
102
RTVSPropertyOp41
 70
     1
102
RTVSPropertyOp42
 70
     1
102
RTVSPropertyOp43
 70
     1
102
RTVSPropertyOp44
 70
     1
102
RTVSPropertyOp45
 70
     1
102
RTVSPropertyOp46
 70
     1
102
RTVSPropertyOp47
 70
     1
102
RTVSPropertyOp48
 70
     1
102
RTVSPropertyOp49
 70
     1
102
RTVSPropertyOp50
 70
     1
102
RTVSPropertyOp51
 70
     0
102
RTVSPropertyOp52
 70
     0
102
RTVSPropertyOp53
 70
     1
102
RTVSPropertyOp54
 70
     1
102
RTVSPropertyOp55
 70
     1
102
RTVSPropertyOp56
 70
     1
102
RTVSPropertyOp57
 70
     1
102
RTVSPost2010Prop28
280
     0
102
RTVSPost2010PropOp28
 70
     1
102
RTVSPost2010Prop29
280
     1
102
RTVSPost2010PropOp29
 70
     1
102
RTVSPost2010Prop30
280
     1
102
RTVSPost2010PropOp30
 70
     1
102
RTVSPost2010Prop31
280
     0
102
RTVSPost2010PropOp31
 70
     1
102
RTVSPost2010Prop32
280
     0
102
RTVSPost2010PropOp32
 70
     1
102
RTVSPost2010Prop33
280
     0
102
RTVSPost2010PropOp33
 70
     1
102
RTVSPost2010Prop34
280
     0
102
RTVSPost2010PropOp34
 70
     1
102
RTVSPost2010Prop35
280
     0
102
RTVSPost2010PropOp35
 70
     1
102
RTVSPost2010Prop36
280
     0
102
RTVSPost2010PropOp36
 70
     1
102
RTVSPost2010Prop37
 90
       50
102
RTVSPost2010PropOp37
 70
     1
102
RTVSPost2010Prop38
140
0.0
102
RTVSPost2010PropOp38
 70
     1
102
RTVSPost2010Prop39
140
1.0
102
RTVSPost2010PropOp39
 70
     1
102
RTVSPost2010Prop40
 90
        0
102
RTVSPost2010PropOp40
 70
     1
102
RTVSPost2010Prop41ColorIndex
 90
       18
102
RTVSPost2010Prop41ColorRGB
 90
        0
102
RTVSPost2010PropOp41
 70
     1
102
RTVSPost2010Prop42
 90
       50
102
RTVSPost2010PropOp42
 70
     1
102
RTVSPost2010Prop43
 90
        3
102
RTVSPost2010PropOp43
 70
     1
102
RTVSPost2010Prop44ColorIndex
 90
        5
102
RTVSPost2010Prop44ColorRGB
 90
      255
102
RTVSPost2010PropOp44
 70
     1
102
RTVSPost2010Prop45
280
     0
102
RTVSPost2010PropOp45
 70
     1
102
RTVSPost2010Prop46
 90
       50
102
RTVSPost2010PropOp46
 70
     1
102
RTVSPost2010Prop47
 90
       50
102
RTVSPost2010PropOp47
 70
     1
102
RTVSPost2010Prop48
 90
       50
102
RTVSPost2010PropOp48
 70
     1
102
RTVSPost2010Prop49
280
     0
102
RTVSPost2010PropOp49
 70
     1
102
RTVSPost2010Prop50
 90
       50
102
RTVSPost2010PropOp50
 70
     1
102
RTVSPost2010Prop51ColorIndex
 90
      256
102
RTVSPost2010Prop51ColorRGB
 90
-16777216
102
RTVSPost2010PropOp51
 70
     0
102
RTVSPost2010Prop52
140
1.0
102
RTVSPost2010PropOp52
 70
     0
102
RTVSPost2010Prop53
 90
        2
102
RTVSPost2010PropOp53
 70
     1
102
RTVSPost2010Prop54
  1
strokes_ogs.tif
102
RTVSPost2010PropOp54
 70
     1
102
RTVSPost2010Prop55
280
     0
102
RTVSPost2010PropOp55
 70
     1
102
RTVSPost2010Prop56
140
1.0
102
RTVSPost2010PropOp56
 70
     1
102
RTVSPost2010Prop57
140
1.0
102
RTVSPost2010PropOp57
 70
     1
  0
XRECORD
  5
1809
102
{ACAD_REACTORS
330
1808
102
}
330
1808
100
AcDbXrecord
280
     1
102
RTVSPropertyOp0
 70
     1
102
RTVSPropertyOp1
 70
     1
102
RTVSPropertyOp2
 70
     1
102
RTVSPropertyOp3
 70
     1
102
RTVSPropertyOp4
 70
     1
102
RTVSPropertyOp5
 70
     1
102
RTVSPropertyOp6
 70
     1
102
RTVSPropertyOp7
 70
     1
102
RTVSPropertyOp8
 70
     1
102
RTVSPropertyOp9
 70
     1
102
RTVSPropertyOp10
 70
     1
102
RTVSPropertyOp11
 70
     1
102
RTVSPropertyOp12
 70
     1
102
RTVSPropertyOp13
 70
     1
102
RTVSPropertyOp14
 70
     1
102
RTVSPropertyOp15
 70
     1
102
RTVSPropertyOp16
 70
     1
102
RTVSPropertyOp17
 70
     1
102
RTVSPropertyOp18
 70
     1
102
RTVSPropertyOp19
 70
     1
102
RTVSPropertyOp20
 70
     1
102
RTVSPropertyOp21
 70
     1
102
RTVSPropertyOp22
 70
     1
102
RTVSPropertyOp23
 70
     1
102
RTVSPropertyOp24
 70
     1
102
RTVSPropertyOp25
 70
     1
102
RTVSPropertyOp26
 70
     1
102
RTVSPropertyOp27
 70
     1
102
RTVSPropertyOp28
 70
     1
102
RTVSPropertyOp29
 70
     1
102
RTVSPropertyOp30
 70
     1
102
RTVSPropertyOp31
 70
     1
102
RTVSPropertyOp32
 70
     1
102
RTVSPropertyOp33
 70
     1
102
RTVSPropertyOp34
 70
     1
102
RTVSPropertyOp35
 70
     1
102
RTVSPropertyOp36
 70
     1
102
RTVSPropertyOp37
 70
     1
102
RTVSPropertyOp38
 70
     1
102
RTVSPropertyOp39
 70
     1
102
RTVSPropertyOp40
 70
     1
102
RTVSPropertyOp41
 70
     1
102
RTVSPropertyOp42
 70
     1
102
RTVSPropertyOp43
 70
     1
102
RTVSPropertyOp44
 70
     1
102
RTVSPropertyOp45
 70
     1
102
RTVSPropertyOp46
 70
     1
102
RTVSPropertyOp47
 70
     1
102
RTVSPropertyOp48
 70
     1
102
RTVSPropertyOp49
 70
     1
102
RTVSPropertyOp50
 70
     1
102
RTVSPropertyOp51
 70
     0
102
RTVSPropertyOp52
 70
     0
102
RTVSPropertyOp53
 70
     1
102
RTVSPropertyOp54
 70
     1
102
RTVSPropertyOp55
 70
     1
102
RTVSPropertyOp56
 70
     1
102
RTVSPropertyOp57
 70
     1
102
RTVSPost2010Prop28
280
     0
102
RTVSPost2010PropOp28
 70
     1
102
RTVSPost2010Prop29
280
     1
102
RTVSPost2010PropOp29
 70
     1
102
RTVSPost2010Prop30
280
     1
102
RTVSPost2010PropOp30
 70
     1
102
RTVSPost2010Prop31
280
     0
102
RTVSPost2010PropOp31
 70
     1
102
RTVSPost2010Prop32
280
     0
102
RTVSPost2010PropOp32
 70
     1
102
RTVSPost2010Prop33
280
     0
102
RTVSPost2010PropOp33
 70
     1
102
RTVSPost2010Prop34
280
     0
102
RTVSPost2010PropOp34
 70
     1
102
RTVSPost2010Prop35
280
     0
102
RTVSPost2010PropOp35
 70
     1
102
RTVSPost2010Prop36
280
     0
102
RTVSPost2010PropOp36
 70
     1
102
RTVSPost2010Prop37
 90
       50
102
RTVSPost2010PropOp37
 70
     1
102
RTVSPost2010Prop38
140
0.0
102
RTVSPost2010PropOp38
 70
     1
102
RTVSPost2010Prop39
140
1.0
102
RTVSPost2010PropOp39
 70
     1
102
RTVSPost2010Prop40
 90
        0
102
RTVSPost2010PropOp40
 70
     1
102
RTVSPost2010Prop41ColorIndex
 90
       18
102
RTVSPost2010Prop41ColorRGB
 90
        0
102
RTVSPost2010PropOp41
 70
     1
102
RTVSPost2010Prop42
 90
       50
102
RTVSPost2010PropOp42
 70
     1
102
RTVSPost2010Prop43
 90
        3
102
RTVSPost2010PropOp43
 70
     1
102
RTVSPost2010Prop44ColorIndex
 90
        5
102
RTVSPost2010Prop44ColorRGB
 90
      255
102
RTVSPost2010PropOp44
 70
     1
102
RTVSPost2010Prop45
280
     0
102
RTVSPost2010PropOp45
 70
     1
102
RTVSPost2010Prop46
 90
       50
102
RTVSPost2010PropOp46
 70
     1
102
RTVSPost2010Prop47
 90
       50
102
RTVSPost2010PropOp47
 70
     1
102
RTVSPost2010Prop48
 90
       50
102
RTVSPost2010PropOp48
 70
     1
102
RTVSPost2010Prop49
280
     0
102
RTVSPost2010PropOp49
 70
     1
102
RTVSPost2010Prop50
 90
       50
102
RTVSPost2010PropOp50
 70
     1
102
RTVSPost2010Prop51ColorIndex
 90
      256
102
RTVSPost2010Prop51ColorRGB
 90
-16777216
102
RTVSPost2010PropOp51
 70
     0
102
RTVSPost2010Prop52
140
1.0
102
RTVSPost2010PropOp52
 70
     0
102
RTVSPost2010Prop53
 90
        2
102
RTVSPost2010PropOp53
 70
     1
102
RTVSPost2010Prop54
  1
strokes_ogs.tif
102
RTVSPost2010PropOp54
 70
     1
102
RTVSPost2010Prop55
280
     0
102
RTVSPost2010PropOp55
 70
     1
102
RTVSPost2010Prop56
140
1.0
102
RTVSPost2010PropOp56
 70
     1
102
RTVSPost2010Prop57
140
1.0
102
RTVSPost2010PropOp57
 70
     1
  0
XRECORD
  5
180B
102
{ACAD_REACTORS
330
180A
102
}
330
180A
100
AcDbXrecord
280
     1
102
RTVSPropertyOp0
 70
     1
102
RTVSPropertyOp1
 70
     1
102
RTVSPropertyOp2
 70
     1
102
RTVSPropertyOp3
 70
     1
102
RTVSPropertyOp4
 70
     1
102
RTVSPropertyOp5
 70
     1
102
RTVSPropertyOp6
 70
     1
102
RTVSPropertyOp7
 70
     1
102
RTVSPropertyOp8
 70
     1
102
RTVSPropertyOp9
 70
     1
102
RTVSPropertyOp10
 70
     1
102
RTVSPropertyOp11
 70
     1
102
RTVSPropertyOp12
 70
     1
102
RTVSPropertyOp13
 70
     1
102
RTVSPropertyOp14
 70
     1
102
RTVSPropertyOp15
 70
     1
102
RTVSPropertyOp16
 70
     1
102
RTVSPropertyOp17
 70
     1
102
RTVSPropertyOp18
 70
     1
102
RTVSPropertyOp19
 70
     1
102
RTVSPropertyOp20
 70
     1
102
RTVSPropertyOp21
 70
     1
102
RTVSPropertyOp22
 70
     1
102
RTVSPropertyOp23
 70
     1
102
RTVSPropertyOp24
 70
     1
102
RTVSPropertyOp25
 70
     1
102
RTVSPropertyOp26
 70
     1
102
RTVSPropertyOp27
 70
     1
102
RTVSPropertyOp28
 70
     1
102
RTVSPropertyOp29
 70
     1
102
RTVSPropertyOp30
 70
     1
102
RTVSPropertyOp31
 70
     1
102
RTVSPropertyOp32
 70
     1
102
RTVSPropertyOp33
 70
     1
102
RTVSPropertyOp34
 70
     1
102
RTVSPropertyOp35
 70
     1
102
RTVSPropertyOp36
 70
     1
102
RTVSPropertyOp37
 70
     1
102
RTVSPropertyOp38
 70
     1
102
RTVSPropertyOp39
 70
     1
102
RTVSPropertyOp40
 70
     1
102
RTVSPropertyOp41
 70
     1
102
RTVSPropertyOp42
 70
     1
102
RTVSPropertyOp43
 70
     1
102
RTVSPropertyOp44
 70
     1
102
RTVSPropertyOp45
 70
     1
102
RTVSPropertyOp46
 70
     1
102
RTVSPropertyOp47
 70
     1
102
RTVSPropertyOp48
 70
     1
102
RTVSPropertyOp49
 70
     1
102
RTVSPropertyOp50
 70
     1
102
RTVSPropertyOp51
 70
     0
102
RTVSPropertyOp52
 70
     0
102
RTVSPropertyOp53
 70
     1
102
RTVSPropertyOp54
 70
     1
102
RTVSPropertyOp55
 70
     1
102
RTVSPropertyOp56
 70
     1
102
RTVSPropertyOp57
 70
     1
102
RTVSPost2010Prop28
280
     0
102
RTVSPost2010PropOp28
 70
     1
102
RTVSPost2010Prop29
280
     1
102
RTVSPost2010PropOp29
 70
     1
102
RTVSPost2010Prop30
280
     1
102
RTVSPost2010PropOp30
 70
     1
102
RTVSPost2010Prop31
280
     0
102
RTVSPost2010PropOp31
 70
     1
102
RTVSPost2010Prop32
280
     0
102
RTVSPost2010PropOp32
 70
     1
102
RTVSPost2010Prop33
280
     0
102
RTVSPost2010PropOp33
 70
     1
102
RTVSPost2010Prop34
280
     0
102
RTVSPost2010PropOp34
 70
     1
102
RTVSPost2010Prop35
280
     0
102
RTVSPost2010PropOp35
 70
     1
102
RTVSPost2010Prop36
280
     0
102
RTVSPost2010PropOp36
 70
     1
102
RTVSPost2010Prop37
 90
       50
102
RTVSPost2010PropOp37
 70
     1
102
RTVSPost2010Prop38
140
0.0
102
RTVSPost2010PropOp38
 70
     1
102
RTVSPost2010Prop39
140
1.0
102
RTVSPost2010PropOp39
 70
     1
102
RTVSPost2010Prop40
 90
        0
102
RTVSPost2010PropOp40
 70
     1
102
RTVSPost2010Prop41ColorIndex
 90
       18
102
RTVSPost2010Prop41ColorRGB
 90
        0
102
RTVSPost2010PropOp41
 70
     1
102
RTVSPost2010Prop42
 90
       50
102
RTVSPost2010PropOp42
 70
     1
102
RTVSPost2010Prop43
 90
        3
102
RTVSPost2010PropOp43
 70
     1
102
RTVSPost2010Prop44ColorIndex
 90
        5
102
RTVSPost2010Prop44ColorRGB
 90
      255
102
RTVSPost2010PropOp44
 70
     1
102
RTVSPost2010Prop45
280
     0
102
RTVSPost2010PropOp45
 70
     1
102
RTVSPost2010Prop46
 90
       50
102
RTVSPost2010PropOp46
 70
     1
102
RTVSPost2010Prop47
 90
       50
102
RTVSPost2010PropOp47
 70
     1
102
RTVSPost2010Prop48
 90
       50
102
RTVSPost2010PropOp48
 70
     1
102
RTVSPost2010Prop49
280
     0
102
RTVSPost2010PropOp49
 70
     1
102
RTVSPost2010Prop50
 90
       50
102
RTVSPost2010PropOp50
 70
     1
102
RTVSPost2010Prop51ColorIndex
 90
      256
102
RTVSPost2010Prop51ColorRGB
 90
-16777216
102
RTVSPost2010PropOp51
 70
     0
102
RTVSPost2010Prop52
140
1.0
102
RTVSPost2010PropOp52
 70
     0
102
RTVSPost2010Prop53
 90
        2
102
RTVSPost2010PropOp53
 70
     1
102
RTVSPost2010Prop54
  1
strokes_ogs.tif
102
RTVSPost2010PropOp54
 70
     1
102
RTVSPost2010Prop55
280
     0
102
RTVSPost2010PropOp55
 70
     1
102
RTVSPost2010Prop56
140
1.0
102
RTVSPost2010PropOp56
 70
     1
102
RTVSPost2010Prop57
140
1.0
102
RTVSPost2010PropOp57
 70
     1
  0
XRECORD
  5
180D
102
{ACAD_REACTORS
330
180C
102
}
330
180C
100
AcDbXrecord
280
     1
102
RTVSPropertyOp0
 70
     1
102
RTVSPropertyOp1
 70
     1
102
RTVSPropertyOp2
 70
     1
102
RTVSPropertyOp3
 70
     1
102
RTVSPropertyOp4
 70
     1
102
RTVSPropertyOp5
 70
     1
102
RTVSPropertyOp6
 70
     1
102
RTVSPropertyOp7
 70
     1
102
RTVSPropertyOp8
 70
     1
102
RTVSPropertyOp9
 70
     1
102
RTVSPropertyOp10
 70
     1
102
RTVSPropertyOp11
 70
     1
102
RTVSPropertyOp12
 70
     1
102
RTVSPropertyOp13
 70
     1
102
RTVSPropertyOp14
 70
     1
102
RTVSPropertyOp15
 70
     1
102
RTVSPropertyOp16
 70
     1
102
RTVSPropertyOp17
 70
     1
102
RTVSPropertyOp18
 70
     1
102
RTVSPropertyOp19
 70
     1
102
RTVSPropertyOp20
 70
     1
102
RTVSPropertyOp21
 70
     1
102
RTVSPropertyOp22
 70
     1
102
RTVSPropertyOp23
 70
     1
102
RTVSPropertyOp24
 70
     1
102
RTVSPropertyOp25
 70
     1
102
RTVSPropertyOp26
 70
     1
102
RTVSPropertyOp27
 70
     1
102
RTVSPropertyOp28
 70
     1
102
RTVSPropertyOp29
 70
     1
102
RTVSPropertyOp30
 70
     1
102
RTVSPropertyOp31
 70
     1
102
RTVSPropertyOp32
 70
     1
102
RTVSPropertyOp33
 70
     1
102
RTVSPropertyOp34
 70
     1
102
RTVSPropertyOp35
 70
     1
102
RTVSPropertyOp36
 70
     1
102
RTVSPropertyOp37
 70
     1
102
RTVSPropertyOp38
 70
     1
102
RTVSPropertyOp39
 70
     1
102
RTVSPropertyOp40
 70
     1
102
RTVSPropertyOp41
 70
     1
102
RTVSPropertyOp42
 70
     1
102
RTVSPropertyOp43
 70
     1
102
RTVSPropertyOp44
 70
     1
102
RTVSPropertyOp45
 70
     1
102
RTVSPropertyOp46
 70
     1
102
RTVSPropertyOp47
 70
     1
102
RTVSPropertyOp48
 70
     1
102
RTVSPropertyOp49
 70
     1
102
RTVSPropertyOp50
 70
     1
102
RTVSPropertyOp51
 70
     0
102
RTVSPropertyOp52
 70
     0
102
RTVSPropertyOp53
 70
     1
102
RTVSPropertyOp54
 70
     1
102
RTVSPropertyOp55
 70
     1
102
RTVSPropertyOp56
 70
     1
102
RTVSPropertyOp57
 70
     1
102
RTVSPost2010Prop28
280
     0
102
RTVSPost2010PropOp28
 70
     1
102
RTVSPost2010Prop29
280
     1
102
RTVSPost2010PropOp29
 70
     1
102
RTVSPost2010Prop30
280
     1
102
RTVSPost2010PropOp30
 70
     1
102
RTVSPost2010Prop31
280
     0
102
RTVSPost2010PropOp31
 70
     1
102
RTVSPost2010Prop32
280
     0
102
RTVSPost2010PropOp32
 70
     1
102
RTVSPost2010Prop33
280
     0
102
RTVSPost2010PropOp33
 70
     1
102
RTVSPost2010Prop34
280
     0
102
RTVSPost2010PropOp34
 70
     1
102
RTVSPost2010Prop35
280
     0
102
RTVSPost2010PropOp35
 70
     1
102
RTVSPost2010Prop36
280
     0
102
RTVSPost2010PropOp36
 70
     1
102
RTVSPost2010Prop37
 90
       50
102
RTVSPost2010PropOp37
 70
     1
102
RTVSPost2010Prop38
140
0.0
102
RTVSPost2010PropOp38
 70
     1
102
RTVSPost2010Prop39
140
1.0
102
RTVSPost2010PropOp39
 70
     1
102
RTVSPost2010Prop40
 90
        0
102
RTVSPost2010PropOp40
 70
     1
102
RTVSPost2010Prop41ColorIndex
 90
       18
102
RTVSPost2010Prop41ColorRGB
 90
        0
102
RTVSPost2010PropOp41
 70
     1
102
RTVSPost2010Prop42
 90
       50
102
RTVSPost2010PropOp42
 70
     1
102
RTVSPost2010Prop43
 90
        3
102
RTVSPost2010PropOp43
 70
     1
102
RTVSPost2010Prop44ColorIndex
 90
        5
102
RTVSPost2010Prop44ColorRGB
 90
      255
102
RTVSPost2010PropOp44
 70
     1
102
RTVSPost2010Prop45
280
     0
102
RTVSPost2010PropOp45
 70
     1
102
RTVSPost2010Prop46
 90
       50
102
RTVSPost2010PropOp46
 70
     1
102
RTVSPost2010Prop47
 90
       50
102
RTVSPost2010PropOp47
 70
     1
102
RTVSPost2010Prop48
 90
       50
102
RTVSPost2010PropOp48
 70
     1
102
RTVSPost2010Prop49
280
     0
102
RTVSPost2010PropOp49
 70
     1
102
RTVSPost2010Prop50
 90
       50
102
RTVSPost2010PropOp50
 70
     1
102
RTVSPost2010Prop51ColorIndex
 90
      256
102
RTVSPost2010Prop51ColorRGB
 90
-16777216
102
RTVSPost2010PropOp51
 70
     0
102
RTVSPost2010Prop52
140
1.0
102
RTVSPost2010PropOp52
 70
     0
102
RTVSPost2010Prop53
 90
        2
102
RTVSPost2010PropOp53
 70
     1
102
RTVSPost2010Prop54
  1
strokes_ogs.tif
102
RTVSPost2010PropOp54
 70
     1
102
RTVSPost2010Prop55
280
     0
102
RTVSPost2010PropOp55
 70
     1
102
RTVSPost2010Prop56
140
1.0
102
RTVSPost2010PropOp56
 70
     1
102
RTVSPost2010Prop57
140
1.0
102
RTVSPost2010PropOp57
 70
     1
  0
ACAD_PROXY_OBJECT
  5
1790
330
178E
100
AcDbProxyObject
 90
      499
 91
      511
 95
   524319
 70
     0
 96
    28904
311
90247004200A43168015C013401300164017C015001200124010C012C00C001056E8FD35E9E5BBF7E425CAAA42968015C013401300164017C01500120012401380103C67EBF7E425CAAA43168015C013401300164017C010C0114013801500114014801042D4EC35FBF7E425CAAA43168015C013401300164017C011001040
311
14C01200114011001035A86BF7E425CAAA42D68015C013401300164017C012001040150010C0120010456526297BF7E425CAAA42968015C013401300164017C015001140160015001058765575B0768E86C425CAAA43168015C013401300164017C01100124013401340114013801053A5CF85B0768E86C425CAAA42968015
311
C013401300164017C013401040148012C01057651835B0768E86C425CAAA43168015C013401300164017C0110012401580124011001140105CC53B9703B75BF7E425CAAA43168015C013401300164017C015001200124010C012C00C401056E8FD35E5A86BF7E425CAAA44168015C013401300164017C01400104014001140
311
148011801480104013401140103FE564668425CAAA42968015C013401300164017C01200124011001140103886D9096425CAAA42968015C013401300164017C01400130013C015001039263FE56425CAAA44168015C013401300164017C0104014C014C0124014C015001040138015000C4010628753762EA819A5B494E310
311
0AAA44168015C013401300164017C0104014C014C0124014C015001040138015000C8010628753762EA819A5B494E3200AAA44168015C013401300164017C0104014C014C0124014C015001040138015000CC010628753762EA819A5B494E3300AAA42568015C013401300164017C01100124013401050768E86C267BF7534
311
25CAAA43968015C013401300164017C011001240134017C015001140160015001050768E86C8765575B425CAAA44168015C013401300164017C011001240134017C01300114010401100114014801060768E86C8476155FBF7E425CAAA43D68015C013401300164017C011001240134017C010401480148013C015C0106076
311
8E86C8476AD7B3459425CAAA43568015C013401300164017C0108010401300130013C013C0138010503740768267BF753425CAAA44968015C013401300164017C0108010401300130013C013C0138017C01500114016001500105037407688765575B425CAAA45168015C013401300164017C0108010401300130013C013C0
311
138017C0130011401040110011401480106037407688476155FBF7E425CAAA44D68015C013401300164017C0108010401300130013C013C0138017C010401480148013C015C0106037407688476AD7B3459425CAAA43568015C013401300164017C014C015401480118014C016401340106977CD97CA65E267BF753425CAAA
311
44968015C013401300164017C014C015401480118014C01640134017C01500114016001500106977CD97CA65E8765575B425CAAA45168015C013401300164017C014C015401480118014C01640134017C0130011401040110011401480107977CD97CA65E8476155FBF7E425CAAA44D68015C013401300164017C014C01540
311
1480118014C01640134017C010401480148013C015C0107977CD97CA65E8476AD7B3459425CAAA42968015C013401300164017C0138013C0150011401080763155FBF7EE86CCA91267BF753425CAAA43D68015C013401300164017C0138013C01500114017C015001140160015001080763155FBF7EE86CCA918765575B425
311
CAAA44568015C013401300164017C0138013C01500114017C01300114010401100114014801090763155FBF7EE86CCA918476155FBF7E425CAAA44168015C013401300164017C0138013C01500114017C010401480148013C015C01090763155FBF7EE86CCA918476AD7B3459425CAAA43568015C013401300164017C01180
311
10C011801480104013401140107625F4D4F6C51EE5D267BF753425CAAA44968015C013401300164017C0118010C01180148010401340114017C01500114016001500107625F4D4F6C51EE5D8765575B425CAAA45168015C013401300164017C0118010C01180148010401340114017C0130011401040110011401480108625
311
F4D4F6C51EE5D8476155FBF7E425CAAA44D68015C013401300164017C0118010C01180148010401340114017C010401480148013C015C0108625F4D4F6C51EE5D8476AD7B3459425CAAA43568015C013401300164017C01100104015001540134012401100107FA57C65107683A79267BF753425CAAA44968015C013401300
311
164017C0110010401500154013401240110017C01500114016001500107FA57C65107683A798765575B425CAAA45168015C013401300164017C0110010401500154013401240110017C0130011401040110011401480108FA57C65107683A798476155FBF7E425CAAA44D68015C013401300164017C0110010401500154013
311
401240110017C010401480148013C015C0108FA57C65107683A798476AD7B3459425CAAA45168015C013401300164017C010C013C0138014C015001480154010C0150017C0130012401380114010584672090BF7EBF7E425CAAAAAAAA44D68015C013401300164017C0110010401500154013401240110017C010401480148
311
013C015C01063800267BF7530768E86C425C44968015C013401300164017C0110010401500154013401240110017C0150011401600150010436008765575B425C44D68015C013401300164017C0108010401300130013C013C0138017C010401480148013C015C01063800267BF7530768E86C425C44168015C01340130016
311
4017C0104014C014C0124014C015001040138015000CC010628753762EA819A5B494E330044168015C013401300164017C0104014C014C0124014C015001040138015000C8010628753762EA819A5B494E320044168015C013401300164017C0104014C014C0124014C015001040138015000C4010628753762EA819A5B494
311
E310044168015C013401300164017C0138013C01500114017C010401480148013C015C01063800267BF7530768E86C425C45168015C013401300164017C0108010401300130013C013C0138017C01300114010401100114014801063800267BF7530768E86C425C43568015C013401300164017C0108010401300130013C01
311
3C0138010631006E8FD35E9E5BBF7E425C44D68015C013401300164017C0118010C01180148010401340114017C010401480148013C015C01063800267BF7530768E86C425C43168015C013401300164017C011001240134013401140138010437000768E86C425C42968015C013401300164017C0138013C0150011401063
311
1006E8FD35E9E5BBF7E425C44168015C013401300164017C011001240134017C01300114010401100114014801043200C67EBF7E425C43168015C013401300164017C01100124015801240110011401063900CC53B9701252BF7E425C44968015C013401300164017C0118010C01180148010401340114017C015001140160
311
0150010436008765575B425C43168015C013401300164017C010C01140138015001140148010533002D4EC35FBF7E425C44968015C013401300164017C014C015401480118014C01640134017C0150011401600150010436008765575B425C43568015C013401300164017C0118010C01180148010401340114010631006E8
311
FD35E9E5BBF7E425C43D68015C013401300164017C011001240134017C010401480148013C015C01043200C67EBF7E425C43168015C013401300164017C015001200124010C012C00C401056E8FD35E5A86BF7E425C42968015C013401300164017C0150011401600150010436008765575B425C42968015C0134013001640
311
17C015001200124013801043200C67EBF7E425C43168015C013401300164017C015001200124010C012C00C0010631006E8FD35E9E5BBF7E425C45168015C013401300164017C0110010401500154013401240110017C01300114010401100114014801063800267BF7530768E86C425C44568015C013401300164017C0138
311
013C01500114017C01300114010401100114014801063800267BF7530768E86C425C44D68015C013401300164017C014C015401480118014C01640134017C010401480148013C015C01063800267BF7530768E86C425C42968015C013401300164017C013401040148012C01063800267BF7530768E86C425C43168015C013
311
401300164017C01100104014C012001140110010434005A86BF7E425C43568015C013401300164017C0110010401500154013401240110010631006E8FD35E9E5BBF7E425C45168015C013401300164017C0118010C01180148010401340114017C01300114010401100114014801063800267BF7530768E86C425C4296801
311
5C013401300164017C01400130013C015001039263FE56425C43568015C013401300164017C014C015401480118014C01640134010631006E8FD35E9E5BBF7E425C43D68015C013401300164017C0138013C01500114017C0150011401600150010436008765575B425C45168015C013401300164017C014C0154014801180
311
14C01640134017C01300114010401100114014801063800267BF7530768E86C425C45168015C013401300164017C010C013C0138014C015001480154010C0150017C013001240138011401063900CC53B9701252BF7E425C43968015C013401300164017C011001240134017C0150011401600150010436008765575B425C4
311
4168015C013401300164017C01400104014001140148011801480104013401140103FE564668425C44968015C013401300164017C0108010401300130013C013C0138017C0150011401600150010436008765575B425C42568015C013401300164017C01100124013401063800267BF7530768E86C425C42968015C0134013
311
00164017C01200124011001140103886D9096425C42D68015C013401300164017C012001040150010C01200105350056526297BF7E425CAAAA
 93
     3693
310
4052940608419000081002030420C800040801018210640002040080C108320001020040608419000081002030420C800040801018210640002040080C108320001020040608419000081002030420C800040801018210640002040080C108320001020040608419000081002030420C800040801018210640002040080C10
310
8320001020040608419000081002030420C800040801018210640002040080C108320001020040608419000081002030420C800040801018210640002040080C108320001020040608419000081002030420C800040801018210640002040080C108320001020040608419000081002030420C800040801018210640002040
310
080C108320001020040608419000081002030420C800040801018210640002040080C108320001020040608419000081002030420C800040801018210640002040080C108320001020040608419000081002037FFFFFFFFFFFFF801FFFE7FFF9FFFE7FFF9FFFE7FFF9FFFE7FFF9FFFFFFFE7FFFFFFF9FFFFFFFE7FFFFFFF9F
310
FFFFFFE7FFFFFFF9FFFFFFFE7FFFFFFFA0294FFFFFFFFFFFFFFFF9FFFE7FFF9FFFE7FFF9FFFE7FFF9FFFE7FFF9FFFFFFFE7FFFFFFF9FFFFFFFE7FFFFFFF9FFFFFFFE7FFFFFFF9FFFFFFFE7FFFFFFFD5550
340
0
340
0
340
0
340
0
340
0
340
0
340
0
340
0
340
0
340
0
340
0
340
0
340
0
340
0
340
0
340
0
 94
        0
  0
ACAD_PROXY_OBJECT
  5
17A2
330
178E
100
AcDbProxyObject
 90
      499
 91
      512
 95
   524319
 70
     0
 96
     6920
311
90247004200A44568015C01340150014C017C014C013C0138011C01500124017C013001240138011401055553BF7E8B5B534F575BAAA43168015C01340150014C017C014C013C0138011C0150012401038B5B534F575BAAA43968015C01340150014C017C011801040138011C014C013C0138011C0104FF4E8B5B534F575BA
311
AA42D68015C01340150014C017C012C010401240150012401037769534F575BAAA42D68015C01340150014C017C012001140124015001240103D19E534F575BAAA42D68015C01340150014C017C01600124015C0114013801037F898765575BAAA43968015C01340150014C017C014C01640134017C0150011401600150010
311
7267BF7532D4E8765575B575B534FAAA43568015C01340150014C017C014C01640134017C011C01100150010B267BF7532D4E267BF7537B7C8B578765575B575B534FAAA44568015C01340150014C017C01500114010C012001480114014401540114014C0150010B80622F678189426C009781898476575B534F37680F5FA
311
AAAAAAA42D68015C01340150014C017C012C0104012401500124010D500043005F0054004500580054005300540059004C004500320043968015C01340150014C017C014C01640134017C0150011401600150010C500043005F0054004500580054005300540059004C00450043168015C01340150014C017C014C013C0138
311
011C01500124010C500043005F0054004500580054005300540059004C00450044568015C01340150014C017C01500114010C012001480114014401540114014C0150010D500043005F0054004500580054005300540059004C004500340042D68015C01340150014C017C01600124015C01140138010D500043005F005400
311
4500580054005300540059004C004500340042D68015C01340150014C017C01200114012401500124010D500043005F0054004500580054005300540059004C004500330044568015C01340150014C017C014C013C0138011C01500124017C0130012401380114010C500043005F0054004500580054005300540059004C00
311
450043568015C01340150014C017C014C01640134017C011C0110015001085A005700490053004F0047004400540043968015C01340150014C017C011801040138011C014C013C0138011C010C500043005F0054004500580054005300540059004C004500AAAA
 93
     1613
310
4050940608419000081002030420C800040801018210640002040080C108320001020040608419000081002030420C800040801018210640002040080C108320001020040608419000081002037FFFFFFFFFFFFF801FFFE7FFF9FFFE7FFF9FFFE7FFF9FFFE7FFF9FFFFFFFE7FFFFFFF9FFFFFFFE7FFFFFFF9FFFFFFFE7FFFF
310
FFF9FFFFFFFE7FFFFFFFA0284FFFFFFFFFFFFFFFF9FFFE7FFF9FFFE7FFF9FFFE7FFF9FFFE7FFF9FFFFFFFE7FFFFFFF9FFFFFFFE7FFFFFFF9FFFFFFFE7FFFFFFF9FFFFFFFE7FFFFFFFD5550
340
0
340
0
340
0
340
0
340
0
340
0
340
0
340
0
340
0
340
0
340
0
340
0
340
0
340
0
340
0
340
0
 94
        0
  0
ACAD_PROXY_OBJECT
  5
17A9
330
178E
100
AcDbProxyObject
 90
      499
 91
      513
 95
   524319
 70
     0
 96
     4868
311
90247004200A43568015C013401300150017C010801640130010401640114014801028F96425CAAA42968015C013401300150017C013001240138011401029E5BBF7EAAA43168015C013401300150017C01100104014C01200114011001025A86BF7EAAA43168015C013401300150017C010C0114013801500114014801032
311
D4EC35FBF7EAAA43568015C013401300150017C01400120010401380150013C01340104CC53B9701252BF7EAAA42D68015C013401300150017C0108014801140104012C0103AD65C288BF7EAAA42968015C013401300150017C015C0104015801140103E26C6A6DBF7EAAA43168015C013401300150017C01680124011C016
311
80104011C01032F957F9FBF7EAAAAAAAA43568015C013401300150017C01400120010401380150013C013401087000680061006E0074006F006D00340043568015C013401300150017C0108016401300104016401140148010A63006F006E00740069006E0075006F007500730043168015C013401300150017C0168012401
311
1C01680104011C010861006D007A00690067007A006100670042D68015C013401300150017C0108014801140104012C01065A00490047005A004100470043168015C013401300150017C010C011401380150011401480107630065006E00740065007200380042968015C013401300150017C0130012401380114010A63006
311
F006E00740069006E0075006F007500730042968015C013401300150017C015C010401580114010A63006F006E00740069006E0075006F007500730043168015C013401300150017C01100104014C0120011401100106440061007300680065006400AAAA0
 93
     1548
310
4050840608419000081002030420C800040801018210640002040080C108320001020040608419000081002030420C800040801018210640002040080C1083200010200406FFFFFFFFFFFFFF003FFFCFFFF3FFFCFFFF3FFFCFFFF3FFFCFFFF3FFFFFFFCFFFFFFFF3FFFFFFFCFFFFFFFF3FFFFFFFCFFFFFFFF3FFFFFFFCFFFF
310
FFFF40508FFFFFFFFFFFFFFFF3FFFCFFFF3FFFCFFFF3FFFCFFFF3FFFCFFFF3FFFFFFFCFFFFFFFF3FFFFFFFCFFFFFFFF3FFFFFFFCFFFFFFFF3FFFFFFFCFFFFFFFFAAAA0
340
0
340
0
340
0
340
0
340
0
340
0
340
0
340
0
340
0
340
0
340
0
340
0
340
0
340
0
340
0
340
0
 94
        0
  0
ACAD_PROXY_OBJECT
  5
17AA
330
178E
100
AcDbProxyObject
 90
      499
 91
      514
 95
   524319
 70
     0
 96
     6424
311
90247004200A42968015C01340110014C017C013401040124013801063B4EA7630768E86C37680F5FAAA43168015C01340110014C017C0130012401380114010401480106BF7E27600768E86C37680F5FAAA43968015C01340110014C017C011001240104013401140150011401480106F476845F0768E86C37680F5FAAA43
311
168015C01340110014C017C01480104011001240104013001064A53845F0768E86C37680F5FAAA43168015C01340110014C017C01040148010C0130011401380106275F7F950768E86C37680F5FAAA43168015C01340110014C017C0130011401040110011401480106155FBF7E0768E86C37680F5FAAA43968015C0134011
311
0014C017C013C01480110012401380104015001140106505707680768E86C37680F5FAAA43568015C01340110014C017C01040138011C01540130010401480106D289A65E0768E86C37680F5FAAA43568015C01340110014C017C0108010401300130013C013C01380106F64EF7530768E86C37680F5FAAAAAAAA43968015C
311
01340110014C017C013C0148011001240138010401500114010B470042005F004F005200440049004E0041005400450043568015C01340110014C017C01040138011C0154013001040148010A470042005F0041004E00470055004C004100520043968015C01340110014C017C01100124010401340114015001140148010B
311
470042005F004400490041004D00450054004500520043168015C01340110014C017C01040148010C0130011401380109470042005F004C0049004E0045004100520043568015C01340110014C017C0108010401300130013C013C0138010A470042005F00420041004C004C004F004F004E0043168015C01340110014C017
311
C0130012401380114010401480109470042005F004C0049004E0045004100520043168015C01340110014C017C0130011401040110011401480109470042005F004C004500410044004500520042968015C01340110014C017C0134010401240138010B470042005F00440049004D005300540059004C00450043168015C01
311
340110014C017C0148010401100124010401300109470042005F00520041004400490041004C00AAAA
 93
     1770
310
4050940608419000081002030420C800040801018210640002040080C108320001020040608419000081002030420C800040801018210640002040080C108320001020040608419000081002037FFFFFFFFFFFFF801FFFE7FFF9FFFE7FFF9FFFE7FFF9FFFE7FFF9FFFFFFFE7FFFFFFF9FFFFFFFE7FFFFFFF9FFFFFFFE7FFFF
310
FFF9FFFFFFFE7FFFFFFFA028550000000000000A1000000000000000840405427FFFFFFFFFFFFFFFCFFFF3FFFCFFFF3FFFCFFFF3FFFCFFFF3FFFCFFFFFFFF3FFFFFFFCFFFFFFFF3FFFFFFFCFFFFFFFF3FFFFFFFCFFFFFFFF3FFFFFFFEAAA80
340
0
340
0
340
0
340
0
340
0
340
0
340
0
340
0
340
0
340
0
340
0
340
0
340
0
340
0
340
0
340
0
 94
        0
  0
ACAD_PROXY_OBJECT
  5
17B3
330
178E
100
AcDbProxyObject
 90
      499
 91
      515
 95
   524319
 70
     0
 96
    16812
311
90247004200A43568015C0134010C0130017C0108016401080130013C010C012C01028F965757AAA43568015C0134010C0130017C010801640130010401640114014801028F96425CAAA42D68015C0134010C0130017C010801300104010C012C0102D19E7282AAA43168015C0134010C0130017C0164011401300130013C0
311
15C0102C49E7282AAA42D68015C0134010C0130017C011C01480114011401380102FF7E7282AAA42968015C0134010C0130017C01080130015401140102DD847282AAA42D68015C0134010C0130017C015C012001240150011401027D767282AAA42568015C0134010C0130017C0148011401100102A27E7282AAA42968015
311
C0134010C0130017C010C016401040138010252977282AAA42968015C0134010C0130017C0150011401600150010287652C67AAA43568015C0134010C0130017C011001240134015001140160015001040768E86C87652C67AAA42568015C0134010C0130017C01100124013401020768E86CAAA43968015C0134010C01300
311
17C011001240134010401480148013C015C01040768E86CAD7B3459AAA43D68015C0134010C0130017C01100124013401300114010401100114014801040768E86C155FBF7EAAA44D68015C0134010C0130017C0110012401340150011401600150017C014C013401040130013001070768E86C8765575B28000F5C2900AAA
311
45168015C0134010C0130017C0110012401340150011401600150017C01340114011001240154013401070768E86C8765575B28002D4E2900AAA44D68015C0134010C0130017C0110012401340150011401600150017C013001040148011C011401070768E86C8765575B280027592900AAA45D68015C0134010C0130017C0
311
110012401340150011401600150017C0158011401480164013001040148011C011401080768E86C8765575B2800797227592900AAA42968015C0134010C0130017C01100124013400C401080A711D7FC68B2B52BF7E84769C987282AAA42968015C0134010C0130017C01100124013400C80106EE764D5282662A672875305
311
2AAA42968015C0134010C0130017C01100124013400CC0106EE764D5282662A6728753052AAA42968015C0134010C0130017C01100124013400D00106EE764D5282662A6728753052AAA42968015C0134010C0130017C01100124013400D40106EE764D5282662A6728753052AAA42968015C0134010C0130017C011001240
311
13400D80106EE764D5282662A6728753052AAA42D68015C0134010C0130017C015001140160015000C40106EE764D5282662A6728753052AAA42D68015C0134010C0130017C015001140160015000C80106EE764D5282662A6728753052AAA42D68015C0134010C0130017C015001140160015000CC0106EE764D5282662A6
311
728753052AAA42D68015C0134010C0130017C015001140160015000D00106EE764D5282662A6728753052AAA42D68015C0134010C0130017C015001140160015000D40106EE764D5282662A6728753052AAA42D68015C0134010C0130017C015001140160015000D80106EE764D5282662A6728753052AAAAAAAA42968015C
311
0134010C0130017C010C01640104013801023100300042968015C0134010C0130017C01080130015401140101340043568015C0134010C0130017C0110012401340150011401600150010332003500360043568015C0134010C0130017C0108016401080130013C010C012C0101300045D68015C0134010C0130017C011001
311
2401340150011401600150017C0158011401480164013001040148011C0114010332003500360043168015C0134010C0130017C0164011401300130013C015C0101320044D68015C0134010C0130017C0110012401340150011401600150017C014C0134010401300130010332003500360042D68015C0134010C0130017C0
311
11C01480114011401380101330042D68015C0134010C0130017C015001140160015000C8010332003500360042D68015C0134010C0130017C015001140160015000CC010332003500360042968015C0134010C0130017C01500114016001500101310042D68015C0134010C0130017C010801300104010C012C01023100300
311
045168015C0134010C0130017C0110012401340150011401600150017C013401140110012401540134010332003500360042D68015C0134010C0130017C015C01200124015001140101370042D68015C0134010C0130017C015001140160015000C4010332003500360042968015C0134010C0130017C01100124013400D80
311
10332003500360042968015C0134010C0130017C01100124013400D4010332003500360042968015C0134010C0130017C01100124013400D0010332003500360042968015C0134010C0130017C01100124013400CC010332003500360042968015C0134010C0130017C01100124013400C8010332003500360042968015C01
311
34010C0130017C01100124013400C4010332003500360042568015C0134010C0130017C011001240134010332003500360042D68015C0134010C0130017C015001140160015000D8010332003500360043968015C0134010C0130017C011001240134010401480148013C015C010332003500360042D68015C0134010C0130
311
017C015001140160015000D0010332003500360044D68015C0134010C0130017C0110012401340150011401600150017C013001040148011C0114010332003500360042568015C0134010C0130017C01480114011001023100370042D68015C0134010C0130017C015001140160015000D4010332003500360043D68015C01
311
34010C0130017C011001240134013001140104011001140148010332003500360043568015C0134010C0130017C01080164013001040164011401480103320035003600AAAA0
 93
     2978
310
4051E40608419000081002030420C800040801018210640002040080C108320001020040608419000081002030420C800040801018210640002040080C108320001020040608419000081002030420C800040801018210640002040080C108320001020040608419000081002030420C800040801018210640002040080C10
310
8320001020040608419000081002030420C800040801018210640002040080C108320001020040608419000081002030420C800040801018210640002040080C108320001020040608419000081002030420C800040801018210640002040080C108320001020040608419000081002030420C80004080101BFFFFFFFFFFFF
310
FC00FFFF3FFFCFFFF3FFFCFFFF3FFFCFFFF3FFFCFFFFFFFF3FFFFFFFCFFFFFFFF3FFFFFFFCFFFFFFFF3FFFFFFFCFFFFFFFF3FFFFFFFD0147BFFFFFFFFFFFFFFFCFFFF3FFFCFFFF3FFFCFFFF3FFFCFFFF3FFFCFFFFFFFF3FFFFFFFCFFFFFFFF3FFFFFFFCFFFFFFFF3FFFFFFFCFFFFFFFF3FFFFFFFEAAA80
340
0
340
0
340
0
340
0
340
0
340
0
340
0
340
0
340
0
340
0
340
0
340
0
340
0
340
0
340
0
340
0
 94
        0
  0
ACAD_PROXY_OBJECT
  5
17B4
330
178E
100
AcDbProxyObject
 90
      499
 91
      516
 95
   524319
 70
     0
 96
      414
311
90247004200A4091C0108010247004200AAAAAAAA4091C01080102470042004091C0108024191C010800B801E001B401B002AAA8
 93
     2410
310
406406FFFFFFFFFFFFFF003FFFCFFFF3FFFCFFFF3FFFCFFFF3FFFCFFFF3FFFFFFFCFFFFFFFF3FFFFFFFCFFFFFFFF3FFFFFFFCFFFFFFFF3FFFFFFFCFFFFFFFF407FFFFFFFFFFFFFFFCFFFF3FFFCFFFF3FFFCFFFF3FFFCFFFF3FFFCFFFFFFFF3FFFFFFFCFFFFFFFF3FFFFFFFCFFFFFFFF3FFFFFFFCFFFFFFFF3FFFFFFFEAAA90
310
140502548040000000000000C404FFFF3FFFCFFFF3FFFEAAA555000000000000031000000000000000C40000000000000031000000000000000C40000000000000031000000000000000C403FFFCFFFF3FFFCFFFF3FFFCFFFF3FFFCFFFF3FFFCFFFF3FFFCFFFFFFFFFFFFFFFFFFFF3FFFCFFFF3FFFCFFFF3FFFCFFFF3FFFCF
310
FFF3FFFFFFFCFFFFFFFF3FFFFFFFCFFFFFFFF3FFFFFFFCFFFFFFFF3FFFFFFFCFFFFFFFFAAAA9013F2A7C749358940FC0
340
0
340
0
340
0
340
0
340
0
340
0
340
0
340
0
340
0
340
0
340
0
340
0
340
0
340
0
340
0
340
0
340
0
340
0
340
0
340
0
340
0
340
0
340
0
340
0
340
0
340
0
340
0
340
0
340
0
340
0
340
0
 94
        0
  0
ACAD_PROXY_OBJECT
  5
17B5
330
178E
100
AcDbProxyObject
 90
      499
 91
      517
 95
   524319
 70
     0
 96
     2812
311
90247004200A4091C0108010247004200AAAAAAAA4091C01080102470042004091C0108024191C010800B801E001B401B0010332002E00350040CCC00B800D401013500404DC010231003000408C400D001023200300040CC800B800D4010333002E003500404D401013700408C400C0010231003400408C800C002AAA90D4
311
5006E00610062006C0065004500780070006C006F0064006500A907560054005F0042004F004F004C00A910530079006D005400650078007400530069007A00650052006100740069006F00A905560054005F0052003800A9055400610062006C006500415500184018801B0019401095400610062006C0065002E00640077
311
006700411100114011800C401044400450046003100421100114011800C400B8019001DC019C01085B00520045004C0050004F0053005D004516C0108010401300130013C013C0138017C0140010401480150017C010C013C0154013801500174020
 93
     3341
310
406406FFFFFFFFFFFFFF003FFFCFFFF3FFFCFFFF3FFFCFFFF3FFFCFFFF3FFFFFFFCFFFFFFFF3FFFFFFFCFFFFFFFF3FFFFFFFCFFFFFFFF3FFFFFFFCFFFFFFFF407FFFFFFFFFFFFFFFCFFFF3FFFCFFFF3FFFCFFFF3FFFCFFFF3FFFCFFFFFFFF3FFFFFFFCFFFFFFFF3FFFFFFFCFFFFFFFF3FFFFFFFCFFFFFFFF3FFFFFFFEAAA90
310
140502570068FFFF3FFFCFFFF3FFFE471174B6405034110541907421094290B4310D4390F4411144913451154591B4716359165599675A1695A96B5B16D5B96F5C1715C9735D1755D97890741D5540000000000000C40000000000000031000000000000000C40000000000000031000000000000000C40000000000000031
310
00FFFF3FFFCFFFF3FFFCFFFF3FFFCFFFF3FFFCFFFF3FFFCFFFF3FFFFFFFFFFFFFFFFFFFCFFFF3FFFCFFFF3FFFCFFFF3FFFCFFFF3FFFCFFFFFFFF3FFFFFFFCFFFFFFFF3FFFFFFFCFFFFFFFF3FFFFFFFCFFFFFFFF3FFFFFFFEAAA9024060859900008100480C1053200010200501405089014090341105419074090000000000
310
00010800000000000007C1F8000000000001F07E000000000000701F9353333333333927F0
340
0
340
0
340
0
340
0
340
0
340
0
340
0
340
0
340
0
340
0
340
0
340
0
340
0
340
0
340
0
340
0
340
0
340
0
340
0
340
0
340
0
340
0
340
0
340
0
340
0
340
0
340
0
340
0
340
0
340
0
340
0
340
0
 94
        0
  0
ACAD_PROXY_OBJECT
  5
17B6
330
178E
100
AcDbProxyObject
 90
      499
 91
      518
 95
   524319
 70
     0
 96
    18214
311
9044700420039003300A4111C010800E400CC01044700420039003300AAAAAAAA4111C010800E400CC010447004200390033004111C010800E400CC024211C010800E400CC00B801E001B401B0010332002E00350040CCC00B800D401013500404DC010231003000408C400D001023200300040CC800B800D4010333002E00
311
3500404D401013700408C400C0010231003400408C800C002AAA90847005F00560061006C00750065007300AAA94C3200350030003B003100360030003B003100300030003B00360033003B00340030003B00320035003B00310036003B00310030003B0036002E0033003B0034003B0032002E0035003B0031002E0036003
311
B0031003B0030002E00360033003B0030002E0034003B0030002E00320035003B0030002E00310036003B0030002E0031003B0030002E00300036003B0030002E00300034003B0042508017C015001BC01BC01B001D001A401C002AAA412814B9576E5943D7D0A410027005F0054006F006F006C00740069007000AAA90868
311
886297977CD97CA65E520061003C5041D04017C013001840188019401B002AAA40504010843005F00560061006C00750065007300AAA91730002E00300038003B0030002E00320035003B0030002E0038003B0032002E0035003B0038003B00320035003B0042104017C0158018401B001D4019401CC02AAA4C8D400C000EC
311
00C800D400EC00C400C800B800D400EC00D800B800CC00EC00CC00B800C800EC00C400B800D800EC00C000B800E000EC00C000B800D000EC00C000B800C800EC00C000B800C400EC00C000B800C000D400EC00C000B800C000C800D400EC0109430027005F00560061006C00750065007300AAA94C3200350030003B003100
311
360030003B003100300030003B00360033003B00340030003B00320035003B00310036003B00310030003B0036002E0033003B0034003B0032002E0035003B0031002E0036003B0031003B0030002E00360033003B0030002E0034003B0030002E00320035003B0030002E00310036003B0030002E0031003B0030002E0030
311
0036003B0030002E00300034003B004251C017C015001BC01BC01B001D001A401C002AAA421D9460D6E5DF365F29978019C3D70F1410A430027005F0054006F006F006C00740069007000AAA9067651835B977CD97CA65E3C504210C009C017C013001840188019401B002AAA4090C009C0108420027005F004C0061006200
311
65006C00AAA9024200270041D1C017C013001840188019401B002AAA4051C010745005F004C006100620065006C00AAA901450042114017C0158018401B001D4019401CC02AAA4409D64EC000138B208EC003D70EC02217C3D70EC020E3C3D70EC01D9460D6CEC0109420027005F00560061006C00750065007300AAA93E66
311
8F3B0057953B0028523B00BB943B00E3943B0009953B00E8783B00977C668F3B00977CF0943B00E3947F9F3B00C9623B00DA6E8B533B002E5231000DFF3200B9702F0063006D005E0032003B002E5233000DFF31003000B9702F0063006D005E0032003B00035E6E8FE8783B001478E8783B00858DA77EA052E55D42504009
311
C017C0158018401B001D4019401CC02AAA4C8D400C000EC00C800D400EC00C400C800B800D400EC00D800B800CC00EC00CC00B800C800EC00C400B800D800EC00C000B800E000EC00C000B800D000EC00C000B800C800EC00C000B800C400EC00C000B800C000D400EC00C000B800C000C800D400EC010941005F0054006F0
311
06F006C00740069007000AAA90A68886297977CD97CA65E5200610000670F5C3C5041D0C017C013001840188019401B002AAA4050C010944005F0054006F006F006C00740069007000AAA906A052E55DB97E0674B965115441D10017C013001840188019401B002AAA40510011A50006F00730074002D00770065006C00640
311
020006D0061006300680069006E0069006E0067005F0045006E00610062006C006500AAA90A420027005F0054006F006F006C00740069007000AAA904A052E55DB9650F5F41D18017C013001840188019401B002AAA40518010742005F004C006100620065006C00AAA901420042104009C017C013001840188019401B002A
311
AA40904009C010846005F00560061006C00750065007300AAA91730002E00300038003B0030002E00320035003B0030002E0038003B0032002E0035003B0038003B00320035003B0042108017C0158018401B001D4019401CC02AAA4F99A3CEC015E54EC00A148EC02EE50EC038E50EC002654EC03A1E0EC025DF19A3CEC02
311
5DF3C250EC038E51FE7CEC032588EC0369BA2D4CEC00B948C40037FCC802E5C0BC018C01B4017800C800EC00B948CC0037FCC400C002E5C0BC018C01B4017800C800EC000D79BA3FA1E0EC0051E3A1E0EC0216369DFA814B95750946005F0054006F006F006C00740069007000AAA9067651835BC79137687F95A65E425140
311
17C015001BC01BC01B001D001A401C002AAA412814B9575653F3E450943005F0054006F006F006C00740069007000AAA909C79137687F95A65E1662E26CB97ED89AA65E4351401B80184018801B00194011401E001C001B001BC0190019402A41D580150017C0108013C013C013002A4414C01E401B40150019401E001D001
311
4C01A401E801940148018401D001A401BC02A415580150017C014800E002A408D400C0010232003500410C400C800B800D4010336002E00330040CCC00B800C8010331002E00360040CC000B800E0010330002E00340040CC000B800C8010330002E003100410C000B800C000D4010530002E0030003200350040CC800D400
311
C0010331003600300040CC400C000C0010236003300408D000C0010232003500408C400D801023100300040CD800B800CC0101340040CC800B800D4010331002E003600404C4010430002E003600330040CC000B800D0010430002E0032003500410C000B800C400D8010330002E003100410C000B800C000D8010430002E0
311
0300034004059A3D015795404A14901BB944078E51010995407A1E102977C668F40A5DF3C25102E3947F9F407258902DA6E8B53428B948C40037FCC802E5C0BC018C01B4017800C8010B2E5233000DFF31003000B9702F0063006D005E00320040C0D79BA3FA1E1021478E87841216369DFA814B9574
 93
     5156
310
406406FFFFFFFFFFFFFF003FFFCFFFF3FFFCFFFF3FFFCFFFF3FFFCFFFF3FFFFFFFCFFFFFFFF3FFFFFFFCFFFFFFFF3FFFFFFFCFFFFFFFF3FFFFFFFCFFFFFFFF407FFFFFFFFFFFFFFFCFFFF3FFFCFFFF3FFFCFFFF3FFFCFFFF3FFFCFFFFFFFF3FFFFFFFCFFFFFFFF3FFFFFFFCFFFFFFFF3FFFFFFFCFFFFFFFF3FFFFFFFEAAA90
310
14050277C06BFE405174A24050341105419084250A42D0D4390F4411244D144551B471645956659D685A56A5AD6C5B56E5BD705C5725CD745D5765E241D07555000000000000031000000000000000C40000000000000031000000000000000C40000000000000031000000000000000C403FFFCFFFF3FFFCFFFF3FFFCFFFF
310
3FFFCFFFF3FFFCFFFF3FFFCFFFFFFFFFFFFFFFFFFFF3FFFCFFFF3FFFCFFFF3FFFCFFFF3FFFCFFFF3FFFFFFFCFFFFFFFF3FFFFFFFCFFFFFFFF3FFFFFFFCFFFFFFFF3FFFFFFFCFFFFFFFFAAAA481018210640002040080C108320001020040608419000081002030420C800040801018210640002040080C1083200010200406
310
08419000081002030420C800040801018210640002040080C108320001020040608419000081002030420C800040801018210640002040080C108320001020040608419000081002030420C800040801018210640002040080C108320001020040608419000081002030420C80004080101821664000204007FFFA030420C8
310
00040801018210640002040080C108320001020040608419000081002030420C800040801018210640002040080C108320001020040608419000081002030420C80004080101821664000204007FFFA030414C80004080140A80666666666666F63F0000000000000410000000000000034407FA10C4511100000000000038
310
0FC0000000000000C400
340
0
340
0
340
0
340
0
340
0
340
0
340
0
340
0
340
0
340
0
340
0
340
0
340
0
340
0
340
0
340
0
340
0
340
0
340
0
340
0
340
0
340
0
340
0
340
0
340
0
340
0
340
0
340
0
340
0
340
0
340
0
 94
        0
  0
ACAD_PROXY_OBJECT
  5
17B7
330
178E
100
AcDbProxyObject
 90
      499
 91
      519
 95
   524319
 70
     0
 96
     2002
311
90247004200A4091C0108010247004200AAAAAAAA4091C01080102470042004091C0108024191C010800B801E001B401B0010332002E00350040CCC00B800D401013500404DC010231003000408C400D001023200300040CC800B800D4010333002E003500404D401013700408C400C0010231003400408C800C002AAA9105
311
400650078007400520069006700680074004F00660066007300650074005800AAA90D45006E00610062006C0065004500780070006C006F0064006500A907560054005F0042004F004F004C00A910530079006D005400650078007400530069007A00650052006100740069006F00A905560054005F0052003800A80
 93
     3220
310
406406FFFFFFFFFFFFFF003FFFCFFFF3FFFCFFFF3FFFCFFFF3FFFCFFFF3FFFFFFFCFFFFFFFF3FFFFFFFCFFFFFFFF3FFFFFFFCFFFFFFFF3FFFFFFFCFFFFFFFF407FFFFFFFFFFFFFFFCFFFF3FFFCFFFF3FFFCFFFF3FFFCFFFF3FFFCFFFFFFFF3FFFFFFFCFFFFFFFF3FFFFFFFCFFFFFFFF3FFFFFFFCFFFFFFFF3FFFFFFFEAAA90
310
14050224804068FFFF3FFFCFFFF3FFFE405174A24050341105419084250A42D0D4390F4411244D144551B471645956659D685A56A5AD6C5B56E5BD705C5725CD745D5765E241D07555000000000000031000000000000000C40000000000000031000000000000000C40000000000000031000000000000000C403FFFCFFFF
310
3FFFCFFFF3FFFCFFFF3FFFCFFFF3FFFCFFFF3FFFCFFFFFFFFFFFFFFFFFFFF3FFFCFFFF3FFFCFFFF3FFFCFFFF3FFFCFFFF3FFFFFFFCFFFFFFFF3FFFFFFFCFFFFFFFF3FFFFFFFCFFFFFFFF3FFFFFFFCFFFFFFFFAAAA40D01820A64000204000000000000000020203042CC800040800FFFF4060829900008100280A0F0000000
310
000003F0FD0000000000000310000000000000000400
340
0
340
0
340
0
340
0
340
0
340
0
340
0
340
0
340
0
340
0
340
0
340
0
340
0
340
0
340
0
340
0
340
0
340
0
340
0
340
0
340
0
340
0
340
0
340
0
340
0
340
0
340
0
340
0
340
0
340
0
340
0
 94
        0
  0
ACAD_PROXY_OBJECT
  5
17B8
330
178E
100
AcDbProxyObject
 90
      499
 91
      520
 95
   524319
 70
     0
 96
     1722
311
90247004200A4091C0108010247004200AAAAAAAA4091C01080102470042004091C0108024191C010800B801E001B401B0010332002E00350040CCC00B800D401013500404DC010231003000408C400D001023200300040CC800B800D4010333002E003500404D401013700408C400C0010231003400408C800C002AAA90D4
311
5006E00610062006C0065004500780070006C006F0064006500A907560054005F0042004F004F004C00A910530079006D005400650078007400530069007A00650052006100740069006F00A905560054005F0052003800A80
 93
     3629
310
406406FFFFFFFFFFFFFF003FFFCFFFF3FFFCFFFF3FFFCFFFF3FFFCFFFF3FFFFFFFCFFFFFFFF3FFFFFFFCFFFFFFFF3FFFFFFFCFFFFFFFF3FFFFFFFCFFFFFFFF407FFFFFFFFFFFFFFFCFFFF3FFFCFFFF3FFFCFFFF3FFFCFFFF3FFFCFFFFFFFF3FFFFFFFCFFFFFFFF3FFFFFFFCFFFFFFFF3FFFFFFFCFFFFFFFF3FFFFFFFEAAA90
310
140502728068FFFF3FFFCFFFF3FFFE405194A24050341105419084250A42D0D4390F4411244D144551B471645956659D685A56A5AD6C5B56E5BD705C5725CD745D5765E11890140D0441506421094290B4350E43D10449134511545D184651A46D1C41D07555000000000000031000000000000000C4000000000000003100
310
0000000000000C40000000000000031000000000000000C403FFFCFFFF3FFFCFFFF3FFFCFFFF3FFFCFFFF3FFFCFFFF3FFFCFFFFFFFFFFFFFFFFFFFF3FFFCFFFF3FFFCFFFF3FFFCFFFF3FFFCFFFF3FFFFFFFCFFFFFFFF3FFFFFFFCFFFFFFFF3FFFFFFFCFFFFFFFF3FFFFFFFCFFFFFFFFAAAA40901821664000204007FFFA030
310
414C80004080140503000000000000031000000000000000C405B43EA0340A81D04A0B41A83D08A1342A85D0DA1D43E86540681503A0941683507A114268550BC00000000000006200
340
0
340
0
340
0
340
0
340
0
340
0
340
0
340
0
340
0
340
0
340
0
340
0
340
0
340
0
340
0
340
0
340
0
340
0
340
0
340
0
340
0
340
0
340
0
340
0
340
0
340
0
340
0
340
0
340
0
340
0
340
0
 94
        0
  0
ACAD_PROXY_OBJECT
  5
17B9
330
178E
100
AcDbProxyObject
 90
      499
 91
      521
 95
   524319
 70
     0
 96
     1946
311
9044700420030003800A4111C010800C000E001044700420030003800AAAAAAAA4111C010800C000E0010447004200300038004111C010800C000E0024211C010800C000E000B801E001B401B0010332002E00350040CCC00B800D401013500404DC010231003000408C400D001023200300040CC800B800D4010333002E00
311
3500404D401013700408C400C0010231003400408C800C002AAA90D45006E00610062006C0065004500780070006C006F0064006500A907560054005F0042004F004F004C00A910530079006D005400650078007400530069007A00650052006100740069006F00A905560054005F0052003800A80
 93
     2704
310
406406FFFFFFFFFFFFFF003FFFCFFFF3FFFCFFFF3FFFCFFFF3FFFCFFFF3FFFFFFFCFFFFFFFF3FFFFFFFCFFFFFFFF3FFFFFFFCFFFFFFFF3FFFFFFFCFFFFFFFF407FFFFFFFFFFFFFFFCFFFF3FFFCFFFF3FFFCFFFF3FFFCFFFF3FFFCFFFFFFFF3FFFFFFFCFFFFFFFF3FFFFFFFCFFFFFFFF3FFFFFFFCFFFFFFFF3FFFFFFFEAAA90
310
1405027EC0600000000000003100FFFF3FFFCFFFF3FFFE4651740D024651A90741D5540000000000000C40000000000000031000000000000000C40000000000000031000000000000000C4000000000000003100FFFF3FFFCFFFF3FFFCFFFF3FFFCFFFF3FFFCFFFF3FFFCFFFF3FFFFFFFFFFFFFFFFFFFCFFFF3FFFCFFFF3F
310
FFCFFFF3FFFCFFFF3FFFCFFFFFFFF3FFFFFFFCFFFFFFFF3FFFFFFFCFFFFFFFF3FFFFFFFCFFFFFFFF3FFFFFFFEAAA90240608599000081001FFFE80C1053200010200501000000000000380FC0000000000000C40
340
0
340
0
340
0
340
0
340
0
340
0
340
0
340
0
340
0
340
0
340
0
340
0
340
0
340
0
340
0
340
0
340
0
340
0
340
0
340
0
340
0
340
0
340
0
340
0
340
0
340
0
340
0
340
0
340
0
340
0
340
0
 94
        0
  0
ACAD_PROXY_OBJECT
  5
17BA
330
178E
100
AcDbProxyObject
 90
      499
 91
      522
 95
   524319
 70
     0
 96
     1722
311
90247004200A4091C0108010247004200AAAAAAAA4091C01080102470042004091C0108024191C010800B801E001B401B0010332002E00350040CCC00B800D401013500404DC010231003000408C400D001023200300040CC800B800D4010333002E003500404D401013700408C400C0010231003400408C800C002AAA90D4
311
5006E00610062006C0065004500780070006C006F0064006500A907560054005F0042004F004F004C00A910530079006D005400650078007400530069007A00650052006100740069006F00A905560054005F0052003800A80
 93
     3022
310
406406FFFFFFFFFFFFFF003FFFCFFFF3FFFCFFFF3FFFCFFFF3FFFCFFFF3FFFFFFFCFFFFFFFF3FFFFFFFCFFFFFFFF3FFFFFFFCFFFFFFFF3FFFFFFFCFFFFFFFF407FFFFFFFFFFFFFFFCFFFF3FFFCFFFF3FFFCFFFF3FFFCFFFF3FFFCFFFFFFFF3FFFFFFFCFFFFFFFF3FFFFFFFCFFFFFFFF3FFFFFFFCFFFFFFFF3FFFFFFFEAAA90
310
14050204004068FFFF3FFFCFFFF3FFFE405174A64050341105419084250A42D0D4390F4411244D144551B4716359165599675A1695A96B5B16D5B96F5C1715C9735D1755D97890741D5540000000000000C40000000000000031000000000000000C40000000000000031000000000000000C4000000000000003100FFFF3F
310
FFCFFFF3FFFCFFFF3FFFCFFFF3FFFCFFFF3FFFCFFFF3FFFFFFFFFFFFFFFFFFFCFFFF3FFFCFFFF3FFFCFFFF3FFFCFFFF3FFFCFFFFFFFF3FFFFFFFCFFFFFFFF3FFFFFFFCFFFFFFFF3FFFFFFFCFFFFFFFF3FFFFFFFEAAA90240608599000081001FFFE80C10532000102005010000000000000310200000000000003100
340
0
340
0
340
0
340
0
340
0
340
0
340
0
340
0
340
0
340
0
340
0
340
0
340
0
340
0
340
0
340
0
340
0
340
0
340
0
340
0
340
0
340
0
340
0
340
0
340
0
340
0
340
0
340
0
340
0
340
0
340
0
 94
        0
  0
ACAD_PROXY_OBJECT
  5
17BB
330
178E
100
AcDbProxyObject
 90
      499
 91
      523
 95
   524319
 70
     0
 96
     1722
311
90247004200A4091C0108010247004200AAAAAAAA4091C01080102470042004091C0108024191C010800B801E001B401B0010332002E00350040CCC00B800D401013500404DC010231003000408C400D001023200300040CC800B800D4010333002E003500404D401013700408C400C0010231003400408C800C002AAA90D4
311
5006E00610062006C0065004500780070006C006F0064006500A907560054005F0042004F004F004C00A910530079006D005400650078007400530069007A00650052006100740069006F00A905560054005F0052003800A80
 93
     3077
310
406406FFFFFFFFFFFFFF003FFFCFFFF3FFFCFFFF3FFFCFFFF3FFFCFFFF3FFFFFFFCFFFFFFFF3FFFFFFFCFFFFFFFF3FFFFFFFCFFFFFFFF3FFFFFFFCFFFFFFFF407FFFFFFFFFFFFFFFCFFFF3FFFCFFFF3FFFCFFFF3FFFCFFFF3FFFCFFFFFFFF3FFFFFFFCFFFFFFFF3FFFFFFFCFFFFFFFF3FFFFFFFCFFFFFFFF3FFFFFFFEAAA90
310
1405020B804068FFFF3FFFCFFFF3FFFE4051749E40D0441506421094290B4350E43D10449134511546D1C59165599675A1695A96B5B16D5B96F5C1715C9735D1755D97890741D5540000000000000C40000000000000031000000000000000C40000000000000031000000000000000C4000000000000003100FFFF3FFFCFF
310
FF3FFFCFFFF3FFFCFFFF3FFFCFFFF3FFFCFFFF3FFFFFFFFFFFFFFFFFFFCFFFF3FFFCFFFF3FFFCFFFF3FFFCFFFF3FFFCFFFFFFFF3FFFFFFFCFFFFFFFF3FFFFFFFCFFFFFFFF3FFFFFFFCFFFFFFFF3FFFFFFFEAAA90240608599000081001FFFE80C1053200010200501000000000000021000000000000000840000000000020
310
11902818
340
0
340
0
340
0
340
0
340
0
340
0
340
0
340
0
340
0
340
0
340
0
340
0
340
0
340
0
340
0
340
0
340
0
340
0
340
0
340
0
340
0
340
0
340
0
340
0
340
0
340
0
340
0
340
0
340
0
340
0
340
0
340
17BC
340
17BD
 94
        0
  0
ACAD_PROXY_OBJECT
  5
17BE
330
178E
100
AcDbProxyObject
 90
      499
 91
      524
 95
   524319
 70
     0
 96
     1722
311
90247004200A4091C0108010247004200AAAAAAAA4091C01080102470042004091C0108024191C010800B801E001B401B0010332002E00350040CCC00B800D401013500404DC010231003000408C400D001023200300040CC800B800D4010333002E003500404D401013700408C400C0010231003400408C800C002AAA90D4
311
5006E00610062006C0065004500780070006C006F0064006500A907560054005F0042004F004F004C00A910530079006D005400650078007400530069007A00650052006100740069006F00A905560054005F0052003800A80
 93
     2889
310
406406FFFFFFFFFFFFFF003FFFCFFFF3FFFCFFFF3FFFCFFFF3FFFCFFFF3FFFFFFFCFFFFFFFF3FFFFFFFCFFFFFFFF3FFFFFFFCFFFFFFFF3FFFFFFFCFFFFFFFF407FFFFFFFFFFFFFFFCFFFF3FFFCFFFF3FFFCFFFF3FFFCFFFF3FFFCFFFFFFFF3FFFFFFFCFFFFFFFF3FFFFFFFCFFFFFFFF3FFFFFFFCFFFFFFFF3FFFFFFFEAAA90
310
14050218004068FFFF3FFFCFFFF3FFFE405174A24050341105419084250A42D0D4390F4411244D144551B471645956659D685A56A5AD6C5B56E5BD705C5725CD745D5765E241D07555000000000000031000000000000000C40000000000000031000000000000000C40000000000000031000000000000000C403FFFCFFFF
310
3FFFCFFFF3FFFCFFFF3FFFCFFFF3FFFCFFFF3FFFCFFFFFFFFFFFFFFFFFFFF3FFFCFFFF3FFFCFFFF3FFFCFFFF3FFFCFFFF3FFFFFFFCFFFFFFFF3FFFFFFFCFFFFFFFF3FFFFFFFCFFFFFFFF3FFFFFFFCFFFFFFFFAAAA40901821664000204007FFFA030414C8000408014044380
340
0
340
0
340
0
340
0
340
0
340
0
340
0
340
0
340
0
340
0
340
0
340
0
340
0
340
0
340
0
340
0
340
0
340
0
340
0
340
0
340
0
340
0
340
0
340
0
340
0
340
0
340
0
340
0
340
0
340
0
340
0
 94
        0
  0
ACAD_PROXY_OBJECT
  5
17BF
330
178E
100
AcDbProxyObject
 90
      499
 91
      525
 95
   524319
 70
     0
 96
     7244
311
90247004200A4091C0108010247004200AAAAAAAA4091C01080102470042004091C0108024191C010800B801E001B401B0010332002E00350040CCC00B800D401013500404DC010231003000408C400D001023200300040CC800B800D4010333002E003500404D401013700408C400C0010231003400408C800C002AAA90D4
311
5006E00610062006C0065004500780070006C006F0064006500A907560054005F0042004F004F004C00A910530079006D005400650078007400530069007A00650052006100740069006F00A905560054005F0052003800A909520031002E0030002F0032002E00310032004294800C400B800C800D400BC00C800B800D800
311
D40109520031002E0036002F0033002E00330035004254800C800B800C000BC00D000B800C800D40108520032002E0035002F0035002E0033004254800CC00B800C400D400BC00D800B800DC0108520034002E0030002F0038002E0035004254800D400B800C000BC00C400C000B800D80109520036002E0033002F0031003
311
3002E0032004254800E000B800C000BC00C400DC00B800C0010A5200310030002E0030002F00320031002E0032004290400C000B800D400BC010400C400B800C000D8010A410030002E00360033002F0031002E00330032004250400C000B800E000BC00C400B800DC00C00109410031002E0030002F0032002E0031003200
311
4290400C400B800C800D400BC00C800B800D800D40109410031002E0036002F0033002E00330035004250400C800B800C000BC00D000B800C800D40108410032002E0035002F0035002E0033004250400CC00B800C400D400BC00D800B800DC0108410034002E0030002F0038002E0035004250400D400B800C000BC00C400
311
C000B800D80109410036002E0033002F00310033002E0032004250400E000B800C000BC00C400DC00B800C0010A4100310030002E0030002F00320031002E0032004250800C400B800C000BC00CC00B800C400D40107420031002E00320035002F0034004190800C400B800D800BC00D40108420032002E0030002F0036002
311
E0033004190800C800B800D400BC00E00108420033002E00310035002F00310030004250800D000B800C000BC00C400C800B800D40107420035002E0030002F003100360041D0800D800B800CC00BC00C400E00109420038002E0030002F00320032002E0034004210800C400C000B800C000BC00C800E0010B470042002F0
311
05400200034003400350039002E0035000
 93
     2898
310
406406FFFFFFFFFFFFFF003FFFCFFFF3FFFCFFFF3FFFCFFFF3FFFCFFFF3FFFFFFFCFFFFFFFF3FFFFFFFCFFFFFFFF3FFFFFFFCFFFFFFFF3FFFFFFFCFFFFFFFF407FFFFFFFFFFFFFFFCFFFF3FFFCFFFF3FFFCFFFF3FFFCFFFF3FFFCFFFFFFFF3FFFFFFFCFFFFFFFF3FFFFFFFCFFFFFFFF3FFFFFFFCFFFFFFFF3FFFFFFFEAAA90
310
14050216808068FFFF3FFFCFFFF3FFFE405174A24050341105419084250A42D0D4390F4411244D144551B471645956659D685A56A5AD6C5B56E5BD705C5725CD745D5765E241D07555000000000000031000000000000000C40000000000000031000000000000000C40000000000000031000000000000000C403FFFCFFFF
310
3FFFCFFFF3FFFCFFFF3FFFCFFFF3FFFCFFFF3FFFCFFFFFFFFFFFFFFFFFFFF3FFFCFFFF3FFFCFFFF3FFFCFFFF3FFFCFFFF3FFFFFFFCFFFFFFFF3FFFFFFFCFFFFFFFF3FFFFFFFCFFFFFFFF3FFFFFFFCFFFFFFFFAAAA40901821664000204007FFFA030414C800040801405244040
340
0
340
0
340
0
340
0
340
0
340
0
340
0
340
0
340
0
340
0
340
0
340
0
340
0
340
0
340
0
340
0
340
0
340
0
340
0
340
0
340
0
340
0
340
0
340
0
340
0
340
0
340
0
340
0
340
0
340
0
340
0
 94
        0
  0
ACAD_PROXY_OBJECT
  5
17C0
330
178E
100
AcDbProxyObject
 90
      499
 91
      526
 95
   524319
 70
     0
 96
     1956
311
90247004200A4091C0108010247004200AAAAAAAA4091C01080102470042004091C0108024191C010800B801E001B401B0010332002E00350040CCC00B800D401013500404DC010231003000408C400D001023200300040CC800B800D4010333002E003500404D401013700408C400C0010231003400408C800C002AAA90D4
311
5006E00610062006C0065004500780070006C006F0064006500A907560054005F0042004F004F004C00A910530079006D005400650078007400530069007A00650052006100740069006F00A905560054005F0052003800AA40E154449434A250316591250D28940E154449434A250316591250D2890
 93
     2898
310
406406FFFFFFFFFFFFFF003FFFCFFFF3FFFCFFFF3FFFCFFFF3FFFCFFFF3FFFFFFFCFFFFFFFF3FFFFFFFCFFFFFFFF3FFFFFFFCFFFFFFFF3FFFFFFFCFFFFFFFF407FFFFFFFFFFFFFFFCFFFF3FFFCFFFF3FFFCFFFF3FFFCFFFF3FFFCFFFFFFFF3FFFFFFFCFFFFFFFF3FFFFFFFCFFFFFFFF3FFFFFFFCFFFFFFFF3FFFFFFFEAAA90
310
14050219008068FFFF3FFFCFFFF3FFFE405174A24050341105419084250A42D0D4390F4411244D144551B471645956659D685A56A5AD6C5B56E5BD705C5725CD745D5765E241D07555000000000000031000000000000000C40000000000000031000000000000000C40000000000000031000000000000000C403FFFCFFFF
310
3FFFCFFFF3FFFCFFFF3FFFCFFFF3FFFCFFFF3FFFCFFFFFFFFFFFFFFFFFFFF3FFFCFFFF3FFFCFFFF3FFFCFFFF3FFFCFFFF3FFFFFFFCFFFFFFFF3FFFFFFFCFFFFFFFF3FFFFFFFCFFFFFFFF3FFFFFFFCFFFFFFFFAAAA40901821664000204007FFFA030414C800040801405024080
340
0
340
0
340
0
340
0
340
0
340
0
340
0
340
0
340
0
340
0
340
0
340
0
340
0
340
0
340
0
340
0
340
0
340
0
340
0
340
0
340
0
340
0
340
0
340
0
340
0
340
0
340
0
340
0
340
0
340
0
340
0
 94
        0
  0
ACAD_PROXY_OBJECT
  5
17C1
330
178E
100
AcDbProxyObject
 90
      499
 91
      527
 95
   524319
 70
     0
 96
      414
311
90247004200A4091C0108010247004200AAAAAAAA4091C01080102470042004091C0108024191C010800B801E001B401B002AAA8
 93
     2354
310
406406FFFFFFFFFFFFFF003FFFCFFFF3FFFCFFFF3FFFCFFFF3FFFCFFFF3FFFFFFFCFFFFFFFF3FFFFFFFCFFFFFFFF3FFFFFFFCFFFFFFFF3FFFFFFFCFFFFFFFF407FFFFFFFFFFFFFFFCFFFF3FFFCFFFF3FFFCFFFF3FFFCFFFF3FFFCFFFFFFFF3FFFFFFFCFFFFFFFF3FFFFFFFCFFFFFFFF3FFFFFFFCFFFFFFFF3FFFFFFFEAAA90
310
1405021B808040000000000000C408FFFF3FFFCFFFF3FFFEAAA555000000000000031000000000000000C40000000000000031000000000000000C40000000000000031000000000000000C403FFFCFFFF3FFFCFFFF3FFFCFFFF3FFFCFFFF3FFFCFFFF3FFFCFFFFFFFFFFFFFFFFFFFF3FFFCFFFF3FFFCFFFF3FFFCFFFF3FFF
310
CFFFF3FFFFFFFCFFFFFFFF3FFFFFFFCFFFFFFFF3FFFFFFFCFFFFFFFF3FFFFFFFCFFFFFFFFAAAA90180
340
0
340
0
340
0
340
0
340
0
340
0
340
0
340
0
340
0
340
0
340
0
340
0
340
0
340
0
340
0
340
0
340
0
340
0
340
0
340
0
340
0
340
0
340
0
340
0
340
0
340
0
340
0
340
0
340
0
340
0
340
0
 94
        0
  0
ACAD_PROXY_OBJECT
  5
17C2
330
178E
100
AcDbProxyObject
 90
      499
 91
      528
 95
   524319
 70
     0
 96
     1722
311
90247004200A4091C0108010247004200AAAAAAAA4091C01080102470042004091C0108024191C010800B801E001B401B0010332002E00350040CCC00B800D401013500404DC010231003000408C400D001023200300040CC800B800D4010333002E003500404D401013700408C400C0010231003400408C800C002AAA90D4
311
5006E00610062006C0065004500780070006C006F0064006500A907560054005F0042004F004F004C00A910530079006D005400650078007400530069007A00650052006100740069006F00A905560054005F0052003800A80
 93
     3382
310
406406FFFFFFFFFFFFFF003FFFCFFFF3FFFCFFFF3FFFCFFFF3FFFCFFFF3FFFFFFFCFFFFFFFF3FFFFFFFCFFFFFFFF3FFFFFFFCFFFFFFFF3FFFFFFFCFFFFFFFF407FFFFFFFFFFFFFFFCFFFF3FFFCFFFF3FFFCFFFF3FFFCFFFF3FFFCFFFFFFFF3FFFFFFFCFFFFFFFF3FFFFFFFCFFFFFFFF3FFFFFFFCFFFFFFFF3FFFFFFFEAAA90
310
1405020A008068FFFF3FFFCFFFF3FFFE4064A24050341105419084250A42D0D4390F4411244D144551B471645956659D685A56A5AD6C5B56E5BD705C5725CD745D5765E241D074666666666666E63F55000000000000031000000000000000C40000000000000031000000000000000C400000000000000310000000000000
310
00C403FFFCFFFF3FFFCFFFF3FFFCFFFF3FFFCFFFF3FFFCFFFF3FFFCFFFFFFFFFFFFFFFFFFFF3FFFCFFFF3FFFCFFFF3FFFCFFFF3FFFCFFFF3FFFFFFFCFFFFFFFF3FFFFFFFCFFFFFFFF3FFFFFFFCFFFFFFFF3FFFFFFFCFFFFFFFFAAAA40901821664000204007FFFA030414C800040801404666666666666E63F46130A634CA9
310
9D34A6B4DA9BD38A734EA9DD3CA7B4FA9FD40A8350AA1D44A8B5D2BAD0551AA3D48A9352A81A97532A6C
340
0
340
0
340
0
340
0
340
0
340
0
340
0
340
0
340
0
340
0
340
0
340
0
340
0
340
0
340
0
340
0
340
0
340
0
340
0
340
0
340
0
340
0
340
0
340
0
340
0
340
0
340
0
340
0
340
0
340
0
340
0
340
17C3
 94
        0
  0
ACAD_PROXY_OBJECT
  5
17C4
330
178E
100
AcDbProxyObject
 90
      499
 91
      529
 95
   524319
 70
     0
 96
     3024
311
90247004200A4091C0108010247004200AAAAAAAA4091C01080102470042004091C0108024191C010800B801E001B401B0010332002E00350040CCC00B800D401013500404DC010231003000408C400D0010232003000AAAA4351401B80184018801B00194011401E001C001B001BC0190019402A41D580150017C0108013C
311
013C013002A4414C01E401B40150019401E001D0014C01A401E801940148018401D001A401BC02A415580150017C014800E002A48D6C011001140150010401240130017C013001040108011401300174017001400170013C016C011001140150010401240130017C01040108014C014C010C01040130011401740106310030
311
00300030003A003100414D400C000C000E800C401053200300030003A003100414C400C000C000E800C40104350030003A003100410C800C000E800C40104310030003A00310040CD400E800C4010332003A0031004058085016121405888501632140590850165214059885016721405A085016921405A885016B21
 93
     2487
310
406406FFFFFFFFFFFFFF003FFFCFFFF3FFFCFFFF3FFFCFFFF3FFFCFFFF3FFFFFFFCFFFFFFFF3FFFFFFFCFFFFFFFF3FFFFFFFCFFFFFFFF3FFFFFFFCFFFFFFFF407FFFFFFFFFFFFFFFCFFFF3FFFCFFFF3FFFCFFFF3FFFCFFFF3FFFCFFFFFFFF3FFFFFFFCFFFFFFFF3FFFFFFFCFFFFFFFF3FFFFFFFCFFFFFFFF3FFFFFFFEAAA90
310
1405023C008064FFFF3FFFCFFFF3FFFEAA41E555000000000000031000000000000000C40000000000000031000000000000000C40000000000000031000000000000000C403FFFCFFFF3FFFCFFFF3FFFCFFFF3FFFCFFFF3FFFCFFFF3FFFCFFFFFFFFFFFFFFFFFFFF3FFFCFFFF3FFFCFFFF3FFFCFFFF3FFFCFFFF3FFFFFFFC
310
FFFFFFFF3FFFFFFFCFFFFFFFF3FFFFFFFCFFFFFFFF3FFFFFFFCFFFFFFFFAAAA40901821664000204007FFFA030414C80004080140B20484A18
340
0
340
0
340
0
340
0
340
0
340
0
340
0
340
0
340
0
340
0
340
0
340
0
340
0
340
0
340
0
340
0
340
0
340
0
340
0
340
0
340
0
340
0
340
0
340
0
340
0
340
0
340
0
340
0
340
0
340
0
340
0
340
14
 94
        0
  0
ACAD_PROXY_OBJECT
  5
17C5
330
178E
100
AcDbProxyObject
 90
      499
 91
      530
 95
   524319
 70
     0
 96
     5968
311
906470042003100390039003800A4191C010800C400E400E400E00106470042003100390039003800AAAAAAAA4191C010800C400E400E400E001064700420031003900390038004191C010800C400E400E400E0024291C010800C400E400E400E000B801E001B401B0010332002E00350040CCC00B800D401013500404DC01
311
0231003000408C400D001023200300040CC800B800D4010333002E003500404D401013700408C400C0010231003400408C800C002AAA90C540065007800740050006F0073006900740069006F006E00AAA90D45006E00610062006C0065004500780070006C006F0064006500A907560054005F0042004F004F004C00A9105
311
30079006D005400650078007400530069007A00650052006100740069006F00A905560054005F0052003800A9435B00530045004300540049004F004E005F004C004100420045004C005F00460049005200530054005D002D005B00530045004300540049004F004E005F004C004100420045004C005F004C0041005300540
311
05D005C0050005C004F005B00530045004300540049004F004E005F004C004100420045004C005F005300430041004C0045005D00418C400C000C000C000E800C401053500300030003A003100414C800C000C000E800C401053100300030003A003100410D400C000E800C40104320030003A003100410C400C000E800C40
311
10335003A00310040CC800E800C4010331003A00310040CC400E800C8010331003A003500410C400E800C400C0010431003A0032003000410C400E800D400C0010531003A00310030003000414C400E800C800C000C0010531003A00350030003000418C400E800C400C000C000C0010141004050801014300405100101450
311
0405180101470040520010149004052801014B004053001014D004053801014F00405400101510040548010153004055001015500405580101570040560010159004056801012D004058085016121405888501632140590850165214059885016721405A085016921405A885016B21
 93
     3069
310
406406FFFFFFFFFFFFFF003FFFCFFFF3FFFCFFFF3FFFCFFFF3FFFCFFFF3FFFFFFFCFFFFFFFF3FFFFFFFCFFFFFFFF3FFFFFFFCFFFFFFFF3FFFFFFFCFFFFFFFF407FFFFFFFFFFFFFFFCFFFF3FFFCFFFF3FFFCFFFF3FFFCFFFF3FFFCFFFFFFFF3FFFFFFFCFFFFFFFF3FFFFFFFCFFFFFFFF3FFFFFFFCFFFFFFFF3FFFFFFFEAAA90
310
14050208C0C068FFFF3FFFD073FFFE405174A24050341105419084250A42D0D4390F4411244D144551B471645956659D685A56A5AD6C5B56E5BD705C5725CD745D5765E241D07555000000000000031000000000000000C40000000000000031000000000000000C40000000000000031000000000000000C403FFFCFFFF3F
310
FFCFFFF3FFFCFFFF3FFFCFFFF3FFFCFFFF3FFFCFFFFFFFFFFFFFFFFFFFF3FFFCFFFF3FFFCFFFF3FFFCFFFF3FFFCFFFF3FFFFFFFCFFFFFFFF3FFFFFFFCFFFFFFFF3FFFFFFFCFFFFFFFF3FFFFFFFCFFFFFFFFAAAA40D018204640002040081203042CC800040800FFFF4060829900008100281440640A8080000000000004881
310
226938
340
0
340
0
340
0
340
0
340
0
340
0
340
0
340
0
340
0
340
0
340
0
340
0
340
0
340
0
340
0
340
0
340
0
340
0
340
0
340
0
340
0
340
0
340
0
340
0
340
0
340
0
340
0
340
0
340
0
340
0
340
0
340
7A5
 94
        0
  0
ACAD_PROXY_OBJECT
  5
17C6
330
178E
100
AcDbProxyObject
 90
      499
 91
      531
 95
   524319
 70
     0
 96
     5128
311
90247004200A4091C0108010247004200AAAAAAAA4091C01080102470042004091C0108024191C010800B801E001B401B0010332002E00350040CCC00B800D401013500404DC010231003000408C400D001023200300040CC800B800D4010333002E003500404D401013700408C400C0010231003400408C800C002AAA90E4
311
C006100620065006C004100720072006F007700530069007A006500AAA90C540065007800740050006F0073006900740069006F006E00AAA90D45006E00610062006C0065004500780070006C006F0064006500A907560054005F0042004F004F004C00A910530079006D005400650078007400530069007A0065005200610
311
0740069006F00A905560054005F0052003800A91B5B0056004900450057005F004E0041004D0045005D005C0050005C004F005B0056004900450057005F005300430041004C0045005D00418C400C000C000C000E800C401053500300030003A003100414C800C000C000E800C401053100300030003A003100410D400C000
311
E800C40104320030003A003100410C400C000E800C4010335003A00310040CC800E800C4010331003A00310040CC400E800C8010331003A003500410C400E800C400C0010431003A0032003000410C400E800D400C0010531003A00310030003000414C400E800C800C000C0010531003A00350030003000418C400E800C40
311
0C000C000C00101410040508010143004051001014500405180101470040520010149004052801014B004053001014D004053801014F00405400101510040548010153004055001015500405580101570040560010159004056801012D004058085016121405888501632140590850165214059885016721405A0850169214
311
05A885016B21
 93
     3236
310
406406FFFFFFFFFFFFFF003FFFCFFFF3FFFCFFFF3FFFCFFFF3FFFCFFFF3FFFFFFFCFFFFFFFF3FFFFFFFCFFFFFFFF3FFFFFFFCFFFFFFFF3FFFFFFFCFFFFFFFF407FFFFFFFFFFFFFFFCFFFF3FFFCFFFF3FFFCFFFF3FFFCFFFF3FFFCFFFFFFFF3FFFFFFFCFFFFFFFF3FFFFFFFCFFFFFFFF3FFFFFFFCFFFFFFFF3FFFFFFFEAAA90
310
1405022180C068FFFF3FFFCFFFF3FFFC0000000000000C40405014A24050341105419084250A42D0D4390F4411244D144551B471645956659D685A56A5AD6C5B56E5BD705C5725CD745D5765E241D07555000000000000031000000000000000C40000000000000031000000000000000C4000000000000003100000000000
310
0000C403FFFCFFFF3FFFCFFFF3FFFCFFFF3FFFCFFFF3FFFCFFFF3FFFCFFFFFFFFFFFFFFFFFFFF3FFFCFFFF3FFFCFFFF3FFFCFFFF3FFFCFFFF3FFFFFFFCFFFFFFFF3FFFFFFFCFFFFFFFF3FFFFFFFCFFFFFFFF3FFFFFFFCFFFFFFFFAAAA41101820A640002040000000000000006202030408C80004080240608599000081001
310
FFFE80C1053200010200501000000000000091010844D270
340
0
340
0
340
0
340
0
340
0
340
0
340
0
340
0
340
0
340
0
340
0
340
0
340
0
340
0
340
0
340
0
340
0
340
0
340
0
340
0
340
0
340
0
340
0
340
0
340
0
340
0
340
0
340
0
340
0
340
0
340
0
 94
        0
  0
ACAD_PROXY_OBJECT
  5
17C7
330
178E
100
AcDbProxyObject
 90
      499
 91
      532
 95
   524319
 70
     0
 96
     1722
311
90247004200A4091C0108010247004200AAAAAAAA4091C01080102470042004091C0108024191C010800B801E001B401B0010332002E00350040CCC00B800D401013500404DC010231003000408C400D001023200300040CC800B800D4010333002E003500404D401013700408C400C0010231003400408C800C002AAA90D4
311
5006E00610062006C0065004500780070006C006F0064006500A907560054005F0042004F004F004C00A910530079006D005400650078007400530069007A00650052006100740069006F00A905560054005F0052003800A80
 93
     3146
310
406406FFFFFFFFFFFFFF003FFFCFFFF3FFFCFFFF3FFFCFFFF3FFFCFFFF3FFFFFFFCFFFFFFFF3FFFFFFFCFFFFFFFF3FFFFFFFCFFFFFFFF3FFFFFFFCFFFFFFFF407FFFFFFFFFFFFFFFCFFFF3FFFCFFFF3FFFCFFFF3FFFCFFFF3FFFCFFFFFFFF3FFFFFFFCFFFFFFFF3FFFFFFFCFFFFFFFF3FFFFFFFCFFFFFFFF3FFFFFFFEAAA90
310
1405022E00C068FFFF3FFFCFFFF3FFFE405174A24050341105419084250A42D0D4390F4411244D144551B471645956659D685A56A5AD6C5B56E5BD705C5725CD745D5765E241D07555000000000000031000000000000000C40000000000000031000000000000000C40000000000000031000000000000000C403FFFCFFFF
310
3FFFCFFFF3FFFCFFFF3FFFCFFFF3FFFCFFFF3FFFCFFFFFFFFFFFFFFFFFFFF3FFFCFFFF3FFFCFFFF3FFFCFFFF3FFFCFFFF3FFFFFFFCFFFFFFFF3FFFFFFFCFFFFFFFF3FFFFFFFCFFFFFFFF3FFFFFFFCFFFFFFFFAAAA40901821664000204007FFFA030414C800040801406000000000000021000000000000003440000000000
310
00009102000000000000031000
340
0
340
0
340
0
340
0
340
0
340
0
340
0
340
0
340
0
340
0
340
0
340
0
340
0
340
0
340
0
340
0
340
0
340
0
340
0
340
0
340
0
340
0
340
0
340
0
340
0
340
0
340
0
340
0
340
0
340
0
340
0
 94
        0
  0
ACAD_PROXY_OBJECT
  5
17C8
330
178E
100
AcDbProxyObject
 90
      499
 91
      533
 95
   524319
 70
     0
 96
      414
311
90247004200A4091C0108010247004200AAAAAAAA4091C01080102470042004091C0108024191C010800B801E001B401B002AAA8
 93
     2484
310
406406FFFFFFFFFFFFFF003FFFCFFFF3FFFCFFFF3FFFCFFFF3FFFCFFFF3FFFFFFFCFFFFFFFF3FFFFFFFCFFFFFFFF3FFFFFFFCFFFFFFFF3FFFFFFFCFFFFFFFF407FFFFFFFFFFFFFFFCFFFF3FFFCFFFF3FFFCFFFF3FFFCFFFF3FFFCFFFFFFFF3FFFFFFFCFFFFFFFF3FFFFFFFCFFFFFFFF3FFFFFFFCFFFFFFFF3FFFFFFFEAAA90
310
1405023080C040000000000000C404FFFF3FFFCFFFF3FFFEAAA555000000000000031000000000000000C40000000000000031000000000000000C40000000000000031000000000000000C403FFFCFFFF3FFFCFFFF3FFFCFFFF3FFFCFFFF3FFFCFFFF3FFFCFFFFFFFFFFFFFFFFFFFF3FFFCFFFF3FFFCFFFF3FFFCFFFF3FFF
310
CFFFF3FFFFFFFCFFFFFFFF3FFFFFFFCFFFFFFFF3FFFFFFFCFFFFFFFF3FFFFFFFCFFFFFFFFAAAA901000000000000071000000000000000C400
340
0
340
0
340
0
340
0
340
0
340
0
340
0
340
0
340
0
340
0
340
0
340
0
340
0
340
0
340
0
340
0
340
0
340
0
340
0
340
0
340
0
340
0
340
0
340
0
340
0
340
0
340
0
340
0
340
0
340
0
340
0
 94
        0
  0
ACAD_PROXY_OBJECT
  5
17C9
330
178E
100
AcDbProxyObject
 90
      499
 91
      534
 95
   524319
 70
     0
 96
    56676
311
90247004200A4091C0108010247004200AAAAAAAA4091C01080102470042004091C0108024191C010800B801E001B401B0010432002E0032003400410CC00B800C400D4010333002E00350040CD000B800D40101350040CD800B800CC01013900AAAA48D3C01D8019401C801D801A4019401DC01500184018801B00194010C
311
01BC01B001D401B401B8017C015401CC019401C8015001E401C0019400C4017C013001840188019401B002AAA418A1D4DD8BAA06696D2538C4011C50006F006C00610072005400610062006C00650043006F006C0075006D006E005F0041006E0067006C0065005F004C006100620065006C00AAA901B8034910C018401C80
311
1D0019401CC01A4018401B801500184018801B00194010C01BC01B001D401B401B8017C01480184019001A401D401CC017C013001840188019401B0017C0154012402AAA405C80121430061007200740065007300690061006E005400610062006C00650043006F006C0075006D006E005F005200610064006900750073005
311
F004C006100620065006C00AAA90172004954001BC01B0018401C801500184018801B00194010C01BC01B001D401B401B8017C0110019401CC018C01C801A401C001D001A401BC01B8017C013001840188019401B0017C0154012402AAA40BD22C3999224F0076006500720076006900650077005400610062006C00650043
311
006F006C0075006D006E005F005100750061006E0074006900740079005F004C006100620065006C00AAA9027065CF914710C018401C801D0019401CC01A4018401B801500184018801B00194010C01BC01B001D401B401B8017C0164017C013001840188019401B002AAA40564011D50006F006C006100720054006100620
311
06C00650043006F006C0075006D006E005F005200610064006900750073005F004C006100620065006C00AAA90172004993C01D8019401C801D801A4019401DC01500184018801B00194010C01BC01B001D401B401B8017C015401CC019401C8015001E401C0019400CC017C013001840188019401B0017C0154012402AAA4
311
18A1D4DD8BAA06696D2538CC0126430061007200740065007300690061006E005400610062006C00650043006F006C0075006D006E005F004400650073006300720069007000740069006F006E005F004C006100620065006C00AAA902F48B0E6649D0C018401C801D0019401CC01A4018401B801500184018801B00194010
311
C01BC01B001D401B401B8017C015401CC019401C8015001E401C0019400D4017C013001840188019401B0017C0154012402AAA418A1D4DD8BAA06696D2538D40127430061007200740065007300690061006E005400610062006C00650043006F006C0075006D006E005F005500730065007200540079007000650034005F0
311
04C006100620065006C005F0055004900AAA90628753762EA819A5B494E340049D0C018401C801D0019401CC01A4018401B801500184018801B00194010C01BC01B001D401B401B8017C015401CC019401C8015001E401C0019400CC017C013001840188019401B0017C0154012402AAA418A1D4DD8BAA06696D2538CC0127
311
430061007200740065007300690061006E005400610062006C00650043006F006C0075006D006E005F005500730065007200540079007000650032005F004C006100620065006C005F0055004900AAA90628753762EA819A5B494E320049D0C018401C801D0019401CC01A4018401B801500184018801B00194010C01BC01B
311
001D401B401B8017C015401CC019401C8015001E401C0019400C4017C013001840188019401B0017C0154012402AAA418A1D4DD8BAA06696D2538C40129430061007200740065007300690061006E005400610062006C00650043006F006C0075006D006E005F004400650073006300720069007000740069006F006E005F0
311
04C006100620065006C005F0055004900AAA902F48B0E6647D4001BC01B0018401C801500184018801B00194010C01BC01B001D401B401B8017C012001BC01B00194012401D0019401B4017C013001840188019401B002AAA405516D1C430061007200740065007300690061006E005400610062006C00650043006F006C00
311
75006D006E005F0058005F004C006100620065006C00AAA90158004993C01D8019401C801D801A4019401DC01500184018801B00194010C01BC01B001D401B401B8017C015401CC019401C8015001E401C0019400C4017C013001840188019401B0017C0154012402AAA418A1D4DD8BAA06696D2538C401234F00760065007
311
20076006900650077005400610062006C00650043006F006C0075006D006E005F005500730065007200540079007000650034005F004C006100620065006C00AAA90628753762EA819A5B494E340048D0C018401C801D0019401CC01A4018401B801500184018801B00194010C01BC01B001D401B401B8017C011001A40184
311
01B4019401D0019401C8017C013001840188019401B002AAA40C940094018C01264F0076006500720076006900650077005400610062006C00650043006F006C0075006D006E005F005500730065007200540079007000650032005F004C006100620065006C005F0055004900AAA90628753762EA819A5B494E32004990C0
311
18401C801D0019401CC01A4018401B801500184018801B00194010C01BC01B001D401B401B8017C012001BC01B00194012401D0019401B4017C013001840188019401B0017C0154012402AAA405516D254F0076006500720076006900650077005400610062006C00650043006F006C0075006D006E005F004400690061006
311
D0065007400650072005F004C006100620065006C005F0055004900AAA90124044814001BC01B0018401C801500184018801B00194010C01BC01B001D401B401B8017C01480184019001A401D401CC017C013001840188019401B0017C0154012402AAA405C8011B50006F006C00610072005400610062006C00650043006F
311
006C0075006D006E005F0059005F004C006100620065006C005F0055004900AAA901590046D4001BC01B0018401C801500184018801B00194010C01BC01B001D401B401B8017C0160017C013001840188019401B0017C0154012402AAA405600126430061007200740065007300690061006E005400610062006C006500430
311
06F006C0075006D006E005F004400690061006D0065007400650072005F004C006100620065006C005F0055004900AAA901240448D3C01D8019401C801D801A4019401DC01500184018801B00194010C01BC01B001D401B401B8017C015401CC019401C8015001E401C0019400D4017C013001840188019401B002AAA418A1
311
D4DD8BAA06696D2538D401234F0076006500720076006900650077005400610062006C00650043006F006C0075006D006E005F005500730065007200540079007000650033005F004C006100620065006C00AAA90628753762EA819A5B494E33004893C01D8019401C801D801A4019401DC01500184018801B00194010C01B
311
C01B001D401B401B8017C011001A4018401B4019401D0019401C8017C013001840188019401B002AAA40C940094018C012250006F006C00610072005400610062006C00650043006F006C0075006D006E005F004400650073006300720069007000740069006F006E005F004C006100620065006C00AAA902F48B0E664993C
311
01D8019401C801D801A4019401DC01500184018801B00194010C01BC01B001D401B401B8017C015401CC019401C8015001E401C0019400D0017C013001840188019401B0017C0154012402AAA418A1D4DD8BAA06696D2538D0011F50006F006C00610072005400610062006C00650043006F006C0075006D006E005F004100
311
6E0067006C0065005F004C006100620065006C005F0055004900AAA901B8034814001BC01B0018401C801500184018801B00194010C01BC01B001D401B401B8017C015401CC019401C8015001E401C0019400D4017C013001840188019401B002AAA418A1D4DD8BAA06696D2538D4012050006F006C0061007200540061006
311
2006C00650043006F006C0075006D006E005F005500730065007200540079007000650034005F004C006100620065006C00AAA90628753762EA819A5B494E34004814001BC01B0018401C801500184018801B00194010C01BC01B001D401B401B8017C015401CC019401C8015001E401C0019400CC017C0130018401880194
311
01B002AAA418A1D4DD8BAA06696D2538CC012050006F006C00610072005400610062006C00650043006F006C0075006D006E005F005500730065007200540079007000650032005F004C006100620065006C00AAA90628753762EA819A5B494E32004814001BC01B0018401C801500184018801B00194010C01BC01B001D40
311
1B401B8017C015401CC019401C8015001E401C0019400C4017C013001840188019401B002AAA418A1D4DD8BAA06696D2538C4011850006F006C00610072005400610062006C00650043006F006C0075006D006E005F0059005F004C006100620065006C00AAA90159004614001BC01B0018401C801500184018801B0019401
311
0C01BC01B001D401B401B8017C0160017C013001840188019401B002AAA40560011148006F006C006500430068006100720074004C006F00610064005400790070006500AAA9254F0076006500720076006900650077005400610062006C00650043006F006C0075006D006E005F0048006F006C0065004900740065006D00
311
5F004C006100620065006C005F0055004900AAA901545B48D0C018401C801D0019401CC01A4018401B801500184018801B00194010C01BC01B001D401B401B8017C010401B8019C01B00194017C013001840188019401B0017C0154012402AAA406E00D264F0076006500720076006900650077005400610062006C0065004
311
3006F006C0075006D006E005F005500730065007200540079007000650035005F004C006100620065006C005F0055004900AAA90628753762EA819A5B494E350048D3C01D8019401C801D801A4019401DC01500184018801B00194010C01BC01B001D401B401B8017C015401CC019401C8015001E401C0019400C8017C0130
311
01840188019401B002AAA418A1D4DD8BAA06696D2538C801224F0076006500720076006900650077005400610062006C00650043006F006C0075006D006E005F0048006F006C0065004900740065006D005F004C006100620065006C00AAA901545B4953C01D8019401C801D801A4019401DC01500184018801B00194010C0
311
1BC01B001D401B401B8017C014401D4018401B801D001A401D001E4017C013001840188019401B0017C0154012402AAA409C1973E451F430061007200740065007300690061006E005400610062006C00650043006F006C0075006D006E005F0059005F004C006100620065006C005F0055004900AAA901590047D0C018401
311
C801D0019401CC01A4018401B801500184018801B00194010C01BC01B001D401B401B8017C0160017C013001840188019401B0017C0154012402AAA40560011F50006F006C00610072005400610062006C00650043006F006C0075006D006E005F004400690061006D0065007400650072005F004C006100620065006C00AA
311
A9032500250063004910C018401C801D0019401CC01A4018401B801500184018801B00194010C01BC01B001D401B401B8017C015401CC019401C8015001E401C0019400D4017C013001840188019401B002AAA418A1D4DD8BAA06696D2538D40124430061007200740065007300690061006E005400610062006C006500430
311
06F006C0075006D006E005F005500730065007200540079007000650034005F004C006100620065006C00AAA90628753762EA819A5B494E34004910C018401C801D0019401CC01A4018401B801500184018801B00194010C01BC01B001D401B401B8017C015401CC019401C8015001E401C0019400CC017C01300184018801
311
9401B002AAA418A1D4DD8BAA06696D2538CC0124430061007200740065007300690061006E005400610062006C00650043006F006C0075006D006E005F005500730065007200540079007000650032005F004C006100620065006C00AAA90628753762EA819A5B494E32004910C018401C801D0019401CC01A4018401B8015
311
00184018801B00194010C01BC01B001D401B401B8017C015401CC019401C8015001E401C0019400C4017C013001840188019401B002AAA418A1D4DD8BAA06696D2538C40120430061007200740065007300690061006E005400610062006C00650043006F006C0075006D006E005F0041006E0067006C0065005F004C00610
311
0620065006C00AAA901B8034351401B80184018801B00194011401E001C001B001BC0190019402A41D580150017C0108013C013C013002A4894001BC01B0018401C801500184018801B00194010C01BC01B001D401B401B8017C012001BC01B00194012401D0019401B4017C013001840188019401B0017C0154012402AAA4
311
05516D23430061007200740065007300690061006E005400610062006C00650043006F006C0075006D006E005F0048006F006C0065004900740065006D005F004C006100620065006C00AAA901545B4894001BC01B0018401C801500184018801B00194010C01BC01B001D401B401B8017C011001A4018401B4019401D0019
311
401C8017C013001840188019401B0017C0154012402AAA404901110530079006D005400650078007400530069007A00650052006100740069006F00A905560054005F0052003800A9054C006100620065006C0040560010159004211001A4018401B4019401D0019401C8010B4400650073006300720069007000740069006
311
F006E004153001840188019401B0010B50006F006C00610072005200610064006900750073004294001BC01B0018401C8010401B8019C01B0019401084400690061006D00650074006500720042D10019401CC018C01C801A401C001D001A401BC01B8010848006F006C0065004900740065006D004211001A4018401B4019
311
401D0019401C801085100750061006E0074006900740079004255401CC019401C8015001E401C0019400D00109350030002E003000300030003000300030004255401CC019401C8015001E401C0019400D40109350030002E003000300030003000300030004153001840188019401B00109320030002E0030003000300030
311
00300030004211001A4018401B4019401D0019401C80109320035002E003000300030003000300030004255401CC019401C8015001E401C0019400C40109350030002E003000300030003000300030004255401CC019401C8015001E401C0019400C80109350030002E0030003000300030003000300040564010932003000
311
2E0030003000300030003000300042D10019401CC018C01C801A401C001D001A401BC01B80109350030002E003000300030003000300030004255401CC019401C8015001E401C0019400CC0109350030002E00300030003000300030003000405600109320030002E003000300030003000300030004294001BC01B0018401
311
C8010401B8019C01B001940109320030002E0030003000300030003000300042D4001BC01B0018401C801480184019001A401D401CC0109320030002E003000300030003000300030004255401CC019401C8015001E401C0019400D00109350030002E003000300030003000300030004255401CC019401C8015001E401C00
311
19400D40109350030002E003000300030003000300030004153001840188019401B00109320030002E003000300030003000300030004211001A4018401B4019401D0019401C80109320035002E003000300030003000300030004255401CC019401C8015001E401C0019400C40109350030002E0030003000300030003000
311
30004255401CC019401C8015001E401C0019400C80109350030002E00300030003000300030003000405640109320030002E0030003000300030003000300042D10019401CC018C01C801A401C001D001A401BC01B80109350030002E003000300030003000300030004255401CC019401C8015001E401C0019400CC010935
311
0030002E00300030003000300030003000405600109320030002E003000300030003000300030004294001BC01B0018401C8010401B8019C01B001940109320030002E0030003000300030003000300042D4001BC01B0018401C801480184019001A401D401CC0109320030002E003000300030003000300030004214401D4
311
018401B801D001A401D001E40109310032002E003000300030003000300030004255401CC019401C8015001E401C0019400D00109350030002E003000300030003000300030004255401CC019401C8015001E401C0019400D40109350030002E003000300030003000300030004212001BC01B00194012401D0019401B4010
311
9320030002E003000300030003000300030004211001A4018401B4019401D0019401C80109320035002E003000300030003000300030004255401CC019401C8015001E401C0019400C40109350030002E003000300030003000300030004255401CC019401C8015001E401C0019400C80109350030002E0030003000300030
311
00300030004255401CC019401C8015001E401C0019400CC0109350030002E003000300030003000300030004255401CC019401C8015001E401C0019400D0010628753762EA819A5B494E34004255401CC019401C8015001E401C0019400D4010628753762EA819A5B494E35004153001840188019401B00101545B4211001A
311
4018401B4019401D0019401C801032500250063004255401CC019401C8015001E401C0019400C4010628753762EA819A5B494E31004255401CC019401C8015001E401C0019400C8010628753762EA819A5B494E3200405640101590042D10019401CC018C01C801A401C001D001A401BC01B80102F48B0E664255401CC0194
311
01C8015001E401C0019400CC010628753762EA819A5B494E330040560010158004294001BC01B0018401C8010401B8019C01B001940101B80342D4001BC01B0018401C801480184019001A401D401CC010172004255401CC019401C8015001E401C0019400D0010628753762EA819A5B494E34004255401CC019401C801500
311
1E401C0019400D4010628753762EA819A5B494E35004153001840188019401B00101545B4211001A4018401B4019401D0019401C801032500250063004255401CC019401C8015001E401C0019400C4010628753762EA819A5B494E31004255401CC019401C8015001E401C0019400C8010628753762EA819A5B494E3200405
311
640101590042D10019401CC018C01C801A401C001D001A401BC01B80102F48B0E664255401CC019401C8015001E401C0019400CC010628753762EA819A5B494E330040560010158004294001BC01B0018401C8010401B8019C01B001940101B80342D4001BC01B0018401C801480184019001A401D401CC010172004214401
311
D4018401B801D001A401D001E401027065CF914255401CC019401C8015001E401C0019400D0010628753762EA819A5B494E34004255401CC019401C8015001E401C0019400D4010628753762EA819A5B494E35004212001BC01B00194012401D0019401B40101545B4211001A4018401B4019401D0019401C8010325002500
311
63004255401CC019401C8015001E401C0019400C4010628753762EA819A5B494E31004255401CC019401C8015001E401C0019400C8010628753762EA819A5B494E32004255401CC019401C8015001E401C0019400CC010628753762EA819A5B494E33000
 93
     7193
310
406406FFFFFFFFFFFFFF003FFFCFFFF3FFFCFFFF3FFFCFFFF3FFFCFFFF3FFFFFFFCFFFFFFFF3FFFFFFFCFFFFFFFF3FFFFFFFCFFFFFFFF3FFFFFFFCFFFFFFFF407FFFFFFFFFFFFFFFCFFFF3FFFCFFFF3FFFCFFFF3FFFCFFFF3FFFCFFFFFFFF3FFFFFFFCFFFFFFFF3FFFFFFFCFFFFFFFF3FFFFFFFCFFFFFFFF3FFFFFFFEAAA90
310
1405023300C069023FFFD033FFFE406A41E555000000000000031000000000000000C40000000000000031000000000000000C40000000000000031000000000000000C403FFFCFFFF3FFFCFFFF3FFFCFFFF3FFFCFFFF3FFFCFFFF3FFFCFFFFFFFFFFFFFFFFFFFF3FFFCFFFF3FFFCFFFF3FFFCFFFF3FFFCFFFF3FFFFFFFCFF
310
FFFFFF3FFFFFFFCFFFFFFFF3FFFFFFFCFFFFFFFF3FFFFFFFCFFFFFFFFAAAA4F9018210640002040080C108320001020040608419000081002030420C800040801018210640002040080C108320001020040608419000081002030420C800040801018210640002040080C108320001020040608419000081002030420C8000
310
40801018210640002040080C108320001020040608419000081002030420C800040801018210640002040080C108320001020040608419000081002030420C800040801018210640002040080C108320001020040608419000081002030420C800040801018210640002040080C10832000102004060841900008100203042
310
0C800040801018210640002040080C108320001020040608419000081002030420C800040801018210640002040080C108320001020040608419000081002030420C800040801018210640002040080C108320001020040608419000081002030420C800040801018210640002040080C10232000102004050182106400020
310
40080C108320001020040608419000081002030420C800040801018210640002040080C108320001020040608419000081002030420C800040801018210640002040080C108320001020040608419000081002030420C800040801018210640002040080C10832000102004060841900008100203042CC800040800FFFF406
310
08419000081002030420C800040801018210640002040080C105320001020050140E40AF0000000000000310102000000000000051010200000000000005101020000000000000710102000000000000031010340FA115000000000000068802E47E17A942E1BA00B91F85EA50B86A800000000000001E20281481A0520682
310
A0A81A1886210862188400
340
0
340
0
340
0
340
0
340
0
340
0
340
0
340
0
340
0
340
0
340
0
340
0
340
0
340
0
340
0
340
0
340
0
340
0
340
0
340
0
340
0
340
0
340
0
340
0
340
0
340
0
340
0
340
0
340
0
340
0
340
0
 94
        0
  0
ACAD_PROXY_OBJECT
  5
17CA
330
178E
100
AcDbProxyObject
 90
      499
 91
      535
 95
   524319
 70
     0
 96
     5972
311
9040E66C67E68883100A9040E66C67E68883100AAAA410399B19F9A220C401040E66C67E68883100410399B19F9A220C4010B6D007800620048006500610064002E0064007700670042DB401E00188010801BC019001E400B8019001DC019C010B640065006600610075006C0074002E0078006D006C00906520045004C005
311
0004F00530040A3D7BDD4E41D580150017C0108014C0150014801084500440054005F004E004F004E004500A90843004F004D0050004E0041004D00450040BF95BDD4E41D580150017C0108014C0150014801084500440054005F004E004F004E004500A90743004F004D0050004400450053004083553C1E641D580150017
311
C0108014C0150014801084500440054005F004E004F004E004500A906520045004C00510054005900409C1973E46415580150017C014800E001084500440054005F004E004F004E004500A41D0C013C01340140013401040150010250679965907560054005F0042005300540052004210C01340108017C0110013C015C013
311
8011746006500320037003B0046006500330037003B004300340030003B004300360030003B00340035003B0032003000A4190C013C01340140015C015001025553CD91905560054005F00520038004211401100150017C0138013C013801140290743004F004D005000540057005400408ED833646415580150017C014800
311
E001084500440054005F004E004F004E00450090D43004F004D005000570054002A00520045004C005100540059004290C013C0134014001480114013401040148012C01020759E86C907560054005F0042005300540052004211401100150017C0138013C0138011402A4210C013C0134014001240150011401340104F696
311
F64E7B7C8B57413AA04D94BDA5BD93907560054005F0042005300540052004210C01340108017C0110013C015C0138011F0768C651F64E3B0016592D8DF64E3B001F502875F64E3B001659D459F696F64E3B001659D459E890F64E3B00EA813652F696F64E3B00EA813652E890F64EA0
 93
     1359
310
406406FFFFFFFFFFFFFF003FFFCFFFF3FFFCFFFF3FFFCFFFF3FFFCFFFF3FFFFFFFCFFFFFFFF3FFFFFFFCFFFFFFFF3FFFFFFFCFFFFFFFF3FFFFFFFCFFFFFFFF40501404040020010940618414000081002034422580000080101A211680000040080D10532000102000000000000000000101A210640002040080D105320201
310
02000000000000000000101A00A780402040000000000000000002034422300004080101A2105000020400
340
0
340
0
340
0
340
0
340
0
340
0
340
0
340
0
 94
        0
  0
ACAD_PROXY_OBJECT
  5
17CB
330
178E
100
AcDbProxyObject
 90
      499
 91
      536
 95
   524319
 70
     0
 96
     9266
311
904076898980F683100A904076898980F683100AAAA4101DA262603DA0C40105076898980F682D0031004101DA262603DA0C4024201DA262603DA0C400B8019001DC019C010C640065006600610075006C00740031002E0078006D006C00A41D0C013C013401400104013801640104014F1A4E0D54F079907560054005F004
311
2005300540052004210C01340108017C0110013C015C013801132D4EFD56DC8F0B6D3B00004E7D6C2C6730753B002D4E5480CD91D1793B00776D6C9A7D6C668FA41D0C013C0134014001100114014C0104FE5637680D54F079907560054005F0042005300540052004211401100150017C0138013C0138011402A4210C013C
311
0134014001380104013401140104FE563768E34EF753907560054005F0042005300540052004211401100150017C0138013C0138011402A41D0C013C013401400134010401500109A74EC1540D54F0791662506799650768B08B907560054005F0042005300540052004210C01340108017C0110013C015C0138015A460065
311
00320037003B0046006500330037003B004300340030003B004300360030003B00330038004E0043004400340020002D002000038C288DA2943B00310030004E004300320020002D002000176EB378A2943B00500041004C0053006900300034004D00670020002D0020003F96F47E0266DD940854D1913B0065590F6C534F
311
0D4E0895A2943B0041004900530049003300310036004C0020002D00200049004E004F0058000A71A563D37E8467A2943B00A4190C013C01340140015C01500102CD91CF91905560054005F00520038004211401100150017C0138013C0138011402908440045005300490047004E004500520040AFA2E862E41D580150017
311
C0108014C0150014801084500440054005F004E004F004E004500A90543004800450043004B0040A856CE1A241D580150017C0108014C0150014801084500440054005F004E004F004E004500A9085300540041004E00440041005200440040C1DA31944594E41D580150017C0108014C0150014801084500440054005F004
311
E004F004E004500A90A54004500430048004E004F004C004F004700590040B9575EA0A41D580150017C0108014C0150014801084500440054005F004E004F004E004500A904440041005400450040B95947D9E41D580150017C0108014C0150014801085000540049005F004400410054004500A90A54004F00540041004C0
311
05000410050004500520040DC5478145D66241D580150017C0108014C0150014801084500440054005F004E004F004E004500A90650004100470045004E004F0040CB1EF8145D66241D580150017C0108014C0150014801084500440054005F004E004F004E004500A9055300430041004C00450040B51AE2D3E41D5801500
311
17C0108014C0150014801084500440054005F004E004F004E004500A90550004100470045005300413F95AE1F8817DC19641D580150017C0108014C0150014801084500440054005F004E004F004E004500A9094600520041004D004500530049005A00450040BF959157A41D580150017C0108014C0150014801084500440
311
054005F004E004F004E004500AAAAA80
 93
     2097
310
406406FFFFFFFFFFFFFF003FFFCFFFF3FFFCFFFF3FFFCFFFF3FFFCFFFF3FFFFFFFCFFFFFFFF3FFFFFFFCFFFFFFFF3FFFFFFFCFFFFFFFF3FFFFFFFCFFFFFFFF4050140400050F40688419000081002034420C80004080101A210640002040080D108320001020040688299010081000000000000000000080D1083200010200
310
40688419000081002034420C80004080101A210640002040080D108320001020040688419000081002034420C80004080101A210640002040080D108320001020040688419000081007FFFFFFFFFFFFFFF9FFFE7FFF9FFFE7FFF9FFFE7FFF9FFFE7FFF9FFFFFFFE7FFFFFFF9FFFFFFFE7FFFFFFF9FFFFFFFE7FFFFFFF9FFFF
310
FFFE7FFFFFFFD55500
340
0
340
0
340
0
340
0
340
0
340
0
340
0
340
0
340
0
340
0
340
0
340
0
340
0
340
0
340
0
340
0
 94
        0
  0
ACAD_PROXY_OBJECT
  5
17CC
330
178E
100
AcDbProxyObject
 90
      499
 91
      537
 95
   524319
 70
     0
 96
     3852
311
90241003300A90241003300AAAA4490400CC017C0381941948E94FF95919A17C01B0018401B8019001CC018C018401C0019401024100330041781941948E94FF95919A105E06506523A53FE564668405300110610033005F006C0061006E006400730063006100700065002E006400770067009096C0061006E00640073006
311
3006100700065004450400CC017C0381941948E94FF95919A17C01C001BC01C801D001C8018401A401D001024100330041781941948E94FF95919A105E06506523A53FE56466840530010F610033005F0070006F007200740072006100690074002E0064007700670090870006F007200740072006100690074004410400CC
311
017C001948E94FF95919A17C01C001BC01C801D001C8018401A401D00102410033004101948E94FF95919A10406523A53FE564668405300111610033005F0070006F007200740072006100690074005F0070002E0064007700670090870006F007200740072006100690074004450400CC017C001948E94FF95919A17C01B0
311
018401B8019001CC018C018401C001940102410033004101948E94FF95919A10406523A53FE564668405300112610033005F006C0061006E006400730063006100700065005F0070002E006400770067009096C0061006E006400730063006100700065000
 93
     1932
310
406406FFFFFFFFFFFFFF003FFFCFFFF3FFFCFFFF3FFFCFFFF3FFFCFFFF3FFFFFFFCFFFFFFFF3FFFFFFFCFFFFFFFF3FFFFFFFCFFFFFFFF3FFFFFFFCFFFFFFFF405044040000000000407A400000000000241C9000000000000003940000000000000051000000000000002440AA54040000000000407A400000000000241C90
310
00000000000003940000000000000051000000000000002440AA44040000000000407A400000000000241C9000000000000003940000000000000051000000000000002440AA44040000000000407A400000000000241C9000000000000003940000000000000051000000000000002440AA40
340
0
340
0
340
0
340
0
340
0
340
0
340
0
340
0
 94
        0
  0
ENDSEC
  0
EOF
